#TITLE:mumei;
#SUBTITLE:;
#ARTIST:Nanashi Mumei;
#TITLETRANSLIT:;
#SUBTITLETRANSLIT:;
#ARTISTTRANSLIT:;
#GENRE:;
#CREDIT:;
#BANNER:mumei.png;
#BACKGROUND:mumei-bg.png;
#JACKET:mumei-jacket.png;
#LYRICSPATH:;
#CDTITLE:;
#MUSIC:mumei.mp3;
#OFFSET:-0.084;
#SAMPLESTART:62.608;
#SAMPLELENGTH:12.000;
#SELECTABLE:YES;
#DISPLAYBPM:96.000:
#BPMS:0.000=96.000;
#STOPS:95.750=2.500;
#BGCHANGES:;
#KEYSOUNDS:;
#ATTACKS:;

//---------------dance-single - ----------------
#NOTES:
     dance-single:
     :
     Beginner:
     1:
     :
0000
0000
0000
0000
,
0000
0000
0000
0000
,
0000
0000
0000
0000
,
0000
0000
0000
0000
,
0001
0000
0000
0000
,
0010
0000
0000
0000
,
0100
0000
0000
0000
,
1000
0000
0000
0000
,
0100
0000
0000
0000
,
0010
0000
0000
0000
,
0001
0000
0000
0000
,
0100
0000
0000
0000
,
0010
0000
0000
0000
,
1000
0000
0000
0000
,
0001
0000
0000
0000
,
0100
0000
0000
0000
,
0000
0000
0000
0000
,
0002
0000
0000
0000
,
0000
0000
0103
0000
,
0010
0000
1000
0000
,
0010
0000
0100
0000
,
0002
0000
0000
0000
,
0000
0000
0013
0000
,
0100
0000
1000
0000
,
0010
0000
1000
0010
,
1000
0000
0001
0010
,
0001
0000
0001
0100
,
0001
0000
1000
0100
,
1000
0000
0100
0010
,
0001
0000
0001
0010
,
0100
0000
0010
0100
,
1000
0000
1000
0100
,
0010
0000
0000
0000
,
0001
0000
0000
0000
,
0010
0000
0000
0000
,
0100
0000
0000
0000
,
2000
0000
0000
0000
,
0000
0000
3001
0000
,
0100
0000
0010
0001
,
1000
0000
0100
0000
,
2000
0000
0000
0000
,
0000
0000
3010
0001
,
0100
0000
0010
0000
,
0000
0000
0010
1000
,
0100
0000
0100
0000
,
0001
0000
0001
0000
,
1000
0000
1000
0000
,
0010
0000
0010
0000
,
0000
0001
0000
0010
,
0000
0100
0000
1000
,
0000
0100
0000
0010
,
0000
0001
0000
0010
,
0200
0000
0000
0300
,
2000
0000
0000
3000
,
0002
0000
0000
0003
,
0200
0000
0000
0300
;

//---------------dance-single - ----------------
#NOTES:
     dance-single:
     :
     Easy:
     4:
     :
0000
0000
0000
0000
,
0000
0000
0000
0000
,
0000
0000
0000
0000
,
0000
0000
0000
0000
,
0100
0010
0100
0001
,
1000
0010
0010
1000
,
0000
0001
0100
0000
0000
0010
1000
0000
,
2000
0000
0000
3001
,
0010
0100
0010
1000
,
0002
0100
0100
0100
,
0103
0000
0100
0010
,
0010
0100
0001
0000
1001
0000
0000
0000
,
0001
0000
0000
1000
0001
0000
0110
0000
,
1000
0000
0000
1000
0100
0000
0000
0000
,
0001
0000
0000
0001
0100
0000
0000
0000
,
0010
0000
0000
0010
0100
0000
0000
0000
,
2002
0000
0000
0000
0000
0000
3003
1000
,
0010
0010
0010
0010
,
0010
0000
0010
0000
0010
0100
0010
0000
,
1000
0010
0001
0010
,
1000
0000
0100
0000
0001
0100
0000
0001
,
0010
0010
0010
0010
,
0010
0000
0010
0000
0010
0100
0010
0000
,
1001
0000
0110
0000
,
1001
0100
0001
0100
,
0010
0100
1000
0100
,
0001
0010
1000
0100
,
0001
0010
0001
0000
,
0110
0100
1000
0100
,
0010
0100
0001
0100
,
1000
0010
0100
0001
,
0010
0100
1000
0001
,
2200
0000
3300
0000
,
2020
0000
3030
0000
,
0022
0000
0033
0000
,
0202
0000
0000
0000
0303
0000
0000
1000
,
0100
0100
0100
0100
,
0100
0000
0100
0000
0100
1000
0001
0000
,
0100
0000
0010
0000
0100
0001
1000
0000
,
0010
0000
1000
0000
0100
1000
0000
0001
,
0100
0100
0100
0100
,
0100
0000
0100
0000
0100
0001
1000
0000
,
0100
0000
0010
0000
,
0220
0000
0000
0300
,
0130
0000
1000
0000
0001
0000
0100
0001
,
0010
0000
1000
0000
0001
0010
0100
0000
,
1000
0000
0100
0000
0001
0000
1000
0010
,
0001
0000
0100
0000
0010
0100
2002
0000
,
3003
0000
0110
0000
1000
0100
0001
0000
,
1000
0000
0010
0000
1000
0000
0001
0100
,
0001
0000
1000
0000
0010
0100
0001
0000
,
0100
0000
0010
0000
1000
0000
0001
0010
,
0200
0000
0000
0000
0000
0000
0000
1000
,
2300
0000
0000
0000
,
3020
0000
0000
0000
0000
0000
0000
0100
,
0230
0000
0000
0000
0000
0000
0000
0000
0002
0000
0000
0000
0000
0000
0000
0303
;

//---------------dance-single - ----------------
#NOTES:
     dance-single:
     :
     Medium:
     7:
     :
0000
0000
0000
0000
,
0000
0000
0000
0000
,
0000
0000
0000
0000
,
0000
0000
0000
0000
,
0000
0001
0100
0010
0100
0000
1000
0000
,
0100
0000
0010
0000
0001
0100
1000
0100
,
0000
0000
0010
0100
0000
0100
0001
0000
,
2000
0000
0000
0000
0000
3100
0001
0010
,
0001
0000
0001
0010
0001
0000
0001
1000
,
0020
0230
0320
0230
,
0301
0000
0000
0000
0010
0001
1000
0100
,
1100
0101
0110
0000
,
1000
0000
1000
0010
0000
0000
0100
0000
0001
0000
0000
0000
0010
0000
0000
0000
,
0100
0000
0000
1000
0000
0000
0100
0000
1000
0000
0000
0000
0010
0000
0000
0000
,
0001
0000
0000
0100
0000
0000
0001
0000
0100
0000
0000
0000
0010
0000
0000
0000
,
0010
0000
0000
0100
0000
0000
0010
0000
0100
0000
0000
0000
0100
0000
0000
0000
,
2002
0000
0000
0000
0000
0000
3003
0100
,
0011
1010
0011
1010
,
0011
0000
1010
1000
0001
0010
0100
1000
,
0100
0000
0001
0000
1000
0100
1000
0001
,
0100
0000
0010
0000
0010
1000
0000
0100
,
1010
0011
1010
0011
,
1010
0000
0011
0001
0010
0001
1000
0001
,
0100
0000
0000
0100
0001
1000
0000
0000
,
0110
0000
0100
0000
0001
0000
1000
0100
,
1000
0000
0010
0000
0001
0100
0010
0000
,
0010
0000
1000
0000
0001
0100
1000
0000
,
0100
0010
0001
0000
0001
1000
0000
0000
,
1001
0000
0100
0000
1000
0000
0010
0100
,
0010
0000
0001
0000
1000
0010
1000
0000
,
0010
0000
1000
0000
0001
0100
0100
0001
,
0010
0000
0100
0000
1000
0010
0010
1000
,
0100
0100
2200
3300
,
0001
0001
0202
0303
,
1000
1000
2020
3030
,
0010
0000
0010
0000
0022
0000
0033
0100
,
0101
1010
0101
1010
,
0101
0000
1010
0000
1000
0010
0100
0010
,
1000
0000
0001
0000
0100
0001
0100
1000
,
0100
0000
0010
0000
0010
1000
0000
0001
,
0011
1100
0011
1100
,
0011
0000
1100
0100
0001
0010
0001
0100
,
1000
0000
0000
0001
0010
1000
0000
0000
,
0020
0000
0000
1000
1000
0000
0001
0000
,
0130
0000
0001
0000
0010
0000
1000
0100
,
1000
0000
0001
0000
0010
0001
0100
0010
,
1000
0000
0010
0000
0001
0000
0100
1000
,
0010
0001
1000
0002
,
0200
0303
0010
0000
1000
1000
0100
0100
,
0010
0000
0001
0000
1000
0001
1000
0001
,
0100
0000
0001
0000
1000
0010
0001
0100
,
0010
0010
0010
0000
0100
0100
0100
0000
,
0001
0000
0100
0000
0001
0000
0100
0001
,
1000
0100
1000
0100
,
0010
0000
0001
0000
0010
0000
0001
1000
,
0010
0000
0000
0000
1000
0000
0000
0000
0010
0000
0000
0000
1000
0010
0100
0001
;

//---------------dance-single - ----------------
#NOTES:
     dance-single:
     :
     Hard:
     13:
     :
// measure 0
0000
0000
0000
0000
,  // measure 1
0000
0000
0000
0000
,  // measure 2
0000
0000
0000
0000
,  // measure 3
0000
0000
0000
0000
,  // measure 4
0000
1000
0010
0001
0010
0100
1000
0001
,  // measure 5
0100
0000
0010
0000
0010
0000
1000
0000
1000
0100
1000
0000
0001
0000
0010
0000
,  // measure 6
0000
0000
0100
0010
0100
0000
1000
0000
0000
0000
0010
0001
1000
0000
0001
0000
,  // measure 7
1200
0000
1000
0000
1000
0310
0100
0001
,  // measure 8
1000
0000
0000
0000
0001
0010
0001
0000
1000
0000
0000
0000
1000
0100
1000
0000
,  // measure 9
0010
0001
1000
0001
0100
0010
0100
0001
,  // measure 10
0220
0000
0000
0000
0330
0000
1000
0100
0010
0000
0100
0010
0001
0000
0010
0001
,  // measure 11
1000
0010
0100
0010
1000
0100
0010
0001
,  // measure 12
1000
0010
0100
0010
0000
0000
0001
0000
0010
0000
0001
0000
1000
0000
0001
0000
,  // measure 13
0100
0010
0100
0001
0000
0001
1000
0000
2200
0000
0000
0000
3300
0000
0100
0000
,  // measure 14
0001
0100
0010
0100
0000
1000
0100
0000
0202
0000
0000
0000
0303
0000
0001
0000
,  // measure 15
0010
0100
0010
1000
0000
0100
0001
0000
2002
0000
0000
0000
0000
0000
3003
0000
,  // measure 16
0220
0000
0000
0000
0000
0000
0330
1000
,  // measure 17
0001
0001
0010
0010
0001
0001
0010
0010
,  // measure 18
0001
0001
0010
0010
0100
1000
0001
0100
,  // measure 19
0001
0010
0100
1000
0100
0010
0001
1000
,  // measure 20
0010
0001
0010
1000
0010
0100
0001
1000
,  // measure 21
0010
0010
1000
1000
0010
0010
1000
1000
,  // measure 22
0010
0010
1000
1000
0100
0001
0010
0001
,  // measure 23
1100
0000
0000
0000
0000
0000
0101
0000
0002
0000
0200
0000
0000
0000
0000
0303
,  // measure 24
0010
0001
0100
0010
0100
0001
0000
1000
0000
0100
1000
0001
0010
0001
0100
0000
,  // measure 25
0010
0000
0001
0010
0100
0000
1000
0010
0000
0010
0001
0100
1000
0000
0000
0100
,  // measure 26
0010
0000
1000
0100
1000
0000
0100
0010
0100
0001
0010
1000
0010
0000
0000
0000
,  // measure 27
0100
0010
0100
0010
0100
0000
0001
0000
0010
0000
0001
0000
0010
0000
0100
0000
,  // measure 28
1000
0100
0010
0100
0001
0000
0001
0100
0010
0100
1000
0000
0001
0010
0001
0000
,  // measure 29
1000
0010
0100
1000
0001
0100
0010
0001
1000
0100
1000
0001
0100
0000
0000
0010
,  // measure 30
0100
0001
0010
1000
0010
0001
0000
1000
0100
1000
0010
0100
0001
0100
0010
0000
,  // measure 31
0001
0100
1000
0100
0001
0000
1000
0010
0001
0010
1000
0000
0100
0000
0010
0000
,  // measure 32
0001
0010
0001
0010
0001
0100
0001
0100
0001
0010
0200
1300
0100
0010
0001
1000
,  // measure 33
0100
0010
0100
0010
0100
1000
0100
1000
0100
0010
0100
1000
0001
1000
0010
0100
,  // measure 34
1000
0010
1000
0010
1000
0100
1000
0100
1000
0001
0010
0001
0100
0010
1000
0100
,  // measure 35
1000
0001
1000
0001
0100
0010
0100
0010
1000
0100
0010
0001
0010
0100
1000
0000
,  // measure 36
1000
0100
0010
0000
0100
0010
0001
0000
0010
0001
1000
0000
0001
1000
0010
0000
,  // measure 37
1000
0010
0100
0000
0010
0100
0001
0000
0100
0000
0001
0000
1000
0000
0100
0000
,  // measure 38
0010
0100
0001
0000
0100
0000
0010
0000
1000
0001
0100
0000
0010
0000
0100
0000
,  // measure 39
0001
0010
0001
0000
1000
0000
0100
0000
1000
0000
0010
0000
0000
0000
0001
0000
,  // measure 40
0010
0001
0010
0000
0001
0100
0001
0000
0100
0010
0100
0000
0010
1000
0010
0000
,  // measure 41
1000
0100
1000
0000
0001
1000
0001
0000
0010
0000
0100
0000
0010
0000
0001
0000
,  // measure 42
1000
0000
0000
1001
1010
0011
0000
0000
,  // measure 43
0000
0000
0000
1100
0101
0000
0110
1001
,  // measure 44
0110
0000
0100
0000
0010
0000
1000
0100
1000
0000
0001
0100
0001
0010
0001
1000
,  // measure 45
0000
0100
0010
0000
0001
0000
0100
1000
0010
1000
0100
0010
0001
0010
0001
0100
,  // measure 46
0010
0000
1000
0000
0100
0000
0100
0010
0001
0000
1000
0010
0100
0010
0001
0010
,  // measure 47
0000
0100
0010
0000
0110
0000
0100
0010
0000
0001
1000
0000
2002
0000
0000
0000
,  // measure 48
3003
0000
0100
0000
0010
0000
1000
0100
1000
0000
0001
0100
0010
0100
0001
1000
,  // measure 49
0000
1000
0010
0000
0100
0010
0001
0010
0100
0001
1000
0010
1000
0100
0001
0100
,  // measure 50
1000
0000
0010
0000
0010
0000
0100
0001
0010
0000
0001
0010
0100
1000
0100
0010
,  // measure 51
0000
0001
0100
0000
1001
0000
1000
0010
0000
0100
0010
0000
0100
0001
0100
0010
,  // measure 52
1000
0000
0001
0000
0010
0100
0100
0100
0010
0100
0100
0100
0000
0010
1000
0001
,  // measure 53
0100
0001
0010
0000
0001
1000
1000
1000
0001
1000
1000
1000
0001
0010
0100
0000
,  // measure 54
0100
0000
0001
0000
1000
0010
0010
0010
1000
0010
0010
0010
0000
0100
0001
1000
,  // measure 55
0100
0001
0010
0000
0010
1000
0100
1000
0000
0100
0010
0000
1000
0010
0100
0001
;
