#TITLE:WAKA LAKA 2025;
#SUBTITLE:;
#ARTIST:Jenny Rom and The Zippers;
#TITLETRANSLIT:;
#SUBTITLETRANSLIT:;
#ARTISTTRANSLIT:;
#GENRE:;
#CREDIT:;
#BANNER:WAKA LAKA 2025.png;
#BACKGROUND:WAKA LAKA 2025-bg.png;
#LYRICSPATH:;
#CDTITLE:;
#MUSIC:WAKA LAKA 2025.mp3;
#OFFSET:1.375000;
#SAMPLESTART:87.566002;
#SAMPLELENGTH:15.000000;
#LASTBEATHINT:0.995021;
#SELECTABLE:YES;
#DISPLAYBPM:170.000000;
#BPMS:0.000000=170.000000;
#STOPS:;
#BGCHANGES:;
#KEYSOUNDS:;
#ATTACKS:;

//---------------dance-single - ----------------
#NOTES:
     dance-single:
     :
     Beginner:
     3:
     :
// measure 0
0000
0000
0000
0000
,  // measure 1
0000
0000
0000
0000
,  // measure 2
0000
0000
0000
0000
,  // measure 3
0000
0000
0000
0000
,  // measure 4
0000
0000
0000
0000
,  // measure 5
0000
0000
0000
0000
,  // measure 6
1000
0000
0000
0000
,  // measure 7
0001
0000
0000
0000
,  // measure 8
0100
0000
0000
0000
,  // measure 9
0010
0000
0000
0000
,  // measure 10
0001
0000
0000
0000
,  // measure 11
0100
0000
0000
0000
,  // measure 12
0010
0000
0000
0000
,  // measure 13
1000
0000
0000
0000
,  // measure 14
0010
0000
0000
0000
,  // measure 15
0100
0000
0000
0000
,  // measure 16
1001
0000
0000
0000
,  // measure 17
0110
0000
0000
0000
,  // measure 18
0001
0000
1000
0000
,  // measure 19
0010
1000
0100
0000
,  // measure 20
2200
0000
0000
3300
,  // measure 21
0202
0000
0000
0303
,  // measure 22
0010
0000
0010
0000
,  // measure 23
0100
0100
0100
0000
,  // measure 24
2002
0000
0000
3003
,  // measure 25
0001
1000
0001
0000
,  // measure 26
1000
0000
0010
0000
,  // measure 27
0100
0001
0010
0000
,  // measure 28
0022
0000
0000
0033
,  // measure 29
2020
0000
0000
3030
,  // measure 30
0001
0000
0001
0000
,  // measure 31
1000
1000
1000
0000
,  // measure 32
0220
0000
0000
0330
,  // measure 33
0100
0010
0100
0000
,  // measure 34
0001
0000
0001
0000
,  // measure 35
0100
0000
0100
0000
,  // measure 36
0010
0000
0010
0000
,  // measure 37
1000
0000
1000
0000
,  // measure 38
0002
0000
0000
0000
,  // measure 39
0203
0000
0000
0000
,  // measure 40
0320
0000
0000
0000
,  // measure 41
2030
0000
0000
0000
,  // measure 42
3100
0000
0001
0000
,  // measure 43
0010
0000
0001
0000
,  // measure 44
2000
0000
0010
0000
,  // measure 45
0200
0000
3300
0001
,  // measure 46
0010
0000
0100
0000
,  // measure 47
1000
0000
0000
0000
,  // measure 48
0100
0000
0000
0000
,  // measure 49
0010
0000
0000
0001
,  // measure 50
1000
0000
0010
0000
,  // measure 51
0100
0000
0000
0000
,  // measure 52
0001
0000
0000
0000
,  // measure 53
2002
0000
3003
0010
,  // measure 54
0100
0000
0000
1000
,  // measure 55
0001
0000
0000
0100
,  // measure 56
1000
0000
0000
0100
,  // measure 57
0002
0000
0000
0013
,  // measure 58
0001
0000
0000
0010
,  // measure 59
1000
0000
0000
0000
,  // measure 60
0210
0000
0010
0000
,  // measure 61
0020
0000
0000
0000
,  // measure 62
0000
0000
0330
0000
,  // measure 63
0001
0000
0000
0000
,  // measure 64
1000
0000
0000
0000
,  // measure 65
0100
0000
0000
0000
,  // measure 66
0010
0000
0000
0000
,  // measure 67
0010
0000
0000
0000
,  // measure 68
1000
0000
0000
0000
,  // measure 69
0100
0000
0010
0000
,  // measure 70
0001
0000
0200
0000
,  // measure 71
0310
0000
1000
0000
,  // measure 72
0100
0010
0001
0000
,  // measure 73
2200
0000
0000
3300
,  // measure 74
0202
0000
0000
0303
,  // measure 75
0010
0000
0001
0000
,  // measure 76
1000
0100
1000
0000
,  // measure 77
1000
0000
0001
0000
,  // measure 78
1000
0000
0001
0000
,  // measure 79
1000
0000
0001
0000
,  // measure 80
0100
0010
0100
0000
,  // measure 81
0100
0000
0010
0000
,  // measure 82
0100
0000
0010
0000
,  // measure 83
0100
0000
0010
0000
,  // measure 84
1001
0000
0000
0000
;

//---------------dance-single - ----------------
#NOTES:
     dance-single:
     :
     Easy:
     6:
     :
// measure 0
0000
0000
0000
0000
,  // measure 1
0000
0000
0000
0000
,  // measure 2
0000
0000
0000
0000
,  // measure 3
0000
0000
0000
0000
,  // measure 4
0000
0000
0000
0000
,  // measure 5
0000
0000
0000
0000
,  // measure 6
2000
0000
3002
0000
,  // measure 7
0203
0000
0320
0000
,  // measure 8
0032
0000
2003
0000
,  // measure 9
3200
0320
0032
0000
,  // measure 10
0013
0010
0010
0000
,  // measure 11
1000
1000
1000
0000
,  // measure 12
0001
0001
0001
0000
,  // measure 13
0100
0100
0100
0000
,  // measure 14
1000
0100
1000
0000
,  // measure 15
0001
0100
0001
0000
,  // measure 16
1000
0000
0010
0000
,  // measure 17
0100
0001
1000
0000
,  // measure 18
0001
0001
1000
1000
,  // measure 19
0001
0100
0010
0000
,  // measure 20
0001
0100
0001
0000
,  // measure 21
1000
0100
1000
0000
,  // measure 22
0010
0010
0100
0100
,  // measure 23
0001
0010
1000
0010
,  // measure 24
0001
0100
1000
0100
,  // measure 25
0001
0010
0100
0000
,  // measure 26
1000
0100
0100
1000
,  // measure 27
0010
0100
0001
0000
,  // measure 28
0010
0001
0010
0000
,  // measure 29
1000
0010
1000
0000
,  // measure 30
0001
0100
0100
0001
,  // measure 31
0100
1000
0010
1000
,  // measure 32
0010
0100
0001
0010
,  // measure 33
0100
0010
0001
0000
,  // measure 34
1000
0100
1000
0100
,  // measure 35
0010
0100
0010
0100
,  // measure 36
0001
0100
0001
0100
,  // measure 37
0010
0010
0010
0100
,  // measure 38
1000
0000
0001
0000
,  // measure 39
2200
0000
3300
0000
,  // measure 40
0220
0000
0330
0000
,  // measure 41
0022
0000
0033
0001
,  // measure 42
0010
0001
0100
0001
,  // measure 43
2002
0000
3003
0000
,  // measure 44
1000
0010
0001
0010
,  // measure 45
2000
0000
0000
3100
,  // measure 46
0010
0001
1000
0001
,  // measure 47
0010
0100
1000
0000
,  // measure 48
0010
0000
0000
0001
0000
0000
0000
0000
,  // measure 49
0100
0000
0000
0010
0000
0000
1000
0000
,  // measure 50
0010
0100
0010
1000
,  // measure 51
0010
0100
0001
0000
,  // measure 52
0001
0100
1000
0100
,  // measure 53
0002
0000
0000
0013
,  // measure 54
0011
0000
0000
1000
,  // measure 55
1100
0000
0000
0100
,  // measure 56
0101
0000
0000
0010
,  // measure 57
2010
0000
0000
3010
,  // measure 58
0110
0000
0000
1000
,  // measure 59
1001
0000
0000
0000
,  // measure 60
0001
0010
0100
1000
,  // measure 61
2002
0000
0000
0000
,  // measure 62
0000
0000
3003
0000
,  // measure 63
1000
0000
1000
0000
,  // measure 64
0001
0000
0001
0000
,  // measure 65
0100
0000
0100
0000
,  // measure 66
0010
0000
0010
0000
,  // measure 67
0001
0000
1000
0000
,  // measure 68
0010
0000
0100
0000
,  // measure 69
1000
0000
0100
0000
,  // measure 70
0010
0000
0002
0000
,  // measure 71
0013
1000
0010
0100
,  // measure 72
0010
0001
0010
0100
,  // measure 73
0001
0001
0101
1100
,  // measure 74
1000
1000
1010
0011
,  // measure 75
0001
0010
0100
0010
,  // measure 76
0001
0100
0010
1000
,  // measure 77
0001
0001
0010
0010
,  // measure 78
0100
0100
0010
0010
,  // measure 79
1000
1000
0010
0010
,  // measure 80
1010
1001
0101
0000
,  // measure 81
0100
0100
0001
0001
,  // measure 82
0100
0100
1000
1000
,  // measure 83
0100
0100
0010
0010
,  // measure 84
2002
0000
0000
3003
0000
0000
0000
0000
;

//---------------dance-single - ----------------
#NOTES:
     dance-single:
     :
     Medium:
     9:
     :
// measure 0
0000
0000
0000
0000
,  // measure 1
0000
0000
0000
0000
,  // measure 2
0000
0000
0000
0000
,  // measure 3
0000
0000
0000
0000
,  // measure 4
0000
0000
0000
0000
,  // measure 5
0000
0000
0000
0000
,  // measure 6
1000
1000
0100
0100
,  // measure 7
0001
0001
0100
0100
,  // measure 8
0010
0010
0100
0100
,  // measure 9
0001
1000
0001
1000
,  // measure 10
0001
0000
0001
0000
0001
0000
0001
0010
,  // measure 11
0100
0000
0100
0000
0100
0000
0100
1000
,  // measure 12
0010
0000
0010
0000
0010
0000
0010
0100
,  // measure 13
1000
0000
1000
0000
1000
0100
0010
0001
,  // measure 14
0010
0000
0100
0000
0010
0000
0001
1000
,  // measure 15
0100
0000
1000
0000
0010
0000
0100
0010
,  // measure 16
0001
0001
0001
0000
1000
1000
1000
0000
,  // measure 17
0010
0100
0010
0000
1000
0100
0010
0001
,  // measure 18
0011
1010
0011
1010
,  // measure 19
1000
0010
0001
0000
0001
0010
1000
0000
,  // measure 20
1000
0100
1000
0000
1100
0000
0101
0000
,  // measure 21
0001
0100
0001
0000
0101
0000
1100
0000
,  // measure 22
1010
0011
1010
0011
,  // measure 23
0001
0010
0100
0000
0010
0000
0100
0000
,  // measure 24
1000
0100
0010
0000
0001
0000
1000
0000
,  // measure 25
1001
0110
1001
0000
,  // measure 26
1010
0011
1010
0011
,  // measure 27
0001
0100
1000
0000
1000
0100
0001
0000
,  // measure 28
0001
0100
0001
0000
0101
0000
1100
0000
,  // measure 29
1000
0100
1000
0000
1100
0000
0101
0000
,  // measure 30
0011
1010
0011
1010
,  // measure 31
1000
0010
0100
0000
0001
0000
0100
0000
,  // measure 32
0010
1000
0010
0000
0010
0000
0100
0000
,  // measure 33
0110
1001
0110
0000
,  // measure 34
0001
0001
0010
0010
,  // measure 35
1000
1000
0010
0010
,  // measure 36
0100
0100
0010
0010
,  // measure 37
1000
0100
0001
0010
,  // measure 38
0001
1000
0010
1000
,  // measure 39
0100
0000
1000
2200
0000
0000
0000
3300
,  // measure 40
0001
0000
0100
0202
0000
0000
0000
0303
,  // measure 41
1000
0000
0001
1001
0000
0100
0010
0001
,  // measure 42
1000
0001
1000
0000
0001
0100
0001
0000
,  // measure 43
0100
0000
0010
0102
0000
0000
0000
1003
,  // measure 44
0000
0001
1000
0001
0010
0000
0100
0000
,  // measure 45
0220
0000
0000
0000
0330
0100
0010
1000
,  // measure 46
0001
0100
0010
0000
0010
1000
0001
0000
,  // measure 47
0001
0000
0010
0100
0002
0000
0003
0000
,  // measure 48
1000
0000
0100
0010
0000
2000
3000
0000
,  // measure 49
0001
0000
0001
0010
0000
0100
0010
0001
,  // measure 50
1000
0001
0100
0000
0100
0001
0010
0000
,  // measure 51
0010
0000
1000
0102
0000
0000
0000
0103
,  // measure 52
0000
0100
0010
0000
0010
0000
0100
0000
,  // measure 53
2002
0000
0000
0000
3003
0100
0001
0010
,  // measure 54
0001
2000
0000
0000
0000
3010
0100
0001
,  // measure 55
0100
0020
0000
0000
0000
1030
0001
1000
,  // measure 56
0010
2000
0000
0000
0000
3001
0010
0100
,  // measure 57
1000
0000
0010
0100
0000
0100
0010
0001
,  // measure 58
0100
0020
0000
0000
0000
0130
1000
0001
,  // measure 59
1000
0200
0000
0000
0000
0300
0000
0100
,  // measure 60
0011
0110
1100
0110
,  // measure 61
0022
0000
0000
0000
,  // measure 62
0000
0000
0033
0000
,  // measure 63
0010
0010
0010
0010
,  // measure 64
0100
0001
1000
0100
,  // measure 65
0010
0001
0010
0000
1000
0000
0100
0000
,  // measure 66
1000
0010
1000
0000
0001
0000
0100
0000
,  // measure 67
0010
0010
0010
0010
,  // measure 68
0100
0001
0100
1000
,  // measure 69
0001
0010
0001
1000
,  // measure 70
0100
0000
0001
0000
1000
0100
0010
0001
,  // measure 71
0011
1010
0011
1010
,  // measure 72
0001
0010
0100
0010
0001
0000
0100
0000
,  // measure 73
1000
0100
1000
0100
1100
0000
0101
0000
,  // measure 74
0001
0100
0001
0100
0101
0000
1100
0000
,  // measure 75
1010
0011
1010
0011
,  // measure 76
0001
1000
0001
0100
0010
0000
0100
0000
,  // measure 77
0001
0010
0001
0000
0001
0000
0001
0000
,  // measure 78
1000
0010
1000
0000
1000
0000
1000
0000
,  // measure 79
0001
0010
0001
0000
0001
0000
0001
0000
,  // measure 80
0110
1001
0110
0000
,  // measure 81
0100
1000
0100
0000
0010
0000
0001
0000
,  // measure 82
0100
0001
0100
0000
0010
0000
1000
0000
,  // measure 83
0100
0010
0100
0000
0010
0000
0100
0000
,  // measure 84
1000
0000
0001
1001
0000
0000
0000
0000
;

//---------------dance-single - ----------------
#NOTES:
     dance-single:
     :
     Hard:
     13:
     :
// measure 0
0000
0000
0000
0000
,  // measure 1
0000
0000
0000
0000
,  // measure 2
0000
0000
0000
0000
,  // measure 3
0000
0000
0000
0000
,  // measure 4
0000
0000
0000
0000
,  // measure 5
0000
0000
0000
0000
,  // measure 6
1000
0100
1000
0100
0001
0100
0001
0100
,  // measure 7
0001
0010
0001
0010
1000
0010
1000
0010
,  // measure 8
1000
0001
1000
0001
0100
0010
0100
0010
,  // measure 9
1000
0100
1000
0010
0100
0010
0001
0010
,  // measure 10
1010
0000
0000
0000
0011
0000
0000
0000
0100
0000
0001
0100
0000
0010
0100
0010
,  // measure 11
0101
0000
0000
0000
1100
0000
0000
0000
0001
0000
1000
0010
0000
0100
0010
1000
,  // measure 12
1001
0000
0000
0000
0110
0000
0000
0000
0010
0000
0100
0010
0000
0001
1000
0010
,  // measure 13
0110
0000
0000
0000
1001
0000
0000
0000
1000
0010
0100
0001
1000
0100
0010
0001
,  // measure 14
0011
0000
0000
0000
1010
0000
0000
0000
0100
0000
0001
0100
0000
0010
0100
1000
,  // measure 15
1100
0000
0000
0000
0101
0000
0000
0000
1000
0000
0001
0010
0000
0010
0100
1000
,  // measure 16
0001
0000
1001
0000
1000
0000
0000
0100
0000
0001
0000
1000
0010
0000
1000
0000
,  // measure 17
0100
0000
0110
0000
0010
0000
0000
0000
1000
0100
0010
0001
0100
0001
1000
0010
,  // measure 18
1010
0000
0011
0000
1010
0000
0011
0010
,  // measure 19
0100
0001
1000
0100
0010
0000
0110
0000
,  // measure 20
0001
0010
0001
0010
0001
0000
0011
0000
,  // measure 21
1000
0100
1000
0100
1000
0000
1100
0000
,  // measure 22
1001
0000
0110
0000
1001
0000
0110
0100
,  // measure 23
1000
0100
0001
0100
1000
0000
1001
0000
,  // measure 24
0100
0010
0001
0010
1000
0000
0001
0000
,  // measure 25
0110
1001
0110
0000
,  // measure 26
0101
0000
1100
0000
0101
0000
1100
1000
,  // measure 27
0100
0001
0100
0010
0100
0000
0110
0000
,  // measure 28
1000
0010
1000
0010
1000
0000
1010
0000
,  // measure 29
0001
0100
0001
0100
0001
0000
0101
0000
,  // measure 30
0110
0000
1001
0000
0110
0000
1001
0001
,  // measure 31
0010
0001
0100
0001
1000
0000
1001
0000
,  // measure 32
0001
0010
1000
0100
0010
0000
0100
0000
,  // measure 33
0110
1001
0110
0000
,  // measure 34
0001
0100
1000
0100
0001
0100
1000
0100
,  // measure 35
0010
1000
0100
1000
0010
1000
0001
1000
,  // measure 36
0100
0010
0001
0010
0100
0010
0001
0010
,  // measure 37
0100
0001
1000
0001
0100
0001
0010
0001
,  // measure 38
0100
0010
0100
0010
1000
0100
1000
0001
,  // measure 39
0010
0000
0001
0101
0000
0100
0010
0000
,  // measure 40
0100
0000
1000
1100
0000
0100
0010
0000
,  // measure 41
0001
0000
0100
0110
0000
0010
0001
0001
,  // measure 42
1000
1000
0010
0100
0010
0001
0010
0100
,  // measure 43
1000
0000
0001
1001
0000
0100
0010
0001
,  // measure 44
0000
1000
0010
0100
0001
0010
1000
0010
,  // measure 45
0001
0000
0011
0000
1010
1000
0100
0100
,  // measure 46
0010
0010
0001
0100
0010
1000
0100
0010
,  // measure 47
0001
1000
0010
1000
0200
0000
0300
0000
,  // measure 48
0001
0000
1000
1100
0000
0001
0101
0000
,  // measure 49
0100
0000
0010
1010
0000
0100
0001
1000
,  // measure 50
1000
0001
0100
0001
1000
0100
0010
0100
,  // measure 51
1000
0000
0001
0010
0000
1000
0100
1001
,  // measure 52
0000
0001
0100
0100
0010
0000
0010
0000
,  // measure 53
0011
0000
0110
0000
1100
1000
0100
0010
,  // measure 54
0001
0001
0010
0100
1000
0010
0100
0010
,  // measure 55
0100
0001
1000
0001
1000
1000
0100
0010
,  // measure 56
0100
1000
0010
0100
0010
1000
0001
1000
,  // measure 57
0001
0000
1010
0011
0000
0010
0001
0100
,  // measure 58
0001
1000
0100
1000
0010
0001
0100
1000
,  // measure 59
0100
0001
0010
1000
0010
0000
0000
0110
,  // measure 60
0010
0010
0001
0001
1000
1000
0100
0100
,  // measure 61
2001
0001
0010
0010
0001
0001
0100
3100
,  // measure 62
1000
0100
0010
0001
0101
0000
1100
0000
,  // measure 63
0001
0000
0010
0000
0001
0000
0010
0001
,  // measure 64
0100
0010
1000
0100
1000
0000
0001
0000
,  // measure 65
0010
1000
0001
1000
0010
0000
0100
0000
,  // measure 66
0100
0001
1000
0001
0100
0000
0010
0000
,  // measure 67
1000
0000
0010
0000
1000
0000
0010
1000
,  // measure 68
0100
1000
0010
0100
0001
0000
0010
0000
,  // measure 69
0100
1000
0001
0100
0010
0000
0100
0000
,  // measure 70
1000
0000
0000
0000
0010
0000
0000
0000
0100
0001
1000
0010
1000
0100
0010
0001
,  // measure 71
0101
0000
1100
0000
0101
0000
1100
1000
,  // measure 72
0010
0001
0010
1000
0100
0010
0001
0000
,  // measure 73
0001
0010
0001
1000
0010
0000
1100
0000
,  // measure 74
1000
0100
1000
0001
0100
0000
0011
0000
,  // measure 75
1001
0000
0110
0000
1001
0000
0110
0001
,  // measure 76
0010
0100
1000
0001
0100
0001
1000
0000
,  // measure 77
0100
1000
0010
0100
0010
0000
0100
0000
,  // measure 78
0001
0010
0100
0010
0001
0000
1000
0000
,  // measure 79
1000
0010
0001
0010
1000
0000
0100
0000
,  // measure 80
0101
0011
1001
0000
,  // measure 81
1000
1000
0001
0001
0010
0000
0100
0000
,  // measure 82
0010
0100
0010
0100
0010
0000
0100
0000
,  // measure 83
1000
0100
0010
0001
0010
0000
0100
0000
,  // measure 84
1100
0000
1010
1001
0000
0000
0000
0000
;
