#TITLE:VIOLET;
#SUBTITLE:;
#ARTIST:Ninomae Ina'nis;
#TITLETRANSLIT:;
#SUBTITLETRANSLIT:;
#ARTISTTRANSLIT:;
#GENRE:;
#CREDIT:;
#BANNER:VIOLET 2x.png;
#BACKGROUND:VIOLET-bg2x.png;
#LYRICSPATH:;
#CDTITLE:;
#MUSIC:VIOLET.mp3;
#OFFSET:-0.230000;
#SAMPLESTART:42.230000;
#SAMPLELENGTH:15.000000;
#SELECTABLE:YES;
#DISPLAYBPM:90.000000;
#BPMS:0.000000=90.000000;
#STOPS:;
#BGCHANGES:;
#KEYSOUNDS:;
#ATTACKS:;

//---------------dance-single - ----------------
#NOTES:
     dance-single:
     :
     Beginner:
     2:
     :
// measure 0
0000
0000
0000
0000
,  // measure 1
0000
0000
0000
0000
,  // measure 2
0000
0000
0000
0000
,  // measure 3
0000
0000
0000
0000
,  // measure 4
2000
0000
0000
3000
0000
0000
0000
0000
,  // measure 5
0002
0000
0000
0003
0000
0000
0001
0000
,  // measure 6
0200
0000
0000
0300
0000
0000
0000
0000
,  // measure 7
0020
0000
0000
0030
0000
0000
0010
0000
,  // measure 8
0002
0000
0000
0003
0000
0000
0000
0000
,  // measure 9
0200
0000
0000
0300
0000
0000
0010
0000
,  // measure 10
2000
0000
0000
3000
0000
0000
0000
0000
,  // measure 11
0220
0000
0000
0330
,  // measure 12
0100
0100
0100
0000
,  // measure 13
0010
0010
0010
0000
,  // measure 14
0001
0010
0100
1000
,  // measure 15
2002
0000
0000
3003
,  // measure 16
1000
0100
0001
0100
,  // measure 17
1000
0000
0010
0100
,  // measure 18
0000
0010
0000
1000
,  // measure 19
0000
0100
0010
0001
,  // measure 20
0001
0100
1000
0100
,  // measure 21
0001
0000
0001
0010
,  // measure 22
0002
0000
1003
0100
,  // measure 23
2000
0000
0000
0010
,  // measure 24
3100
0100
0100
0100
,  // measure 25
0010
0010
0010
0001
,  // measure 26
1000
1000
1000
1000
,  // measure 27
0001
0001
0001
0010
,  // measure 28
0200
0000
0000
0000
,  // measure 29
0320
0000
0000
0031
,  // measure 30
0200
0000
0000
0000
,  // measure 31
2300
0000
0000
3010
,  // measure 32
0002
0000
0000
0000
,  // measure 33
0023
0000
0000
0031
,  // measure 34
0200
0000
0000
0300
,  // measure 35
2002
0000
0000
3003
,  // measure 36
0100
0010
0001
0000
,  // measure 37
0100
0010
1000
0000
,  // measure 38
0001
0010
0100
1000
,  // measure 39
0220
0000
0000
0330
,  // measure 40
1000
0010
0001
0010
,  // measure 41
2000
0000
0001
3100
,  // measure 42
0000
0010
0000
0100
,  // measure 43
0000
0010
1000
0001
,  // measure 44
0001
0010
1000
0010
,  // measure 45
0002
0000
0013
0100
,  // measure 46
0020
0000
0130
1000
,  // measure 47
0002
0000
0000
1003
,  // measure 48
0110
0000
0000
0000
;

//---------------dance-single - ----------------
#NOTES:
     dance-single:
     :
     Easy:
     4:
     :
// measure 0
0000
0000
0000
0000
,  // measure 1
0000
0000
0000
0000
,  // measure 2
0000
0000
0000
0000
,  // measure 3
0000
0000
0000
0000
,  // measure 4
1000
0000
0000
1000
0000
0000
0000
0000
,  // measure 5
0001
0000
0000
0001
0000
0000
0110
0000
,  // measure 6
0100
0000
0000
0100
0000
0000
0000
0000
,  // measure 7
0010
0000
0000
0010
0000
0000
1001
0000
,  // measure 8
0010
0000
0000
1000
0000
0000
0000
0000
,  // measure 9
1000
0000
0000
0010
0000
0000
1010
0000
,  // measure 10
0001
0000
0000
0100
0000
0000
0000
0000
,  // measure 11
2020
0000
0000
3030
,  // measure 12
1000
0100
1000
0100
,  // measure 13
0001
0100
0001
0100
,  // measure 14
0010
1000
0001
0100
,  // measure 15
0011
2200
0000
3300
,  // measure 16
1000
0100
1000
0000
0001
0100
0001
0000
,  // measure 17
2000
0000
3010
0100
,  // measure 18
0010
0000
1000
0000
0100
0000
0001
0100
,  // measure 19
0000
0200
0000
0000
0310
0000
1000
0000
,  // measure 20
0001
0010
0001
0000
1000
0010
1000
0000
,  // measure 21
0002
0000
0013
0100
,  // measure 22
2000
0000
3010
0100
,  // measure 23
0002
0000
0000
0010
,  // measure 24
0103
0000
0100
0101
0001
0000
1000
0000
,  // measure 25
0100
0000
0001
0101
0100
0000
0001
0000
,  // measure 26
1000
0000
1000
1010
0010
0000
0010
0000
,  // measure 27
1000
0000
0010
1010
1000
0000
0010
0000
,  // measure 28
1000
0000
0001
1100
0100
0000
0010
0000
,  // measure 29
1000
0000
0010
1100
0001
0000
0100
0000
,  // measure 30
0001
0000
1000
0011
0001
0000
0100
0000
,  // measure 31
0001
0000
0100
0011
0001
0000
0010
0000
,  // measure 32
1000
0000
0100
1001
0001
0000
0010
0000
,  // measure 33
1000
0000
0010
1001
1000
0000
0001
0000
,  // measure 34
0100
0000
0010
0110
0100
0000
0010
0000
,  // measure 35
0220
0000
0000
0330
,  // measure 36
0001
0010
0001
0010
,  // measure 37
1000
0010
1000
0010
,  // measure 38
0001
1000
0010
0100
,  // measure 39
1010
0000
0202
0000
0000
0000
0000
0303
,  // measure 40
1000
0100
0010
0000
0001
0010
0100
1000
,  // measure 41
0002
0000
0000
0000
0013
0000
0100
0020
,  // measure 42
0000
0000
1030
0000
0001
0000
0001
0100
,  // measure 43
0000
0200
0000
0000
0310
0000
0001
0000
,  // measure 44
0100
1000
0010
0000
0100
0001
0010
0001
,  // measure 45
0200
0000
0000
0000
1300
0000
0001
0010
,  // measure 46
0002
0000
0000
0000
1003
0000
0100
0020
,  // measure 47
0000
0000
0000
0130
,  // measure 48
0110
0000
0000
0000
;

//---------------dance-single - ----------------
#NOTES:
     dance-single:
     :
     Medium:
     7:
     :
// measure 0
0000
0000
0000
0000
,  // measure 1
0000
0000
0000
0000
,  // measure 2
0000
0000
0000
0000
,  // measure 3
0000
0000
0000
0000
,  // measure 4
0000
0001
0100
0001
0010
0001
1000
0010
,  // measure 5
1000
0100
1000
0010
0001
0010
1000
0000
,  // measure 6
0000
0100
0010
0100
0001
0100
1000
0100
,  // measure 7
0010
0001
0100
0010
0000
0000
0220
0000
,  // measure 8
0330
0010
1000
0010
0001
0010
0100
0001
,  // measure 9
0010
0100
1000
0010
0100
0001
0010
0000
,  // measure 10
0000
1000
0100
0001
0100
1000
0010
0001
,  // measure 11
2002
0000
0000
0000
0000
0000
3003
0100
,  // measure 12
0001
0010
0001
1000
0010
0100
0000
1000
,  // measure 13
0100
1000
0001
0100
0001
0010
1000
0010
,  // measure 14
1100
0000
0101
0000
0010
1000
0001
0100
,  // measure 15
0011
0000
2020
0000
0000
0000
3030
1000
,  // measure 16
0010
0000
1000
0000
0001
0000
0001
1000
0000
0000
0100
0000
0010
0000
0010
0200
,  // measure 17
0000
0000
0000
1300
0100
0001
0010
0200
,  // measure 18
0000
0000
1300
0010
0000
0010
0100
0002
,  // measure 19
0000
1000
0000
0100
0010
1000
0100
0013
,  // measure 20
0001
0000
1000
0000
0010
0000
1000
0100
0000
0000
0001
0000
0010
0000
0001
0200
,  // measure 21
0000
0000
0000
1300
0010
0001
0010
1000
,  // measure 22
0200
0000
0000
1300
0001
0100
0001
0020
,  // measure 23
0000
0000
0000
0000
0000
0000
0000
0000
0000
0000
0001
0000
1000
0000
0100
0130
,  // measure 24
1100
0001
0100
0011
1000
0100
1000
0010
,  // measure 25
0110
1000
0001
1001
0010
0100
0020
0031
,  // measure 26
0101
0001
1000
1100
0010
1000
0100
1000
,  // measure 27
1001
0010
0100
0110
0100
0010
0002
1003
,  // measure 28
0100
0010
1100
0100
1000
0001
0101
0010
,  // measure 29
0001
0010
1010
0010
0001
0100
1100
0100
,  // measure 30
0001
0100
1010
1000
0100
0010
0011
0010
,  // measure 31
0100
1000
0011
0001
0010
1000
0101
0001
,  // measure 32
0100
1000
0011
0100
0001
0010
0101
0100
,  // measure 33
0010
1000
1001
1000
0100
1000
0011
0010
,  // measure 34
0001
0100
0101
1000
0001
0100
0110
0100
,  // measure 35
2002
0000
0000
0000
0000
0000
3003
0100
,  // measure 36
0010
1000
0001
0010
0001
0100
0000
0010
,  // measure 37
1000
0001
0100
0001
0010
0100
1000
0010
,  // measure 38
0100
0001
0100
1000
0100
0001
0010
0001
,  // measure 39
1100
0000
2020
0000
0000
0000
3030
0100
,  // measure 40
0001
0000
1000
0000
0001
0000
0100
0010
0000
0000
0100
0000
0001
0000
1000
0020
,  // measure 41
0000
0000
0000
0130
1000
0001
0010
0002
,  // measure 42
0000
0000
0103
0010
0000
0100
0001
0020
,  // measure 43
0000
1000
1000
0000
0000
0000
0000
0000
0100
0000
1000
0000
0001
0000
0130
0000
,  // measure 44
0010
0000
1000
0000
0001
0000
1000
0100
0000
0000
0010
0000
0001
0000
0010
0000
,  // measure 45
2000
0000
0000
0000
3010
0001
0100
0001
,  // measure 46
2000
0000
0000
0100
0010
0100
0001
3020
,  // measure 47
0000
0000
0000
0000
0000
0000
0000
0000
0000
0000
0001
0000
1000
0000
0100
0130
,  // measure 48
0110
0000
0000
0000
;

//---------------dance-single - ----------------
#NOTES:
     dance-single:
     :
     Hard:
     10:
     :
// measure 0
0000
0000
0000
0000
,  // measure 1
0000
0000
0000
0000
,  // measure 2
0000
0000
0000
0000
,  // measure 3
0000
0000
0000
0000
,  // measure 4
0000
0000
0001
0010
0001
0000
0100
0010
0000
1000
0000
0100
0000
0000
1000
0000
,  // measure 5
0010
0000
1000
0100
0000
0001
0000
0100
0000
1000
0000
0020
0000
0000
0000
0000
,  // measure 6
0000
0000
0130
0000
0010
1000
0000
0001
0000
0010
0000
0100
0000
0000
0001
0000
,  // measure 7
0100
0000
0010
1000
0000
0010
0002
0000
0000
0000
0000
0000
2000
0000
0000
0000
,  // measure 8
3003
0000
0010
0001
0100
0000
0001
0010
0000
1000
0000
0100
0000
0000
1000
0010
,  // measure 9
0001
0000
0100
0010
0000
0100
0000
0001
0000
1000
0000
0200
0000
0000
0000
0000
,  // measure 10
0000
0000
0310
0100
0010
0000
0001
1000
0000
0001
0000
0100
0000
0000
0001
0000
,  // measure 11
0010
0000
0100
1000
0000
0000
0100
0002
0000
0000
0000
0000
0000
0000
0103
0000
,  // measure 12
0010
0000
0001
0000
0100
0010
0000
1000
0000
0200
0000
0000
0000
0000
0310
0000
,  // measure 13
0100
0000
0001
0000
0100
0000
0010
0001
0000
1000
0000
0001
0000
0010
0100
1000
,  // measure 14
0000
0000
1000
0100
0000
0000
0100
0001
0000
0000
0001
0000
0100
0000
0020
0000
,  // measure 15
0100
0000
0200
0000
0000
0000
0300
1030
,  // measure 16
0001
0000
0100
0000
0010
0000
0010
0100
0000
0000
1000
0000
0010
0000
0100
0020
,  // measure 17
0000
0000
0000
0000
0000
0000
1030
0001
1000
0000
0001
0000
0010
0000
0200
0000
,  // measure 18
0000
0000
0310
0001
0000
0100
0001
1000
,  // measure 19
0000
0000
1100
0000
0000
0100
0001
0010
0001
1000
0000
0100
0000
1000
0000
0000
,  // measure 20
0001
0000
0100
0000
0001
0000
0010
0100
0000
0000
1000
0000
0010
0000
1000
0002
,  // measure 21
0000
0000
0000
0000
0000
0000
0103
1000
0010
1000
0000
0001
0000
0010
0000
0002
,  // measure 22
0000
0000
0000
0000
0000
0000
0103
0010
0100
0000
0001
0000
1000
0000
0202
0000
,  // measure 23
0000
0000
0000
0000
0000
0000
0003
0000
0000
0000
0010
0000
0001
0000
0310
0010
,  // measure 24
0110
0000
0100
0001
1000
0000
1100
0000
0100
0010
0001
0000
0101
0000
0001
0000
,  // measure 25
1001
0000
0010
0001
0100
0000
1010
0000
1000
0100
0010
0000
0011
0000
0010
0000
,  // measure 26
0110
0000
0010
0100
0001
0000
0011
0000
1000
0010
1000
0000
1100
0000
0100
0000
,  // measure 27
1001
0000
0010
1000
0001
0000
1010
0000
0100
0001
0010
0000
0101
0000
1000
0000
,  // measure 28
1000
0000
0001
0010
0001
0000
0100
0010
0000
1000
0000
0100
0000
0000
0001
0000
,  // measure 29
1000
0000
0010
1000
0000
0100
0000
0001
0000
0010
0000
0002
0000
0000
0000
0000
,  // measure 30
0000
0000
0103
0010
1000
0000
0100
0001
0000
0010
0000
0100
0000
0000
1000
0000
,  // measure 31
0010
0000
1000
0100
0000
0001
0200
0000
0000
0000
0000
0000
0020
0000
0000
0000
,  // measure 32
0330
0000
1000
0010
1000
0000
0001
0100
0000
1000
0000
0010
0000
0000
0100
0010
,  // measure 33
0001
0000
0100
1000
0000
0001
0000
0010
0000
0001
0000
0200
0000
0000
0000
0000
,  // measure 34
0000
0000
0301
0010
0001
0000
1000
0010
0000
0001
0000
0100
0000
0000
0010
0000
,  // measure 35
0100
0000
1000
0010
0000
0000
0010
0002
0000
0000
0000
0000
0000
0000
0103
0000
,  // measure 36
1000
0000
1000
0000
0100
0001
0000
0010
0000
0002
0000
0000
0000
0000
0103
0000
,  // measure 37
0010
0000
1000
0000
0100
0000
1000
0010
0000
0001
0000
0100
0000
1000
0100
0001
,  // measure 38
0000
0000
0010
0100
0000
0000
1000
0100
0000
0000
0100
0000
0010
0000
2000
0000
,  // measure 39
0001
0000
0002
0000
0000
0000
0003
3100
,  // measure 40
0010
0000
0001
0000
1000
0000
0001
1000
0000
0000
0100
0000
0010
0000
0100
0002
,  // measure 41
0000
0000
0000
0103
0010
1000
0001
0200
,  // measure 42
0000
0000
0310
0001
0000
1000
0001
0100
,  // measure 43
0000
0000
0011
0000
0000
0000
0000
0001
1000
0100
0000
1000
0000
0010
0000
0000
,  // measure 44
0010
0000
1000
0000
0001
0000
0010
0001
0000
0000
0100
0000
0010
0000
1000
0000
,  // measure 45
0200
0000
0000
0000
0000
0000
0000
0000
0310
0001
0000
1000
0000
0001
0000
0020
,  // measure 46
0000
0000
0000
0000
0000
0000
0130
1000
0001
0000
0010
0000
0001
0000
2020
0000
,  // measure 47
0000
0000
0000
0000
0000
0000
0030
0000
0000
0000
0100
0000
0001
0000
3100
0100
,  // measure 48
0110
0000
0000
0000
;
