#TITLE:Total Eclipse Of The Heart;
#SUBTITLE:(Dance Mix);
#ARTIST:Nicki French;
#TITLETRANSLIT:;
#SUBTITLETRANSLIT:;
#ARTISTTRANSLIT:;
#GENRE:;
#CREDIT:;
#BANNER:Total Eclipse Of The Heart (Dance Mix).png;
#BACKGROUND:Total Eclipse Of The Heart (Dance Mix)-bg.png;
#LYRICSPATH:;
#CDTITLE:;
#MUSIC:Total Eclipse Of The Heart (Dance Mix).mp3;
#OFFSET:-0.057000;
#SAMPLESTART:65.362999;
#SAMPLELENGTH:17.000000;
#SELECTABLE:YES;
#DISPLAYBPM:136.000000;
#BPMS:0.000000=135.975006;
#STOPS:;
#BGCHANGES:;
#KEYSOUNDS:;
#ATTACKS:;

//---------------dance-single - ----------------
#NOTES:
     dance-single:
     :
     Beginner:
     3:
     :
// measure 0
0000
0000
0000
0000
,  // measure 1
0000
0000
0000
0000
,  // measure 2
0000
0000
0000
0000
,  // measure 3
0000
0000
0000
0000
,  // measure 4
0000
0000
0000
0000
,  // measure 5
0000
0000
0000
0000
,  // measure 6
0000
0000
0000
0000
,  // measure 7
0000
0000
0000
0000
,  // measure 8
0001
0000
0000
0000
,  // measure 9
0010
0000
0000
0000
,  // measure 10
0100
0000
0000
0000
,  // measure 11
1000
0000
0000
0000
,  // measure 12
1000
0000
0000
0000
,  // measure 13
0100
0000
0000
0000
,  // measure 14
0010
0000
0000
0000
,  // measure 15
0001
0000
0000
0000
,  // measure 16
0100
0001
0000
0000
,  // measure 17
0001
1000
0001
0000
,  // measure 18
1000
0000
0100
0000
,  // measure 19
0010
0100
1000
0000
,  // measure 20
0001
1000
0000
0000
,  // measure 21
0010
0100
0010
0000
,  // measure 22
0100
0000
0001
0000
,  // measure 23
0010
0001
0100
0010
,  // measure 24
1000
0010
0000
0000
,  // measure 25
1000
0001
1000
0000
,  // measure 26
0001
0000
0010
0000
,  // measure 27
0100
0000
0010
0001
,  // measure 28
0010
0100
0000
0000
,  // measure 29
1000
0000
0010
0000
,  // measure 30
1000
0000
0001
0000
,  // measure 31
1000
0000
0100
0000
,  // measure 32
0022
0000
0000
0030
,  // measure 33
0010
0000
1000
0000
,  // measure 34
0103
0000
0010
1000
,  // measure 35
2020
0000
0000
0030
,  // measure 36
0001
0000
0100
0000
,  // measure 37
3010
0010
0010
0000
,  // measure 38
2002
0000
3003
1000
,  // measure 39
0010
0000
0100
0000
,  // measure 40
0002
0000
0000
0103
,  // measure 41
0010
0000
1000
0000
,  // measure 42
0200
0000
0000
0301
,  // measure 43
1000
0000
0001
0000
,  // measure 44
2000
0000
0000
3010
,  // measure 45
1000
0000
0100
0000
,  // measure 46
0220
0000
0330
0010
,  // measure 47
1000
0000
0100
1000
,  // measure 48
0002
0000
0000
0103
,  // measure 49
0100
0010
0010
0000
,  // measure 50
1000
0000
0001
0000
,  // measure 51
0010
0010
0001
0000
,  // measure 52
0100
0000
0010
0000
,  // measure 53
1000
1000
0001
0000
,  // measure 54
0001
0001
1000
0000
,  // measure 55
0001
0010
0001
0000
,  // measure 56
1000
0010
1000
0000
,  // measure 57
0001
1000
0001
0000
,  // measure 58
1000
0100
1000
0000
,  // measure 59
0000
0001
0100
0001
,  // measure 60
0110
0000
0000
0001
,  // measure 61
0100
0000
0010
1000
,  // measure 62
1010
0000
0000
1000
,  // measure 63
0010
0000
0100
0001
,  // measure 64
0012
0000
0010
0000
,  // measure 65
0100
0000
0010
0000
,  // measure 66
1000
0000
1000
0000
,  // measure 67
0103
0000
0000
0000
,  // measure 68
2100
0000
0010
0000
,  // measure 69
0100
0000
0010
0000
,  // measure 70
0002
0000
0000
0000
,  // measure 71
0000
0000
0000
3003
,  // measure 72
0102
0000
0000
0000
,  // measure 73
0023
0000
0000
0000
,  // measure 74
0230
0000
0000
0000
,  // measure 75
2300
0000
0000
0000
,  // measure 76
3020
0000
0000
0000
,  // measure 77
0230
0000
0000
0000
,  // measure 78
0302
0000
0000
0000
,  // measure 79
2000
0000
0000
0000
,  // measure 80
3003
0000
0000
0000
;

//---------------dance-single - ----------------
#NOTES:
     dance-single:
     :
     Easy:
     4:
     :
// measure 0
0000
0000
0000
0000
,  // measure 1
0000
0000
0000
0000
,  // measure 2
0000
0000
0000
0000
,  // measure 3
0000
0000
0000
0000
,  // measure 4
0000
0000
0000
0000
,  // measure 5
0000
0000
0000
0000
,  // measure 6
0000
0000
0000
0000
,  // measure 7
0000
0000
0000
0000
,  // measure 8
1000
0000
0010
0000
,  // measure 9
0100
0000
0001
0000
,  // measure 10
0010
0000
0100
0000
,  // measure 11
1000
0000
0001
0000
,  // measure 12
1000
0000
0100
0000
,  // measure 13
0010
0000
0001
0000
,  // measure 14
0010
0000
0100
0000
,  // measure 15
1000
0000
0001
0000
,  // measure 16
0100
0001
2000
0000
,  // measure 17
3100
0010
0100
1000
,  // measure 18
0001
0100
0010
1000
,  // measure 19
0010
0100
0001
0000
,  // measure 20
0100
1000
0002
0000
,  // measure 21
0103
0010
0100
0001
,  // measure 22
0100
1000
0100
0001
,  // measure 23
0010
0100
0010
0001
,  // measure 24
0010
0001
2000
0000
,  // measure 25
3010
0001
0100
1000
,  // measure 26
0010
0100
0010
0001
,  // measure 27
0010
0100
0010
1000
,  // measure 28
0010
1000
0002
0000
,  // measure 29
0013
1000
0100
0001
,  // measure 30
0010
0100
0010
1000
,  // measure 31
0010
0100
0010
0001
,  // measure 32
0100
0010
0100
0000
,  // measure 33
2000
0000
0002
3000
,  // measure 34
1003
0010
0100
0010
,  // measure 35
0001
1000
0001
0000
,  // measure 36
0020
0000
0200
0030
,  // measure 37
0302
0023
2030
3200
,  // measure 38
0320
0000
0000
0130
,  // measure 39
0001
0010
0001
1000
,  // measure 40
0200
0000
0000
0310
,  // measure 41
1000
0010
0001
0010
,  // measure 42
2000
0000
0000
3100
,  // measure 43
0001
0100
1000
0100
,  // measure 44
0002
0000
0000
0013
,  // measure 45
1000
0001
1000
0001
,  // measure 46
2000
0000
0000
3010
,  // measure 47
0100
1000
0010
0100
,  // measure 48
0002
0000
0000
0103
,  // measure 49
1000
0010
0100
0000
,  // measure 50
0001
0001
0001
0001
,  // measure 51
0010
0010
0010
0000
,  // measure 52
0100
0100
0100
0100
,  // measure 53
1000
1000
1000
0000
,  // measure 54
1000
1000
1000
0001
,  // measure 55
0100
0010
0100
0001
,  // measure 56
0100
0010
0100
0000
,  // measure 57
1000
0010
0001
0010
,  // measure 58
1000
0100
2000
0000
,  // measure 59
0000
0010
0001
3100
,  // measure 60
0012
0000
0000
0103
,  // measure 61
1000
0100
0010
0100
,  // measure 62
2100
0000
0000
3001
,  // measure 63
0010
0100
1000
0010
,  // measure 64
0100
0001
0100
1000
,  // measure 65
0100
0010
0002
0000
,  // measure 66
1003
0010
1000
0100
,  // measure 67
2000
0000
0000
0000
,  // measure 68
3001
0001
0001
0000
,  // measure 69
0100
0010
0100
0010
,  // measure 70
0220
0000
0000
0000
,  // measure 71
0000
0000
0000
0330
,  // measure 72
0001
0100
0001
1000
,  // measure 73
0010
0001
0020
0000
,  // measure 74
0130
1000
0001
1000
,  // measure 75
0200
0000
0000
0000
,  // measure 76
0310
0010
0010
0000
,  // measure 77
0100
1000
0001
0010
,  // measure 78
2002
0000
0000
0000
,  // measure 79
0000
0000
0000
0000
,  // measure 80
3003
0000
0000
0000
;

//---------------dance-single - ----------------
#NOTES:
     dance-single:
     :
     Medium:
     7:
     :
// measure 0
0000
0000
0000
0000
,  // measure 1
0000
0000
0000
0000
,  // measure 2
0000
0000
0000
0000
,  // measure 3
0000
0000
0000
0000
,  // measure 4
0000
0000
0000
0000
,  // measure 5
0000
0000
0000
0000
,  // measure 6
0000
0000
0000
0000
,  // measure 7
0000
0000
0000
0000
0000
0000
0000
0100
,  // measure 8
0001
0000
0000
0101
0000
0000
0000
1000
,  // measure 9
0100
0000
0000
1100
0000
0000
0000
0010
,  // measure 10
0001
0000
0000
0011
0000
0000
0000
1000
,  // measure 11
0010
0000
0000
1010
0000
0000
0000
0100
,  // measure 12
1000
0000
0000
1100
0000
0000
0000
0001
,  // measure 13
0100
0000
0000
0101
0000
0000
0000
0001
,  // measure 14
0010
0000
0000
0011
0000
0000
0000
0010
,  // measure 15
1000
0000
0000
1010
0000
0000
0000
0001
,  // measure 16
0100
0000
0100
0010
0000
0000
0000
0000
,  // measure 17
1000
0010
0100
0000
0001
0000
0100
0000
,  // measure 18
0001
0010
0001
0000
1000
0000
0100
0000
,  // measure 19
1000
0001
1000
0000
0100
0000
0000
1000
,  // measure 20
0100
0000
0100
0010
0000
0000
0000
0000
,  // measure 21
0001
0010
0100
0000
0100
0000
0001
0000
,  // measure 22
1000
0100
0010
0000
0001
0000
1000
0000
,  // measure 23
0010
1000
0010
0000
0100
0001
0100
0010
,  // measure 24
1000
0000
1000
0100
0000
0000
0000
0000
,  // measure 25
1000
0100
0010
0100
0001
0000
0010
0000
,  // measure 26
0001
1000
0001
0000
0100
0000
0001
0000
,  // measure 27
0010
0100
0010
0000
0100
0000
1000
0001
,  // measure 28
0100
0000
0100
1000
0000
0000
0000
0000
,  // measure 29
1000
0010
0100
0010
0001
0000
1000
0000
,  // measure 30
0010
0100
0001
0100
,  // measure 31
0010
1000
0100
0000
0010
0001
0100
0001
,  // measure 32
0010
0000
0010
1000
0000
1000
0100
0000
,  // measure 33
0022
0000
0000
0033
2020
0000
0000
3030
,  // measure 34
0100
0010
0001
0000
1000
0010
0100
0010
,  // measure 35
1000
0000
0100
0010
0000
0001
0010
0000
,  // measure 36
2020
0000
0000
3030
0022
0000
0000
0033
,  // measure 37
1100
0000
0101
0000
1001
0000
0100
0010
,  // measure 38
0100
0000
0001
0000
1000
0000
0001
0010
,  // measure 39
0100
0000
0001
1000
0000
0000
1000
0100
,  // measure 40
0001
0000
0100
0000
1000
0000
0010
0001
,  // measure 41
0100
0000
1000
0001
0000
0000
0010
0001
,  // measure 42
0000
0110
0000
0100
1000
0000
0001
0100
,  // measure 43
1000
0000
0010
0001
0000
0100
0000
0010
,  // measure 44
1000
0000
0001
0000
1000
0000
0001
0100
,  // measure 45
0010
0000
0001
0100
0000
0000
0000
1000
,  // measure 46
0010
0100
0000
0001
0000
1000
0000
0010
,  // measure 47
0000
1000
0000
0100
0000
1000
0001
0000
,  // measure 48
0010
0000
0100
0000
0010
0000
0001
0100
,  // measure 49
1000
0000
1000
0010
0000
0000
0110
0000
,  // measure 50
1000
0100
0001
0010
,  // measure 51
1000
0000
0100
0000
1000
0000
0000
0010
,  // measure 52
0010
1000
0001
0010
,  // measure 53
0001
0100
0001
0100
0000
0000
0000
0000
,  // measure 54
1000
0100
1000
0100
0000
0000
0010
0000
,  // measure 55
0001
0000
0100
0000
1000
0000
0010
0100
,  // measure 56
0000
0100
0001
0000
0010
0000
0000
0000
,  // measure 57
1000
0010
1000
0000
0001
0010
0001
0000
,  // measure 58
2002
0000
0000
0000
,  // measure 59
0003
0010
0001
3100
,  // measure 60
0010
0000
0010
0000
0010
0000
1000
0010
,  // measure 61
0000
0010
0001
0000
0100
0000
0100
0000
,  // measure 62
0100
0000
0001
0000
1000
0000
0001
0010
,  // measure 63
0000
0010
0100
1000
0001
0000
1000
0000
,  // measure 64
0010
0100
0010
0000
1000
0000
0100
0000
,  // measure 65
0001
0100
0001
0010
0000
0000
1100
0000
,  // measure 66
0001
1000
0001
0000
0100
0000
0010
0202
,  // measure 67
0000
0000
0000
0000
0000
0000
0000
0303
,  // measure 68
1000
0010
0100
0000
0001
0000
1000
0000
,  // measure 69
0100
1000
0000
0010
0000
0001
0010
0200
,  // measure 70
2000
0000
0000
0000
,  // measure 71
0000
0000
0000
3300
,  // measure 72
0010
0001
1000
0000
0100
0000
1000
0000
,  // measure 73
0010
0100
0001
0010
0000
0000
0011
0000
,  // measure 74
1000
0100
1000
0000
0010
0000
1000
2200
,  // measure 75
0000
0000
0000
0000
0000
0000
0000
3300
,  // measure 76
0001
0100
0010
0000
0010
0000
1000
0000
,  // measure 77
0001
0100
0000
0010
0000
0001
1000
2002
,  // measure 78
0000
0000
0000
0000
,  // measure 79
0000
0000
0000
0000
,  // measure 80
3003
0000
0000
0000
;

//---------------dance-single - ----------------
#NOTES:
     dance-single:
     :
     Hard:
     11:
     :
// measure 0
0000
0000
0000
0000
,  // measure 1
0000
0000
0000
0000
,  // measure 2
0000
0000
0000
0000
,  // measure 3
0000
0000
0000
0000
,  // measure 4
0000
0000
0000
0000
,  // measure 5
0000
0000
0000
0000
,  // measure 6
0000
0000
0000
0000
,  // measure 7
0000
0000
0000
0000
0000
0000
0000
0010
,  // measure 8
1010
0000
0000
0000
0000
0000
0000
0000
0000
1000
0000
0000
0000
0000
0000
0000
0000
0000
0011
0000
0000
0000
0000
0000
0000
0000
0000
0000
0002
0000
0000
0000
0000
0000
0000
0000
0000
0000
0000
0000
0000
0000
0103
0000
0000
0000
0000
0000
,  // measure 9
0101
0000
0000
0000
0000
0000
0000
0000
0000
0001
0000
0000
0000
0000
0000
0000
0000
0000
1100
0000
0000
0000
0000
0000
0000
0000
0000
0000
2000
0000
0000
0000
0000
0000
0000
0000
0000
0000
0000
0000
0000
0000
3001
0000
0000
0000
0000
0000
,  // measure 10
0101
0000
0000
0000
0000
0000
0000
0000
0000
1000
0000
0000
0000
0000
0000
0000
0000
0000
1010
0000
0000
0000
0000
0000
0000
0000
0000
0000
0020
0000
0000
0000
0000
0000
0000
0000
0000
0000
0000
0000
0000
0000
1030
0000
0000
0000
0000
0000
,  // measure 11
1100
0000
0000
0000
0000
0000
0000
0000
0000
0100
0000
0000
0000
0000
0000
0000
0000
0000
0011
0000
0000
0000
0000
0000
0000
0000
0000
0000
0002
0000
0000
0000
0000
0000
0000
0000
0000
0000
0000
0000
0000
0000
0013
0000
0000
0000
0000
0000
,  // measure 12
1010
0000
0000
0000
0000
0000
1000
0000
0000
0010
0000
0000
0000
0000
0000
0100
0000
0000
0010
0000
0000
0000
0000
0000
0000
0000
0000
0000
0120
0000
0000
0000
0000
0000
0000
0000
0000
0000
0000
0000
0000
0000
0130
0000
0000
0000
0000
0000
,  // measure 13
0101
0000
0000
0000
0000
0000
0001
0000
0000
0100
0000
0000
0000
0000
0000
0100
0000
0000
0010
0000
0000
0000
0000
0000
0000
0000
0000
0000
1002
0000
0000
0000
0000
0000
0000
0000
0000
0000
0000
0000
0000
0000
1003
0000
0000
0000
0000
0000
,  // measure 14
1100
0000
0000
0000
0000
0000
0001
0000
0000
0010
0000
0000
0000
0000
0000
1000
0000
0000
0010
0000
0000
0000
0000
0000
0000
0000
0000
0000
0120
0000
0000
0000
0000
0000
0000
0000
0000
0000
0000
0000
0000
0000
0031
0000
0000
0000
0000
0000
,  // measure 15
0011
0000
0000
0000
0000
0000
0001
0000
0000
1000
0000
0000
0000
0000
0000
0001
0000
0000
0100
0000
0000
0000
0000
0000
0000
0000
0000
0000
1002
0000
0000
0000
0000
0000
0000
0000
0000
0000
0000
0000
0000
0000
0013
0000
0000
0000
0000
0000
,  // measure 16
1000
0100
0001
0010
0000
1000
0010
0000
,  // measure 17
0001
0010
0100
0010
1000
0010
0100
0010
,  // measure 18
0001
0100
1000
0100
0000
0001
0010
0100
,  // measure 19
1000
0010
0100
0010
1000
0100
1000
0001
,  // measure 20
0100
1000
0010
0001
0000
1000
0100
0000
,  // measure 21
0100
1000
0100
0010
0100
0001
0100
0010
,  // measure 22
0100
1000
0001
1000
0000
0001
0010
0100
,  // measure 23
0000
0100
0010
0001
1000
0010
0100
0001
,  // measure 24
0010
1000
0100
0001
0000
0100
1000
0000
,  // measure 25
0001
0010
0001
0100
0001
1000
0001
0100
,  // measure 26
0001
0010
0001
1000
0000
0010
0100
0001
,  // measure 27
0010
1000
0010
0001
0100
1000
0100
0010
,  // measure 28
0001
0100
1000
0010
0000
0001
1000
0000
,  // measure 29
1000
0001
1000
0010
1000
0100
1000
0010
,  // measure 30
1000
0001
0100
0001
0000
0100
0010
1000
,  // measure 31
0100
0010
0001
0010
0100
1000
0010
0100
,  // measure 32
0010
0000
1000
0010
0000
0100
0001
0000
,  // measure 33
0022
0000
0000
0033
2020
0000
0000
3030
,  // measure 34
1000
0100
1000
0000
0001
0000
0100
0000
0001
0010
0001
0000
1000
0000
0100
0000
,  // measure 35
0010
0000
0100
0001
0000
1000
0100
0000
,  // measure 36
2020
0000
0000
3030
0022
0000
0000
0033
,  // measure 37
1100
0100
0101
0001
1100
1000
0100
0010
,  // measure 38
0002
0000
0000
0000
0000
0000
0103
0010
,  // measure 39
0010
1000
0100
1000
0000
0100
0010
0001
,  // measure 40
1000
0000
0010
0100
0010
0100
0001
1000
,  // measure 41
0100
0100
0001
0010
0000
0100
0001
1000
,  // measure 42
0000
0001
0100
0001
0010
1000
0100
1000
,  // measure 43
1000
0001
0100
1100
0000
0011
0000
0220
,  // measure 44
0000
0330
0001
1000
0001
1000
0100
0010
,  // measure 45
0001
0001
1000
0010
0000
0010
0100
0001
,  // measure 46
1000
0100
0000
0010
0000
0100
1000
0001
,  // measure 47
0000
0001
0100
0010
0000
0010
1000
0010
,  // measure 48
0001
0100
0001
0010
0001
0100
1000
0010
,  // measure 49
0100
0010
1000
0001
0000
0001
0100
1000
,  // measure 50
0010
1000
0010
1000
0010
0001
0010
0001
,  // measure 51
0010
0100
0010
0100
0000
0100
0010
0100
,  // measure 52
1000
0100
1000
0100
0001
0100
0001
0100
,  // measure 53
0010
0100
0010
0100
0000
0010
0100
0000
,  // measure 54
1000
0001
1000
0001
0000
0001
1000
0001
,  // measure 55
0000
0100
0010
0001
0010
0010
1000
0001
,  // measure 56
0000
0100
0010
1000
0100
0100
0000
1000
,  // measure 57
0001
0001
0010
0100
0010
0001
1000
0010
,  // measure 58
0100
0010
0200
0000
0000
0000
0302
0000
0000
0000
0023
0000
0000
0000
2030
0000
,  // measure 59
0000
3010
0001
0100
0001
1000
0100
0010
,  // measure 60
0000
0010
1000
0100
1000
0001
0010
0001
,  // measure 61
0000
0001
0100
1000
0100
0001
0100
0010
,  // measure 62
0001
0100
1000
0010
0001
0100
1000
0100
,  // measure 63
0000
0010
0001
1000
0101
0000
1010
0000
,  // measure 64
1001
0100
0010
0001
1000
0100
0010
0001
,  // measure 65
0001
0010
0100
1000
0001
0010
0100
1000
,  // measure 66
0100
0010
0100
0001
0100
0010
0100
1000
,  // measure 67
0010
1000
0010
0100
0010
0001
0010
0100
,  // measure 68
0010
1000
0001
0100
0010
1000
0001
0100
,  // measure 69
1000
0010
0100
0001
1000
0010
0100
0001
,  // measure 70
0010
0001
0000
1000
0001
0000
0100
0001
0000
0000
0010
0000
0100
0000
1000
0000
,  // measure 71
0010
1000
0000
0100
0010
0000
0010
1000
0000
0000
0001
0000
0010
0000
0100
0000
,  // measure 72
1001
0100
1000
0010
0100
0000
0100
0001
,  // measure 73
1000
0100
1000
0010
0000
0001
0100
0000
,  // measure 74
0010
0001
1000
0001
1000
0010
1000
0100
,  // measure 75
0000
0001
0010
0100
1000
0100
0010
0001
,  // measure 76
0010
0010
0001
1000
0001
0000
0010
0100
,  // measure 77
0001
0001
1000
0010
0000
0100
0001
0010
,  // measure 78
0100
1000
0001
0000
0010
0001
0100
0000
,  // measure 79
1000
0100
0010
0000
0001
0010
0100
0000
,  // measure 80
2002
0000
0000
0000
,  // measure 81
0000
0000
0000
0000
,  // measure 82
0000
0000
3003
0000
;
