#TITLE:止マレ!;
#SUBTITLE:(from THE MELANCHOLY OF HARUHI SUZUMIYA);
#ARTIST:Aya Hirano, Yuuko Gotou and Minori Chihara;
#TITLETRANSLIT:Tomare!;
#SUBTITLETRANSLIT:;
#ARTISTTRANSLIT:Aya Hirano, Minori Chihara and Yuko Goto;
#GENRE:;
#CREDIT:;
#BANNER:Tomare!.png;
#BACKGROUND:Tomare!-bg.png;
#LYRICSPATH:;
#CDTITLE:;
#MUSIC:Tomare!.mp3;
#OFFSET:-0.670000;
#SAMPLESTART:28.052999;
#SAMPLELENGTH:21.799999;
#SELECTABLE:YES;
#DISPLAYBPM:183.000000;
#BPMS:0.000000=183.018005
,18.000000=180.000000
,18.250000=163.000000
,18.500000=146.000000
,18.750000=129.000000
,19.000000=112.000000
,19.250000=95.000000
,19.500000=78.000000
,19.750000=61.006001
,20.000000=545.454545
,22.000000=183.018005;
#STOPS:;
#BGCHANGES:0.000=Tomare!.avi=1.000=0=0=1=====,
194.000=Tomare!-bg.png=1.000=1=0=0=StretchNoLoop==CrossFade==,
99999=-nosongbg-=1.000=0=0=0 // don't automatically add -songbackground-;
#KEYSOUNDS:;
#ATTACKS:;

//---------------dance-single - ----------------
#NOTES:
     dance-single:
     :
     Beginner:
     4:
     :
// measure 0
2002
0000
0000
0000
,  // measure 1
0000
3003
0100
0000
,  // measure 2
0010
0000
1000
0000
,  // measure 3
0100
0000
0001
0000
,  // measure 4
0010
0000
0220
0000
,  // measure 5
0000
0000
0330
0001
,  // measure 6
0000
0100
0000
0010
,  // measure 7
0000
0100
0000
0001
,  // measure 8
0000
0010
0000
0100
,  // measure 9
0000
1000
0000
0100
,  // measure 10
0000
0010
0000
0001
,  // measure 11
0000
1000
0000
0010
,  // measure 12
0000
1000
0000
0001
,  // measure 13
0000
0001
0000
0100
,  // measure 14
0000
0010
0000
1000
,  // measure 15
0000
0010
0000
1000
,  // measure 16
0000
0001
0000
0100
,  // measure 17
2002
0000
3003
0100
,  // measure 18
0000
0001
0000
0100
,  // measure 19
0000
0010
0000
1000
,  // measure 20
0000
0010
0000
0100
,  // measure 21
0220
0000
0330
0010
,  // measure 22
0000
0100
0000
0010
,  // measure 23
0000
0001
0000
0100
,  // measure 24
0000
0010
0000
1000
,  // measure 25
0000
0001
0011
0000
,  // measure 26
0000
1010
0000
0000
,  // measure 27
1100
0102
2000
0000
,  // measure 28
0000
3003
0220
0000
,  // measure 29
0000
0330
0001
0010
,  // measure 30
1000
0000
0020
0000
,  // measure 31
0000
0000
1030
0100
,  // measure 32
0001
0000
0200
0000
,  // measure 33
0000
0000
0310
0000
,  // measure 34
1000
0000
0001
0010
,  // measure 35
0100
1000
0000
0100
,  // measure 36
0010
0000
1000
0000
,  // measure 37
0001
0000
0010
0100
,  // measure 38
0001
0000
0200
0000
,  // measure 39
0000
0000
1300
0010
,  // measure 40
0100
0000
0002
0000
,  // measure 41
0000
1000
0013
0000
,  // measure 42
0100
0000
0010
0000
,  // measure 43
1000
0000
0001
0000
,  // measure 44
0000
1000
1010
0000
,  // measure 45
0000
1100
0000
0000
,  // measure 46
0000
0001
0101
0000
,  // measure 47
0000
0011
0000
0000
;

//---------------dance-single - ----------------
#NOTES:
     dance-single:
     :
     Easy:
     6:
     :
// measure 0
2002
0000
0000
0000
,  // measure 1
0000
3003
0100
0001
,  // measure 2
0100
0000
0010
0000
1000
0000
0000
1001
,  // measure 3
0000
0001
1000
0100
,  // measure 4
1000
0001
0220
0000
,  // measure 5
0000
0330
1000
0001
,  // measure 6
1000
0010
0001
0010
,  // measure 7
0100
1000
0000
1000
,  // measure 8
0100
0001
0100
0010
,  // measure 9
1000
0010
0000
0100
,  // measure 10
0001
0100
0010
0001
,  // measure 11
0100
1000
0001
0100
,  // measure 12
0010
1000
0022
0000
,  // measure 13
0000
0000
0033
0001
,  // measure 14
1000
0001
0100
0001
,  // measure 15
0010
0100
0000
1000
,  // measure 16
0001
0100
0010
0100
,  // measure 17
2020
0000
3030
0001
,  // measure 18
0100
0001
1000
0100
,  // measure 19
1000
0010
0001
0010
,  // measure 20
1000
0010
1000
0000
,  // measure 21
0201
0001
0002
0000
,  // measure 22
0303
0010
1000
0100
,  // measure 23
1000
1000
0010
0010
,  // measure 24
0100
0100
0001
0001
,  // measure 25
0100
0000
1000
0000
1002
0000
0000
0100
,  // measure 26
0000
0000
0010
0000
0000
1000
0000
0000
,  // measure 27
0100
1000
0013
0100
,  // measure 28
0001
0100
2200
0000
,  // measure 29
0000
3300
0001
0010
,  // measure 30
0100
0010
0102
0000
,  // measure 31
0000
1000
0013
0100
,  // measure 32
1000
0100
0021
0000
,  // measure 33
0000
0000
0130
0001
,  // measure 34
0100
0010
1000
0001
,  // measure 35
0100
1000
0000
0010
,  // measure 36
0100
0001
0010
0001
,  // measure 37
1000
0000
0100
0001
,  // measure 38
1000
0001
1200
0000
,  // measure 39
0000
0001
1300
0010
,  // measure 40
0100
0001
2010
0000
,  // measure 41
0000
0001
3010
0100
,  // measure 42
0010
0100
0001
1000
,  // measure 43
1000
0001
0010
0100
,  // measure 44
0000
0000
1000
0000
1001
0000
0000
0101
,  // measure 45
0000
1100
0000
0110
,  // measure 46
1001
0000
0001
0000
0110
0000
0000
0011
,  // measure 47
0000
1010
0000
0000
;

//---------------dance-single - ----------------
#NOTES:
     dance-single:
     :
     Medium:
     8:
     :
// measure 0
2002
0000
0000
0000
,  // measure 1
0000
0000
0000
3003
0100
0000
0010
0000
,  // measure 2
1000
0000
0001
0010
0100
0000
0100
0010
,  // measure 3
0000
0010
0001
0000
0100
0000
1000
0000
,  // measure 4
0001
0000
0200
0020
0000
0000
0000
0000
,  // measure 5
0000
0000
0000
0330
0001
0000
1000
0000
,  // measure 6
1000
0010
0000
0100
0000
0001
0100
0000
,  // measure 7
0010
0100
0001
0010
,  // measure 8
1000
0001
0000
1000
0000
0100
0010
0000
,  // measure 9
0100
0001
0100
0010
,  // measure 10
1000
0100
0000
0001
0000
0010
0000
0001
,  // measure 11
1000
0000
0100
0000
0001
0000
0010
0100
,  // measure 12
0000
1000
0000
0220
0000
0000
0000
0000
,  // measure 13
0000
0000
0000
0330
0001
0000
1000
0000
,  // measure 14
0010
1000
0000
0100
0000
0010
0000
0100
,  // measure 15
0000
1000
0001
0000
0100
0000
0010
0000
,  // measure 16
1000
0001
0000
0010
0000
0001
1000
0000
,  // measure 17
2020
0000
3030
0202
0000
0303
0010
0000
,  // measure 18
0100
0010
0000
1000
0000
0010
0001
0000
,  // measure 19
1000
0000
0010
0000
0100
0000
0001
1000
,  // measure 20
0000
0100
0000
0010
0000
0001
1000
0000
,  // measure 21
1100
0110
0022
0000
,  // measure 22
0033
0010
1000
0000
0001
0000
0100
0001
,  // measure 23
0000
1000
0001
0000
0200
0000
0301
0000
,  // measure 24
2000
3100
0020
1030
,  // measure 25
0002
0000
0013
0000
1010
0000
1000
0001
,  // measure 26
0000
0000
0011
0000
0010
0001
0000
0000
,  // measure 27
1100
0000
0001
1000
0000
0000
0100
0000
,  // measure 28
0010
0001
0202
0000
,  // measure 29
0000
0000
0000
0303
0010
0000
0001
0100
,  // measure 30
0000
1000
0000
0202
0000
0000
0000
0000
,  // measure 31
0000
0300
1000
0000
0103
0000
0001
0100
,  // measure 32
0000
0010
0000
2020
0000
0000
0000
0000
,  // measure 33
0000
0000
0030
0000
3010
0000
0001
1000
,  // measure 34
0000
0010
0000
1000
0000
0100
0000
1000
,  // measure 35
0010
0001
0100
0001
,  // measure 36
1000
0000
0010
0000
0100
0000
0001
0220
,  // measure 37
0000
0000
0000
0330
1000
0000
0001
0100
,  // measure 38
0000
0001
0000
0022
0000
0000
0000
0000
,  // measure 39
0000
0003
0100
0000
0031
0000
1000
0010
,  // measure 40
0000
0010
0000
2200
0000
0000
0000
0000
,  // measure 41
0300
0000
3001
0000
0100
0010
0000
0100
,  // measure 42
0000
0001
0000
1000
0000
0100
0000
0010
,  // measure 43
0000
0001
0000
0010
0100
0010
0000
0000
,  // measure 44
1001
0000
0010
0001
0110
0000
0000
1100
,  // measure 45
0000
0101
0000
1001
,  // measure 46
0110
0000
1000
0100
1001
0000
0000
1010
,  // measure 47
0000
0011
0000
0000
;

//---------------dance-single - ----------------
#NOTES:
     dance-single:
     :
     Hard:
     12:
     :
// measure 0
2002
0000
0000
0000
,  // measure 1
0000
0000
0000
3003
0100
0000
0001
0000
,  // measure 2
0010
0000
1000
0100
1000
0010
1000
0001
,  // measure 3
0000
0100
0010
0000
1100
0000
0101
0000
,  // measure 4
1000
0001
0200
0020
0000
0000
0000
0000
,  // measure 5
0000
0000
0000
0330
1001
0000
0100
1000
,  // measure 6
0100
0001
0000
0100
0000
0010
0100
0001
,  // measure 7
0100
0000
1000
0000
0110
0000
0001
0100
,  // measure 8
0001
0010
0000
0100
0000
1000
0100
1000
,  // measure 9
0001
0100
0001
0000
1010
0000
0001
0010
,  // measure 10
0001
1000
0000
0001
0000
0100
0010
0001
,  // measure 11
1000
0000
0011
0000
1000
0100
1000
0010
,  // measure 12
0000
1000
0100
0001
0000
0000
0101
0000
,  // measure 13
1100
0101
1100
0010
,  // measure 14
0010
1000
0000
1001
0000
0100
0010
1000
,  // measure 15
0000
0010
0001
0000
0011
0000
0010
0100
,  // measure 16
0010
1000
0000
0110
0000
0100
0001
0000
,  // measure 17
2010
0000
0000
0010
0000
0000
0020
0000
3030
0000
0000
0000
1000
0000
0010
0000
,  // measure 18
1000
0001
0000
0011
0000
1000
0010
0100
,  // measure 19
0010
0000
1000
0000
0100
1000
0100
0010
,  // measure 20
0000
1001
0000
0110
0000
0100
0010
0000
,  // measure 21
0101
0110
2020
0000
,  // measure 22
3030
0001
0100
0001
0010
0000
0010
0100
,  // measure 23
0000
0100
1000
0000
0011
0000
0001
0000
,  // measure 24
1100
0100
1001
0001
,  // measure 25
0100
0000
0001
0000
1000
0000
0010
1000
,  // measure 26
0000
1000
0001
0000
0001
0100
0000
0100
,  // measure 27
0010
0100
0001
0010
0000
1000
0100
0000
,  // measure 28
0101
0000
0000
0000
1100
0000
0000
0000
0120
0000
0000
0100
0000
0000
0100
0000
,  // measure 29
0130
0000
1001
0000
0010
0100
0010
0001
,  // measure 30
0000
1100
0000
0011
0000
0100
0001
0100
,  // measure 31
0000
1000
0100
0001
0010
1000
0010
0001
,  // measure 32
0000
1010
0000
0101
0000
0100
0001
0010
,  // measure 33
0000
0010
1000
0100
1000
0010
0100
0020
,  // measure 34
0000
0032
0000
2003
0000
3100
0010
0001
,  // measure 35
0010
0100
1000
0000
0010
0100
0001
0100
,  // measure 36
0010
1000
0010
0100
0001
0100
0010
0001
,  // measure 37
0000
1000
0001
0000
0100
0010
0100
1000
,  // measure 38
0000
1100
0000
0101
0000
0010
0001
1000
,  // measure 39
0000
0100
0010
0100
0001
1000
0010
1000
,  // measure 40
0000
0011
0000
1010
0000
0001
0100
1000
,  // measure 41
0000
0100
0010
0001
0100
0010
1000
0010
,  // measure 42
0000
0100
0001
0100
0000
1000
0001
0100
,  // measure 43
0000
0010
1000
0010
0100
0001
1001
0000
,  // measure 44
0110
0000
0010
0001
0100
0010
0100
0101
,  // measure 45
0000
0001
1100
0000
0000
1000
1001
0000
,  // measure 46
0110
0000
0010
0100
1000
0001
0100
1010
,  // measure 47
0000
0001
0011
0000
0000
0000
0000
0000
;
