#TITLE:THE JOURNEY STARTS TODAY;
#SUBTITLE:(from POKEMON JOURNEYS);
#ARTIST:WALK OFF THE EARTH;
#TITLETRANSLIT:;
#SUBTITLETRANSLIT:;
#ARTISTTRANSLIT:;
#CREDIT:;
#BANNER:THE JOURNEY STARTS TODAY.png;
#BACKGROUND:THE JOURNEY STARTS TODAY-bg.png;
#LYRICSPATH:;
#CDTITLE:;
#MUSIC:THE JOURNEY STARTS TODAY.mp3;
#OFFSET:-2.075;
#SAMPLESTART:40.700;
#SAMPLELENGTH:12.800;
#SELECTABLE:YES;
#DISPLAYBPM:87.000:173.000;
#BPMS:0.000=86.500,18.000=173.000,94.000=86.500,110.000=173.000,186.000=86.500;
#STOPS:93.875=1.385,185.875=1.385,247.875=1.385;
#BGCHANGES:;

//---------------dance-single - ----------------
#NOTES:
     dance-single:
     :
     Beginner:
     2:
     :
// measure 1
0000
0000
0000
0000
,  // measure 2
0000
0000
0000
0000
,  // measure 3
0000
0000
0000
0000
,  // measure 4
0000
0000
0000
0000
,  // measure 5
0000
0000
1000
0000
,  // measure 6
0001
0000
0100
0000
,  // measure 7
0001
0000
0010
0000
,  // measure 8
0001
0000
0010
0000
,  // measure 9
0100
0000
1000
0000
,  // measure 10
0100
0000
1000
0000
,  // measure 11
0010
0000
1000
0000
,  // measure 12
0001
0000
0010
0000
,  // measure 13
0001
0000
0100
0000
,  // measure 14
0010
0000
1000
0000
,  // measure 15
0100
0000
0010
0000
,  // measure 16
0001
0000
0010
0000
,  // measure 17
0100
0000
1000
0000
,  // measure 18
0010
0000
0100
0000
,  // measure 19
0001
0000
0100
0000
,  // measure 20
0010
0000
1000
0000
,  // measure 21
0001
0000
0200
0000
,  // measure 22
0000
0300
0020
0000
,  // measure 23
0000
0030
0200
0000
,  // measure 24
0000
0300
0020
0000
,  // measure 25
0000
0000
0230
0000
,  // measure 26
0000
0000
0302
0000
,  // measure 27
0000
0000
2003
0000
,  // measure 28
0000
0000
3000
0001
,  // measure 29
0000
0001
0000
1000
,  // measure 30
0000
1000
0000
0010
,  // measure 31
0000
0010
0000
0100
,  // measure 32
0000
0100
0000
0001
,  // measure 33
0000
0100
0000
0010
,  // measure 34
0000
0100
0000
0001
,  // measure 35
0000
1000
0000
0100
,  // measure 36
0000
1000
0000
0010
,  // measure 37
0000
1000
0000
0001
,  // measure 38
0000
0010
0000
0001
,  // measure 39
0000
0010
0000
0100
,  // measure 40
0000
1000
0000
0100
,  // measure 41
0000
1000
0000
0010
,  // measure 42
0000
1000
0000
0001
,  // measure 43
0000
0100
0000
0010
,  // measure 44
0000
0100
0002
0000
,  // measure 45
0000
0003
2000
0000
,  // measure 46
0000
3000
0002
0000
,  // measure 47
0000
0003
2000
0000
,  // measure 48
0000
0000
3200
0000
,  // measure 49
0000
0000
0320
0000
,  // measure 50
0000
0000
0032
0000
,  // measure 51
0000
0000
1003
0000
,  // measure 52
0000
0000
0010
0000
,  // measure 53
0000
0000
0100
0000
,  // measure 54
0000
0000
0001
0000
,  // measure 55
0000
0000
0100
0000
,  // measure 56
0000
0000
0010
0000
,  // measure 57
0000
0000
1000
0000
,  // measure 58
0000
0000
0001
0000
,  // measure 59
0110
0000
0200
0000
,  // measure 60
0000
0000
0302
0000
,  // measure 61
0000
0000
2003
0000
,  // measure 62
0000
0000
3020
0000
,  // measure 63
0030
0100
0000
0100
,  // measure 64
0000
0001
0000
0001
,  // measure 65
0000
1000
0000
1000
,  // measure 66
0000
0010
0020
0000
,  // measure 67
0000
0030
1001
0000
0000
0000
0000
0000
;

//---------------dance-single - ----------------
#NOTES:
     dance-single:
     :
     Easy:
     4:
     :
// measure 1
0000
0000
0000
0000
,  // measure 2
0000
0000
0000
0000
,  // measure 3
0000
0000
0000
0000
,  // measure 4
0000
0000
0000
0000
,  // measure 5
0000
0000
1000
0001
,  // measure 6
1000
0000
0001
0100
,  // measure 7
0001
0010
0000
0001
,  // measure 8
1000
0000
0010
1000
,  // measure 9
0010
0100
0000
1000
,  // measure 10
0100
0000
0001
0010
,  // measure 11
0001
0100
0000
0010
,  // measure 12
1000
0000
0010
0010
,  // measure 13
1000
0001
1000
0001
,  // measure 14
0000
0001
0100
1000
,  // measure 15
0100
0001
0000
0100
,  // measure 16
0000
0100
0010
1000
,  // measure 17
0010
0100
0000
1000
,  // measure 18
0000
1000
0010
0001
,  // measure 19
0010
1000
0000
0010
,  // measure 20
0000
0010
0100
1000
,  // measure 21
0100
0010
0001
0000
,  // measure 22
0001
0000
1000
0000
,  // measure 23
1000
0000
0100
0000
,  // measure 24
0100
0000
0020
0001
,  // measure 25
1000
0100
0230
1000
,  // measure 26
0001
0010
2300
0010
,  // measure 27
0001
0100
3002
0010
,  // measure 28
1000
0100
0013
0010
,  // measure 29
0010
1000
0100
0001
,  // measure 30
0100
0010
0000
0010
,  // measure 31
1000
0001
0010
0001
,  // measure 32
0100
1000
0000
1000
,  // measure 33
0001
0010
0100
0010
,  // measure 34
0001
0100
0000
0100
,  // measure 35
0010
1000
0010
0010
,  // measure 36
0100
0001
0100
0010
,  // measure 37
0000
0100
0001
0100
,  // measure 38
1000
0100
0000
1000
,  // measure 39
0000
0001
0010
0100
,  // measure 40
0001
0010
0000
0100
,  // measure 41
0000
0010
0001
1000
,  // measure 42
0010
0100
0000
0001
,  // measure 43
0000
1000
0100
0010
,  // measure 44
0100
1000
0001
0000
,  // measure 45
0001
0000
0010
0000
,  // measure 46
0010
0000
0100
0000
,  // measure 47
0100
0000
2000
0010
,  // measure 48
0100
0001
3200
0010
,  // measure 49
1000
0001
0320
0001
,  // measure 50
1000
0100
0032
0100
,  // measure 51
0010
1000
0103
0100
,  // measure 52
0100
0100
0010
0010
,  // measure 53
0010
0010
1000
1000
,  // measure 54
1000
1000
0001
0001
,  // measure 55
0001
0001
0100
0001
,  // measure 56
0100
0001
1000
0100
,  // measure 57
1000
0100
0010
0001
,  // measure 58
0010
0001
0010
1000
,  // measure 59
0010
1000
0022
0000
,  // measure 60
0000
0033
2200
0000
,  // measure 61
0000
3300
2020
0000
,  // measure 62
0000
0000
0000
0000
0000
0000
0000
0000
3030
0000
0000
0000
0000
0000
0000
0000
0202
0000
0000
0000
0000
0000
0000
0000
0000
0000
0000
0000
0000
0000
0000
0303
,  // measure 63
1000
0100
0010
0100
,  // measure 64
1000
0001
0010
0001
,  // measure 65
0100
0010
1000
0001
,  // measure 66
0100
0010
0220
0000
,  // measure 67
0000
0330
1001
0000
0000
0000
0000
0000
;

//---------------dance-single - ----------------
#NOTES:
     dance-single:
     :
     Medium:
     8:
     :
// measure 1
0000
0000
0000
0000
,  // measure 2
0000
0000
0000
0000
,  // measure 3
0000
0000
0000
0000
,  // measure 4
0000
0000
0000
0000
,  // measure 5
0000
0000
1000
0100
,  // measure 6
1000
0000
0001
0000
0010
0100
0010
0000
,  // measure 7
0001
1000
0001
0000
0010
0000
1000
0000
,  // measure 8
0010
0000
0001
0000
1000
0010
1000
0000
,  // measure 9
0001
0100
0001
1000
,  // measure 10
0010
0000
1000
0000
0001
0001
0000
0000
,  // measure 11
1000
1000
0000
0000
0010
0000
0100
0000
,  // measure 12
0001
0100
1000
0100
,  // measure 13
0010
0001
1000
0010
,  // measure 14
1000
0000
0001
0000
0010
0100
0001
0000
,  // measure 15
0010
0100
1000
0000
0001
0000
0100
0000
,  // measure 16
1000
0000
0100
0000
0010
1000
0001
0000
,  // measure 17
1000
0010
0001
0100
,  // measure 18
0001
0000
1000
0000
0010
0010
0000
0000
,  // measure 19
0100
0100
0000
0000
1000
0000
0010
0000
,  // measure 20
1000
0001
0100
0001
,  // measure 21
0010
1000
0100
0001
,  // measure 22
0100
0000
0010
1000
0010
0000
0010
0100
,  // measure 23
0000
0002
0000
2000
0000
0000
0000
0000
,  // measure 24
0000
0000
0000
0000
0000
0000
3003
0000
0010
0000
1000
0100
0000
0000
0000
0000
,  // measure 25
1000
0000
1000
0000
0001
0000
0001
0000
0100
0000
0001
0100
0000
0000
0000
0000
,  // measure 26
0010
0000
1000
0000
0001
0000
1000
0000
0100
0000
0010
0001
0000
0000
0000
0000
,  // measure 27
0010
0000
0010
0000
0100
0000
0100
0000
1000
0000
0001
1000
0000
0000
0000
0000
,  // measure 28
1000
0100
0010
0001
0100
0000
0001
0000
,  // measure 29
1000
0000
0100
0000
0001
0100
0001
0000
,  // measure 30
1000
0100
1000
0000
0001
0000
0010
0000
,  // measure 31
0100
0000
0010
0000
0001
0010
0001
0000
,  // measure 32
1000
0010
1000
0001
0000
0000
0100
0000
,  // measure 33
0010
0000
0000
0000
0010
1000
0001
0000
,  // measure 34
0001
1000
0100
0000
0000
0000
1000
0000
,  // measure 35
0001
0000
0000
0000
0001
0010
1000
0000
,  // measure 36
1000
0100
0001
0000
0010
0000
0100
0000
,  // measure 37
1000
0000
0010
0000
0100
0001
0010
0000
,  // measure 38
0010
0001
1000
0000
0010
0000
1000
0000
,  // measure 39
0001
0000
0010
0000
0001
0100
1000
0000
,  // measure 40
0010
1000
0100
0000
1000
0000
0001
0000
,  // measure 41
1000
0010
1000
0100
,  // measure 42
1000
0010
0000
0010
0001
0000
1000
0000
,  // measure 43
0001
0100
0001
0010
,  // measure 44
0001
0100
0000
0100
0010
0000
1000
0000
,  // measure 45
0100
0000
0001
0100
0001
0000
1000
0001
,  // measure 46
0000
0020
0000
0200
0000
0000
0000
0000
,  // measure 47
0000
0000
0000
0000
0000
0000
0330
0000
1000
0000
0001
1000
0000
0000
0000
0000
,  // measure 48
0001
0000
0010
0000
0100
0000
1000
0000
0001
0000
0100
0001
0000
0000
0000
0000
,  // measure 49
1000
0000
0010
0000
1000
0000
0010
0000
0001
0000
1000
0100
0000
0000
0000
0000
,  // measure 50
0010
0000
0001
0000
0100
0000
0010
0000
1000
0000
0010
0100
0000
0000
0000
0000
,  // measure 51
0001
1000
1000
0001
0100
0000
0100
0000
,  // measure 52
0100
0100
0010
0010
,  // measure 53
0010
0010
1000
1000
,  // measure 54
1000
1000
0001
0001
,  // measure 55
0001
0000
0001
0000
0100
0001
0100
0000
,  // measure 56
0001
0100
0001
0000
1000
0100
1000
0000
,  // measure 57
0100
1000
0100
0000
0010
0001
0010
0000
,  // measure 58
0001
0010
0001
0000
0010
1000
0010
0000
,  // measure 59
1000
0010
1000
0010
0200
0000
0000
0000
,  // measure 60
0000
0000
0302
0000
,  // measure 61
0000
0000
2003
0000
,  // measure 62
0000
0000
3020
0000
,  // measure 63
0130
0000
0001
1000
0000
0010
0000
0000
1000
0000
0100
0000
0010
0000
0100
0000
,  // measure 64
1000
0000
0001
1000
0000
0010
0000
0000
1000
0000
0010
0000
0100
0000
0001
0000
,  // measure 65
0010
0000
0001
0010
0000
0100
0000
0000
0010
0000
0001
0000
1000
0000
0010
0000
,  // measure 66
1000
0000
0010
0100
0000
0010
0000
0000
0001
0000
0010
0000
0100
0000
1000
0000
,  // measure 67
0000
0110
1001
0000
0000
0000
0000
0000
;

//---------------dance-single - ----------------
#NOTES:
     dance-single:
     :
     Hard:
     13:
     :
// measure 1
0000
0000
0000
0000
,  // measure 2
0000
0000
0000
0000
,  // measure 3
0000
0000
0000
0000
,  // measure 4
0000
0000
0000
0000
,  // measure 5
0000
0000
0000
0000
0000
0000
1000
0001
0010
0000
0000
0000
0001
0000
0000
0000
,  // measure 6
0010
0000
1000
0000
0100
1000
0010
1000
,  // measure 7
0100
0000
0011
0000
0000
0001
0100
0001
,  // measure 8
1000
0010
0100
0001
0010
0100
1000
0001
,  // measure 9
0100
0000
0101
0000
0000
0000
1000
0100
,  // measure 10
0001
0100
1000
0001
0010
0000
0001
1000
,  // measure 11
0100
1000
0000
0110
0000
0000
0001
0100
,  // measure 12
0001
1000
0010
1000
0001
0000
1000
0000
,  // measure 13
0001
0010
0100
2000
0000
0000
3001
0000
,  // measure 14
0010
0000
0001
0000
1000
0010
1000
0001
,  // measure 15
0100
0000
1001
0000
0000
1000
0010
0001
,  // measure 16
0010
1000
0100
0001
0100
1000
0010
0100
,  // measure 17
0001
0000
1100
0000
0000
0010
0001
0010
,  // measure 18
1000
0001
1000
0010
0100
0000
0100
0001
,  // measure 19
1000
0010
0000
0011
0000
0000
0001
0010
,  // measure 20
0001
1000
0001
0100
0010
0000
0100
0010
,  // measure 21
1000
0100
0010
0001
1000
0100
1000
0000
,  // measure 22
0001
0000
0100
0010
1000
0010
0100
0010
,  // measure 23
0000
2000
0000
0002
0000
0000
0000
0000
,  // measure 24
0000
0000
0000
0000
0000
0000
3003
0000
0010
0001
0100
0001
0000
1000
0000
0010
,  // measure 25
0000
0100
0010
0000
1000
0000
0100
0000
1000
0010
1000
0001
0000
0010
0000
0100
,  // measure 26
0000
1000
0010
0000
0100
0000
0001
0000
0100
0010
0100
0010
0000
1000
0000
0001
,  // measure 27
0000
1000
0100
0000
0010
0000
0100
0000
1000
0001
1000
0001
0000
0010
0000
0001
,  // measure 28
0000
0100
0010
0000
1000
0010
1000
0001
1000
0000
0000
0000
0100
0000
0000
0000
,  // measure 29
1000
0000
0001
0100
0001
0010
1000
0010
,  // measure 30
0001
0101
0000
0010
,  // measure 31
1000
0000
0100
1000
0010
0000
0100
0000
,  // measure 32
0001
0100
0001
2000
0000
0000
3010
0000
,  // measure 33
0001
0000
1000
0100
1000
0010
0100
0000
,  // measure 34
0100
0010
0000
1010
0000
0100
1000
0100
,  // measure 35
0001
0010
0001
1000
0001
0000
0100
1000
,  // measure 36
0010
1000
0001
0200
0000
0000
0310
1000
,  // measure 37
0001
1000
0100
0010
0100
1000
0001
1000
,  // measure 38
0110
0000
1001
0000
0000
0001
0010
0100
,  // measure 39
0010
0001
1000
0010
1000
0100
0010
0001
,  // measure 40
1001
0000
0110
0000
0000
0001
0100
0010
,  // measure 41
0100
0001
1000
0100
1000
0000
0001
0100
,  // measure 42
0001
1000
0000
0011
0000
0000
0001
1000
,  // measure 43
0010
0000
0100
0010
1000
0000
0001
1000
,  // measure 44
0001
0010
0100
2100
0010
0000
0001
0000
,  // measure 45
3100
0000
0100
1000
0010
1000
0001
1000
,  // measure 46
0000
0200
0000
0020
0000
0000
0000
0000
,  // measure 47
0000
0000
0000
0000
0000
0000
0330
0000
1000
0001
0010
0001
0000
0010
0000
0100
,  // measure 48
0000
0010
1000
0000
0100
0000
0010
0000
0100
1000
0001
0100
0000
0010
0000
1000
,  // measure 49
0000
0001
1000
0000
0010
0000
0100
0000
0001
1000
0010
1000
0000
0100
0000
0001
,  // measure 50
0000
0100
0010
0000
0100
0000
0001
0000
1000
0001
0100
0001
0000
1000
0000
0010
,  // measure 51
0000
0010
1000
0000
0001
1000
0100
1000
0010
0000
0100
0000
0001
0000
0100
0000
,  // measure 52
1000
0010
1000
0001
0100
0001
0000
0011
0000
0000
0100
1000
0001
1000
0100
0010
,  // measure 53
0100
1000
0001
1000
0010
0100
0000
1010
0000
0000
0100
0010
0100
0001
0100
0010
,  // measure 54
1000
0100
0000
1100
0000
0000
0001
0100
0001
1000
0010
0100
0001
0010
0000
0011
,  // measure 55
0000
0000
0000
0100
1000
0010
0000
0010
0100
0000
0100
0000
0100
0000
0001
0010
,  // measure 56
0001
0100
0010
1000
0100
1000
0000
1001
0001
0000
0001
0000
0001
0000
1000
0000
,  // measure 57
1000
0000
1000
0000
0100
0001
0000
1000
0010
0000
0010
0000
0010
0000
1000
0100
,  // measure 58
0001
0100
1000
0010
0100
0001
0000
0220
0000
0000
0000
0000
0330
0000
0100
0010
,  // measure 59
1000
0000
0001
0000
1000
0000
0010
0100
0010
0000
1000
0001
0000
0010
0000
0100
,  // measure 60
0000
1000
0010
0000
0100
0000
0010
0000
0001
0000
1000
0010
0000
0100
0000
0010
,  // measure 61
0000
1000
0001
0000
0100
0000
0001
0000
1000
0000
0100
0010
0000
0001
0000
0100
,  // measure 62
0000
0001
0100
0000
0010
0000
1000
0000
0100
0000
1000
0001
0000
0010
0000
0001
,  // measure 63
0010
1000
0100
1000
0000
0001
0000
1010
0000
0001
1000
0000
0100
0000
0001
0000
,  // measure 64
1000
0010
0100
0001
0000
0100
0000
0011
0000
0100
1000
0000
0010
0000
1000
0000
,  // measure 65
0100
0010
0001
1000
0000
0010
0000
0101
0000
0001
1000
0000
0010
0000
0001
0000
,  // measure 66
0100
0010
1000
0100
0000
1100
0000
0001
0100
0000
0010
0000
1000
0000
0010
0100
,  // measure 67
0000
0110
1001
0000
0000
0000
0000
0000
;
