#TITLE:That's The Way;
#SUBTITLE:(Scorccio Mix);
#ARTIST:X-TREME;
#TITLETRANSLIT:;
#SUBTITLETRANSLIT:;
#ARTISTTRANSLIT:;
#CREDIT:;
#BANNER:That's The Way (Scorccio Mix).png;
#BACKGROUND:That's The Way (Scorccio Mix)-bg.png;
#JACKET:That's The Way (Scorccio Mix)-jacket.png;
#LYRICSPATH:;
#CDTITLE:;
#MUSIC:That's The Way (Scorccio Mix).mp3;
#OFFSET:-5.660;
#SAMPLESTART:56.275;
#SAMPLELENGTH:13.820;
#SELECTABLE:YES;
#DISPLAYBPM:128.000;
#BPMS:0.000=128.000;
#STOPS:;
#BGCHANGES:;

//---------------dance-single - ----------------
#NOTES:
     dance-single:
     :
     Beginner:
     3:
     :
// measure 1
0000
0000
0000
0000
,  // measure 2
0000
0000
0000
0000
,  // measure 3
0000
0000
0000
0000
,  // measure 4
0001
0000
0010
0000
,  // measure 5
0100
0000
0000
0000
,  // measure 6
1000
0000
0100
0000
,  // measure 7
0010
0000
0000
0000
,  // measure 8
0001
0000
0100
0000
,  // measure 9
0010
0000
0000
0000
,  // measure 10
0100
0000
0010
0000
,  // measure 11
1000
0000
0000
0000
,  // measure 12
0001
0000
1000
0000
,  // measure 13
0010
0000
1000
0000
,  // measure 14
0001
0000
0010
0000
,  // measure 15
0001
0000
0010
0000
,  // measure 16
0100
0000
1000
0000
,  // measure 17
0001
0000
1000
0000
,  // measure 18
1000
0000
0001
0000
,  // measure 19
0100
0000
0010
0000
,  // measure 20
0001
0000
0010
0000
,  // measure 21
0100
0000
0100
0000
,  // measure 22
0010
0000
0010
0000
,  // measure 23
0001
0000
0001
0000
,  // measure 24
1000
0000
1000
0000
,  // measure 25
0001
0000
0100
0000
,  // measure 26
1000
0000
0100
0000
,  // measure 27
0001
0000
0010
0000
,  // measure 28
0100
0000
1000
0000
,  // measure 29
0010
0100
0001
0000
,  // measure 30
1000
0000
0001
0000
,  // measure 31
0010
0100
1000
0000
,  // measure 32
0100
0000
0010
0000
,  // measure 33
0001
0100
0010
0000
,  // measure 34
1000
0000
0010
0000
,  // measure 35
0100
0010
0001
0000
,  // measure 36
0010
0000
0010
0000
,  // measure 37
0010
0000
0010
0000
,  // measure 38
0010
0000
0010
0000
,  // measure 39
0010
0000
0010
0000
,  // measure 40
0100
0000
0100
0000
,  // measure 41
0100
0000
0100
0000
,  // measure 42
0100
0000
0100
0000
,  // measure 43
0100
0000
0100
0110
,  // measure 44
1001
0000
0000
0000
;

//---------------dance-single - ----------------
#NOTES:
     dance-single:
     :
     Easy:
     6:
     :
// measure 1
0000
0000
0000
0000
,  // measure 2
0000
0000
0000
0000
,  // measure 3
0000
0000
0000
0000
,  // measure 4
1000
0100
0001
0100
,  // measure 5
1000
0010
0001
0000
,  // measure 6
0100
0010
0001
0010
,  // measure 7
0100
0001
1000
0000
,  // measure 8
0010
1000
0001
1000
,  // measure 9
0100
0010
0001
0000
,  // measure 10
0010
0100
0010
0001
,  // measure 11
1000
0010
0100
0000
,  // measure 12
0010
0100
0001
1000
,  // measure 13
0010
0010
1000
0100
,  // measure 14
0001
0100
1000
0001
,  // measure 15
0100
0001
1000
0010
,  // measure 16
0100
0001
0010
0100
,  // measure 17
1000
0010
0100
0001
,  // measure 18
0100
1000
0100
0001
,  // measure 19
0010
1000
0010
0001
,  // measure 20
0100
0010
0100
0101
,  // measure 21
0010
1000
0001
0011
,  // measure 22
0100
1000
0001
1100
,  // measure 23
0100
0001
1000
1010
,  // measure 24
0100
0010
1000
0101
,  // measure 25
0001
0100
0010
1010
,  // measure 26
1000
0001
1000
0011
,  // measure 27
0100
1000
1001
1100
,  // measure 28
0010
0000
0001
0000
1000
0000
0010
0100
,  // measure 29
0010
1000
0100
0000
,  // measure 30
0001
0000
0010
0000
0100
0000
1000
0001
,  // measure 31
0100
0001
0010
0000
,  // measure 32
0100
0000
1000
0000
0001
0000
0010
0001
,  // measure 33
1000
0100
0010
0000
,  // measure 34
0001
0000
0100
0000
1000
0000
0100
0010
,  // measure 35
0001
0100
1000
0000
,  // measure 36
0010
0010
0100
0100
,  // measure 37
0001
0001
1000
1000
,  // measure 38
0010
0010
1000
1000
,  // measure 39
0001
0001
0100
0100
,  // measure 40
0010
0010
0010
0010
,  // measure 41
0100
0100
0100
0100
,  // measure 42
1000
0001
1000
0001
,  // measure 43
1000
0000
0010
0100
,  // measure 44
0110
0000
0000
0000
;

//---------------dance-single - ----------------
#NOTES:
     dance-single:
     :
     Medium:
     9:
     :
// measure 1
0000
0000
0000
0000
,  // measure 2
0000
0000
0000
0000
,  // measure 3
0000
0000
0000
0000
,  // measure 4
0100
0000
0010
1000
0000
0001
1000
0000
,  // measure 5
0010
0000
1000
0100
0000
0010
0011
0000
,  // measure 6
0100
0000
0001
1000
0000
1000
0010
0000
,  // measure 7
0100
0000
1000
0010
0101
0000
1001
0000
,  // measure 8
1000
0000
0001
0100
0000
0010
0100
0000
,  // measure 9
1000
0000
0010
1000
0000
0010
1010
0000
,  // measure 10
1000
0000
0010
1000
0000
1000
0001
0000
,  // measure 11
1000
0000
0100
1000
1100
0000
0110
0000
,  // measure 12
0001
0100
0010
0000
0100
1000
0001
0000
,  // measure 13
1000
0010
0100
0000
0010
1000
0001
0000
,  // measure 14
0100
1000
0001
0000
0010
0100
0010
0000
,  // measure 15
0001
1000
0010
1000
0001
0100
1000
0100
,  // measure 16
0010
0100
0001
0100
1000
0000
0001
0000
,  // measure 17
0100
0010
1000
0000
0001
0000
0100
0000
,  // measure 18
1000
0100
0001
0010
1000
0001
0100
0000
,  // measure 19
0010
1000
0001
0000
0010
0001
0100
0000
,  // measure 20
1000
0100
0010
0000
0001
1000
0010
0000
,  // measure 21
0100
0001
0010
0000
0001
1000
0010
0000
,  // measure 22
1000
0010
1000
0000
0100
0001
0100
0000
,  // measure 23
0001
0010
0001
0000
1000
0001
1000
0000
,  // measure 24
1000
0100
0001
0000
0001
0010
0100
0000
,  // measure 25
0001
0010
0000
0000
1000
0100
0001
0000
,  // measure 26
0001
0100
0010
0000
1000
0100
0010
0000
,  // measure 27
1000
0001
0110
1001
,  // measure 28
0010
0000
0100
0001
0000
0010
0100
0010
,  // measure 29
0001
0000
0100
0010
0000
0100
0101
0000
,  // measure 30
0010
0000
1000
0010
0000
0010
0100
0001
,  // measure 31
1000
0000
0100
0001
0011
0000
0110
0000
,  // measure 32
0100
0000
1000
0010
0000
0001
0010
0100
,  // measure 33
1000
0000
0001
0100
0000
1000
1010
0000
,  // measure 34
0100
0000
0001
0010
0000
1000
0010
1000
,  // measure 35
0100
0000
0001
1000
1100
0000
1001
0000
,  // measure 36
0100
0000
0100
0010
0001
0000
0001
1000
,  // measure 37
0010
0000
0010
0001
1000
0000
1000
0010
,  // measure 38
0100
0000
0100
1000
0001
0000
0001
0100
,  // measure 39
0010
0000
0010
0100
1000
0000
1000
0001
,  // measure 40
0100
0100
0010
0010
0100
0100
0010
0010
,  // measure 41
0100
0100
0010
0010
0100
0100
0010
0010
,  // measure 42
1000
0001
1000
0001
1000
0001
1000
0001
,  // measure 43
1000
0000
0001
0000
1000
0000
0000
0000
0010
0000
0000
1000
0001
0000
0100
0000
,  // measure 44
0110
0000
0000
0000
;

//---------------dance-single - ----------------
#NOTES:
     dance-single:
     :
     Hard:
     13:
     :
// measure 1
0000
0000
0000
0000
,  // measure 2
0000
0000
0000
0000
,  // measure 3
0000
0000
0000
0000
,  // measure 4
0010
0000
0000
0100
0000
0000
0001
0000
0000
0010
0000
0000
0001
0000
0100
0000
,  // measure 5
0010
0000
0000
1000
0000
0000
0001
0000
0000
0000
1100
0000
1100
0000
0000
0000
,  // measure 6
1000
0000
0000
0100
0000
0000
0001
0000
0000
0010
0000
0000
0001
0000
0100
0000
,  // measure 7
0010
0000
0000
1000
0000
0000
0010
0000
1010
0000
0000
0000
1010
0000
0000
0000
,  // measure 8
0001
0000
0000
1000
0000
0000
0010
0000
0000
1000
0000
0000
0100
0000
0001
0000
,  // measure 9
0010
0000
0000
0100
0000
0000
0010
0000
0000
0000
0011
0000
0011
0000
0000
0000
,  // measure 10
0100
0000
0000
1000
0000
0000
0100
0000
0000
0010
0000
0000
0100
0000
1000
0000
,  // measure 11
0001
0000
0000
1000
0000
0000
0001
0000
0101
0000
0000
0000
0101
0000
0000
0000
,  // measure 12
1000
0010
0001
0010
0100
0001
0100
1000
,  // measure 13
0100
0010
1000
0100
0010
0100
1000
0010
,  // measure 14
0001
0001
0001
0000
1000
1000
1000
0000
,  // measure 15
0100
0001
0010
0001
1000
0001
0010
0001
,  // measure 16
0100
1000
0001
1000
0100
0010
0100
0000
,  // measure 17
0010
0001
1000
0010
1000
0100
0001
0000
,  // measure 18
0010
0001
1000
0001
0010
0001
0100
0001
,  // measure 19
1000
0010
0001
0010
1000
0001
1000
0100
,  // measure 20
0010
0001
0010
0100
0010
0001
0010
1000
,  // measure 21
0001
0100
1000
0100
0001
0010
0100
1000
,  // measure 22
0100
0100
0100
0000
0010
0010
0010
0000
,  // measure 23
1000
0001
0010
0001
0100
0010
1000
0000
,  // measure 24
0001
0010
0001
0100
0010
0001
1000
0000
,  // measure 25
0010
0100
0000
0000
0100
0001
1000
0000
,  // measure 26
0100
0010
1000
0100
0010
0001
0100
0001
,  // measure 27
1000
0001
0100
1000
0100
0001
0010
0001
,  // measure 28
1000
0100
0000
0010
0000
0000
0001
0000
0000
1000
0100
1000
0010
0000
0100
0000
,  // measure 29
0001
0001
0000
0100
0000
0000
0010
0000
0000
0000
0010
1000
1010
0000
0000
0000
,  // measure 30
0010
0100
0000
0010
0000
0000
1000
0000
0000
0100
0010
0001
0010
0000
0100
0000
,  // measure 31
0001
0010
0000
1000
0000
0000
0100
0000
1100
0000
0000
0000
1100
0000
0000
0000
,  // measure 32
1000
0001
0000
0010
0000
0000
0001
0000
0000
0100
0010
1000
0010
0000
0100
0000
,  // measure 33
1000
1000
0000
0100
0000
0000
0001
0000
0000
0000
0001
0100
0101
0000
0000
0000
,  // measure 34
0010
0001
0000
1000
0000
0000
0001
0000
0000
0010
1000
0100
1000
0000
0001
0000
,  // measure 35
0010
0001
0000
1000
0000
0000
0100
0000
0011
0000
0000
0000
0011
0000
0000
0000
,  // measure 36
0001
0000
0000
0100
0000
0000
0010
0000
0100
0000
0000
0001
0000
0000
1000
0000
,  // measure 37
0100
0000
0000
0010
0000
0000
0100
0000
1000
0000
0000
0001
0000
0000
0100
0000
,  // measure 38
0001
0000
0000
0100
0000
0000
0010
0000
1000
0000
0000
0010
0000
0000
0100
0000
,  // measure 39
0001
0000
0000
0100
0000
0000
1000
0000
1000
0000
0000
0010
0000
0000
0001
0000
,  // measure 40
0100
0001
0010
0001
1000
0001
0010
0001
,  // measure 41
0100
0010
1000
0010
0001
0010
1000
0100
,  // measure 42
1000
0100
1000
0010
0100
0001
0010
0001
0100
0010
1000
0100
0010
0001
0010
0100
,  // measure 43
1000
0001
1000
0001
1000
0000
0000
0000
0010
0000
0000
0100
0001
0000
1000
0000
,  // measure 44
1001
0000
0000
0000
;
