#TITLE:Tell It To My Heart;
#SUBTITLE:;
#ARTIST:Taylor Dayne;
#TITLETRANSLIT:;
#SUBTITLETRANSLIT:;
#ARTISTTRANSLIT:;
#GENRE:;
#CREDIT:;
#BANNER:Tell It To My Heart.png;
#BACKGROUND:Tell It To My Heart-bg.png;
#LYRICSPATH:;
#CDTITLE:;
#MUSIC:Tell It to My Heart.mp3;
#OFFSET:-0.050000;
#SAMPLESTART:101.147003;
#SAMPLELENGTH:15.000000;
#SELECTABLE:YES;
#DISPLAYBPM:118.000000;
#BPMS:0.000000=118.103996;
#STOPS:;
#BGCHANGES:;
#KEYSOUNDS:;
#ATTACKS:;

//---------------dance-single - ----------------
#NOTES:
     dance-single:
     :
     Beginner:
     2:
     :
// measure 0
0000
0000
0000
0000
,  // measure 1
0000
0000
0000
0000
,  // measure 2
0000
0000
0000
0000
,  // measure 3
0000
0000
0000
0000
,  // measure 4
0020
0000
0030
0000
,  // measure 5
0002
0000
0000
0003
,  // measure 6
2000
0000
3000
0100
,  // measure 7
0200
0000
0000
0300
,  // measure 8
0020
0000
0030
0001
,  // measure 9
1000
0000
0010
0000
,  // measure 10
0100
0000
0000
0001
,  // measure 11
1000
0000
0220
0000
,  // measure 12
0000
0000
0330
0100
,  // measure 13
0001
0000
0010
0000
,  // measure 14
0100
0000
0000
1000
,  // measure 15
0001
0000
1001
0000
,  // measure 16
0110
0000
0001
0001
,  // measure 17
0001
0000
1000
1000
,  // measure 18
1000
0000
0100
0000
,  // measure 19
0010
0000
0001
0000
,  // measure 20
0000
0000
0100
0100
,  // measure 21
0100
0000
0010
0010
,  // measure 22
0010
0000
2000
0000
,  // measure 23
0000
0000
0002
3003
,  // measure 24
0010
1000
0100
0000
,  // measure 25
0010
0001
1000
0000
,  // measure 26
0010
0100
0001
0000
,  // measure 27
0010
0000
1000
0000
,  // measure 28
0010
0000
0100
1000
,  // measure 29
0001
0000
0100
0001
,  // measure 30
1000
0000
0100
1000
,  // measure 31
0010
0000
0001
0000
,  // measure 32
0110
0000
0200
0000
,  // measure 33
0000
0000
0320
0000
,  // measure 34
0000
0000
2030
0000
,  // measure 35
0000
0000
3002
0000
,  // measure 36
0000
0000
2003
0000
,  // measure 37
0000
0000
3020
0000
,  // measure 38
0000
0000
0230
0000
,  // measure 39
0000
0000
0302
0000
,  // measure 40
0000
0000
0103
0000
,  // measure 41
0010
0100
1000
0000
,  // measure 42
0001
0010
0100
0000
,  // measure 43
0000
0100
0010
0000
,  // measure 44
0001
0010
1000
0000
,  // measure 45
0010
0001
1000
0000
,  // measure 46
0000
0010
0100
0000
,  // measure 47
1000
0100
0002
0000
,  // measure 48
0000
0000
0020
0000
,  // measure 49
0000
0000
0000
0033
,  // measure 50
0010
0001
0100
0000
,  // measure 51
0010
0001
1000
0000
,  // measure 52
0010
0100
0001
0000
,  // measure 53
0010
0000
1000
0000
,  // measure 54
0010
0000
0100
1000
,  // measure 55
0001
0000
0100
0001
,  // measure 56
1000
0000
0100
1000
,  // measure 57
0010
0000
0001
0000
,  // measure 58
1001
0000
1000
0000
,  // measure 59
0010
0000
0100
0000
,  // measure 60
0001
0000
0100
0000
,  // measure 61
1000
0000
0100
0000
,  // measure 62
0001
0000
0010
0000
,  // measure 63
0100
0000
1000
0000
,  // measure 64
0010
0000
1000
0000
,  // measure 65
0001
0000
1000
0000
,  // measure 66
0001
0000
2002
0000
,  // measure 67
0000
0000
0000
0000
,  // measure 68
0000
0000
3003
0000
;

//---------------dance-single - ----------------
#NOTES:
     dance-single:
     :
     Easy:
     4:
     :
// measure 0
0000
0000
0000
0000
,  // measure 1
0000
0000
0000
0000
,  // measure 2
0000
0000
0000
0000
,  // measure 3
0000
0000
0000
0000
,  // measure 4
0100
0010
1000
0000
,  // measure 5
0100
0001
1000
0001
,  // measure 6
0010
0100
1000
0001
,  // measure 7
1000
0010
0100
0000
,  // measure 8
0010
0001
1000
0100
,  // measure 9
0001
0100
0010
0100
,  // measure 10
2000
0000
0000
3100
,  // measure 11
0001
0010
0022
0000
,  // measure 12
0000
0000
0033
0100
,  // measure 13
0010
1000
0100
1000
,  // measure 14
0002
0000
0000
0103
,  // measure 15
0010
1000
2020
0000
,  // measure 16
0000
3030
0001
0010
,  // measure 17
0001
0000
1000
0010
,  // measure 18
1000
0000
0000
1000
,  // measure 19
0100
0001
0020
0000
,  // measure 20
0000
0000
0000
0130
,  // measure 21
0010
0001
0010
0100
,  // measure 22
1000
0001
0200
0000
,  // measure 23
0000
0000
0020
0330
,  // measure 24
1000
0010
0100
0000
,  // measure 25
0100
0010
0001
0010
,  // measure 26
1000
0100
0001
0100
,  // measure 27
1000
0010
0001
0000
,  // measure 28
0100
0001
0010
0000
,  // measure 29
0001
0010
0100
1000
,  // measure 30
0000
0010
0100
0001
,  // measure 31
0010
0001
1000
0000
,  // measure 32
0220
0330
1000
0001
,  // measure 33
1000
0100
1000
0001
,  // measure 34
0100
0001
0100
1000
,  // measure 35
0100
0001
0100
1000
,  // measure 36
0001
0010
0100
0001
,  // measure 37
1000
0100
1000
0001
,  // measure 38
0001
1000
0100
0001
,  // measure 39
1000
0100
1000
0001
,  // measure 40
0100
0010
0002
0000
,  // measure 41
0103
0010
2000
0000
,  // measure 42
3001
0010
0002
0000
,  // measure 43
0000
0103
2000
0000
,  // measure 44
3100
0010
0002
0000
,  // measure 45
0013
1000
0002
0000
,  // measure 46
0000
0013
2000
0000
,  // measure 47
3100
0010
0002
0000
,  // measure 48
0000
0000
0020
0000
,  // measure 49
0000
0000
0000
0033
,  // measure 50
0100
0010
1000
0001
,  // measure 51
0100
0010
1000
0100
,  // measure 52
1000
0010
0001
0100
,  // measure 53
0010
1000
0100
1000
,  // measure 54
0001
1000
0100
0010
,  // measure 55
0001
0100
0010
0100
,  // measure 56
1000
0010
0001
0100
,  // measure 57
0010
0100
0001
1000
,  // measure 58
2002
3003
0100
0000
,  // measure 59
0100
0010
1000
0000
,  // measure 60
0100
0010
0001
0000
,  // measure 61
1000
0010
0001
0100
,  // measure 62
0010
1000
0001
0000
,  // measure 63
1000
0010
0001
0000
,  // measure 64
0001
0010
1000
0000
,  // measure 65
0100
0010
0001
0010
,  // measure 66
0100
1000
0220
0000
,  // measure 67
0000
0000
0000
0000
,  // measure 68
0000
0000
0330
0000
;

//---------------dance-single - ----------------
#NOTES:
     dance-single:
     :
     Medium:
     7:
     :
// measure 0
0000
0000
0000
0000
,  // measure 1
0000
0000
0000
0000
,  // measure 2
0000
0000
0000
0000
,  // measure 3
0000
0000
0000
0000
,  // measure 4
1000
0010
0100
0000
0001
0000
1000
0000
,  // measure 5
0010
0001
0100
0000
0001
0000
0100
0000
,  // measure 6
0010
1000
0100
0000
1000
0000
0100
0000
,  // measure 7
0001
0000
0010
0100
0000
0010
0000
0001
,  // measure 8
0100
0001
1000
0000
0010
0000
0100
0000
,  // measure 9
0001
0000
0010
0001
0000
1000
0000
0100
,  // measure 10
0000
0001
0101
0010
,  // measure 11
1000
0000
0100
0001
0100
2200
0000
0000
,  // measure 12
0000
0000
0000
3300
0001
0000
0100
0000
,  // measure 13
0001
0000
0010
0002
0000
0000
1000
2000
,  // measure 14
0000
0000
0000
0000
3003
0100
0010
2000
,  // measure 15
0000
0000
3001
0100
0000
0022
0000
0000
,  // measure 16
0000
0000
0000
0033
0100
0000
1000
0000
,  // measure 17
0001
0100
0010
1000
,  // measure 18
0010
0100
0001
0100
,  // measure 19
1000
0000
0100
0001
0000
2020
0000
0000
,  // measure 20
0000
0000
0000
0000
0000
3030
0100
0000
,  // measure 21
0001
0000
1000
2000
0000
0000
3001
0002
,  // measure 22
0000
0000
0103
0200
0000
0000
0010
0000
,  // measure 23
0010
0000
0010
0000
0020
0000
0000
0330
,  // measure 24
0001
0100
0010
0000
1000
0000
0000
0000
,  // measure 25
1000
0010
0001
0000
0010
0000
1000
0000
,  // measure 26
0100
0001
0010
0000
1000
0000
0100
0000
,  // measure 27
0010
0000
0001
1000
0000
0220
0000
0330
,  // measure 28
0010
1000
0001
0000
1000
0000
0000
0010
,  // measure 29
0000
0010
0100
0000
0001
0000
0010
0000
,  // measure 30
0000
1000
0000
0010
0001
0000
0100
0001
,  // measure 31
0000
0000
0010
0100
0000
2002
0000
0000
,  // measure 32
0000
0000
0000
3003
0000
1000
0010
0000
,  // measure 33
0101
0000
1000
0100
0000
0001
0100
0000
,  // measure 34
1010
0000
0001
0010
0000
0010
1000
0000
,  // measure 35
1100
0000
0010
0100
0000
0100
0001
0000
,  // measure 36
0011
0000
1000
0010
0000
0100
0001
0000
,  // measure 37
1100
0000
1000
0010
0100
0010
0001
0000
,  // measure 38
0101
0000
0100
1000
0100
0001
0100
0000
,  // measure 39
1010
0000
0001
0100
1000
0010
0001
0000
,  // measure 40
0011
0000
0010
0100
1000
0000
1001
0000
,  // measure 41
0100
0010
0001
1100
,  // measure 42
0010
0001
0100
0101
,  // measure 43
0000
0100
0010
0110
,  // measure 44
0001
0010
1000
1010
,  // measure 45
0010
0100
0001
0011
,  // measure 46
0000
0001
1000
0001
,  // measure 47
0100
0010
1000
1000
,  // measure 48
1000
1000
0001
0001
,  // measure 49
0001
0001
0000
1001
,  // measure 50
0001
1000
0100
0000
0010
0000
0100
0000
,  // measure 51
1000
0100
0001
0000
0010
0001
0100
0000
,  // measure 52
1000
0100
0010
0100
1000
0000
0001
0000
,  // measure 53
0010
0000
0100
0010
0000
0220
0000
0330
,  // measure 54
0100
0001
1000
0000
0100
0000
0100
0010
,  // measure 55
0000
0010
0001
0000
1000
0001
0010
0000
,  // measure 56
1000
0010
0000
0100
0001
0000
0100
1000
,  // measure 57
0000
0000
0010
0001
0000
0220
0000
0000
,  // measure 58
0000
0000
0000
0330
1000
0000
0100
0000
,  // measure 59
1000
0000
0001
0010
0100
0000
0010
0000
,  // measure 60
0100
0000
0001
0100
0010
0000
1000
0000
,  // measure 61
0100
0000
0001
0100
1000
0000
0100
0000
,  // measure 62
0010
0001
0100
0010
,  // measure 63
1000
0000
0100
0001
0010
0000
0100
0000
,  // measure 64
0010
0000
0001
0100
1000
0000
0001
0000
,  // measure 65
0100
0000
0010
1000
0001
0000
0100
0000
,  // measure 66
0010
1000
2002
0000
,  // measure 67
0000
0000
0000
0000
,  // measure 68
0000
0000
3003
0000
;

//---------------dance-single - ----------------
#NOTES:
     dance-single:
     :
     Hard:
     9:
     :
// measure 0
0000
0000
0000
0000
,  // measure 1
0000
0000
0000
0000
,  // measure 2
0000
0000
0000
0000
,  // measure 3
0000
0000
0000
0000
,  // measure 4
0001
0010
0100
0010
0001
0000
1100
0000
,  // measure 5
0100
0010
1000
0001
1000
0100
1000
0000
,  // measure 6
0100
0010
0001
0010
0100
0100
1000
1000
,  // measure 7
0001
0001
0010
0002
0000
0200
0000
0303
,  // measure 8
1000
0010
0001
0010
1000
0000
0001
0000
,  // measure 9
0100
0010
1000
0011
0000
0110
0000
1100
,  // measure 10
0000
0100
0010
0000
1001
0000
0100
0010
,  // measure 11
0100
0001
0100
0010
1000
2020
0000
0000
,  // measure 12
0000
0000
0000
3030
1000
0100
1000
0010
,  // measure 13
0100
0001
0100
0010
0000
1000
0100
1000
,  // measure 14
0000
0001
0100
0001
0000
0010
0100
0010
,  // measure 15
0000
1000
0001
1000
0000
0022
0000
0000
,  // measure 16
0000
0000
0000
0000
0000
0000
0033
0000
2000
0000
0000
0100
0000
0000
0010
0000
,  // measure 17
3002
0000
0000
0000
0103
0000
0000
0000
0020
0000
0000
1000
0000
0100
0000
1000
,  // measure 18
0030
0000
0010
0000
1000
0000
0001
0000
0010
0000
0100
0000
0000
1000
0000
0000
,  // measure 19
0001
0001
0010
0100
0000
0202
0000
0000
,  // measure 20
0000
0000
0303
0110
,  // measure 21
1001
0000
1000
2000
0000
0000
3001
0002
,  // measure 22
0000
0000
0103
0200
0000
0000
0010
0000
,  // measure 23
0010
0000
0010
0000
0020
0000
0000
0330
,  // measure 24
0100
0001
0010
0001
1000
0000
0101
0000
,  // measure 25
0100
0010
1000
0100
1000
0001
0100
0000
,  // measure 26
1000
0001
1000
0100
0010
0000
0100
0000
,  // measure 27
0001
0000
1000
0100
0000
2200
0000
3300
,  // measure 28
0010
1000
0001
0100
0010
0000
1000
0010
,  // measure 29
0000
0010
0100
0010
1000
0001
0100
0000
,  // measure 30
0000
1010
0000
0010
0100
0001
1000
0100
,  // measure 31
0010
0100
0010
0001
0000
0022
0000
0000
,  // measure 32
0000
0000
0000
0000
0033
0100
1000
0010
,  // measure 33
0100
0001
0010
0001
0000
1000
0100
0010
,  // measure 34
0001
0010
0100
1000
0000
0100
0001
0100
,  // measure 35
1000
0100
0010
0100
0000
0010
0001
0100
,  // measure 36
0001
1000
0010
0100
0000
0100
0010
0001
,  // measure 37
1000
0010
1000
0100
1000
0010
0100
0010
,  // measure 38
0001
0010
0100
0010
1000
0001
0010
1000
,  // measure 39
0010
1000
0100
0001
0100
0010
0001
0100
,  // measure 40
1000
0100
0001
0010
0100
0000
1100
0000
,  // measure 41
0001
0000
0000
0010
0000
0001
0000
0000
0100
0000
0000
0000
0101
0000
0000
0000
,  // measure 42
0100
0000
0000
0010
0000
1000
0000
0000
0100
0000
0000
0000
1001
0000
0000
0000
,  // measure 43
0100
0000
0010
0000
0000
1000
0000
0000
0100
0000
0000
0000
1010
0000
0000
0000
,  // measure 44
1000
0001
0100
0001
0010
0000
0110
0000
,  // measure 45
0100
0000
0000
0010
0000
1000
0000
0000
0001
0000
0000
0000
0011
0000
0000
0000
,  // measure 46
0001
0000
0100
0000
0000
0010
0000
0000
1000
0000
0000
0000
0100
0000
0000
0000
,  // measure 47
0010
0001
0100
0010
2100
0000
0100
0000
,  // measure 48
0100
0100
0020
0000
,  // measure 49
0000
3030
0000
1001
,  // measure 50
0100
0010
1000
0010
0100
0000
0101
0000
,  // measure 51
1000
0010
0100
0001
0010
0001
1000
0000
,  // measure 52
0100
0010
0001
0010
1000
0000
0100
0000
,  // measure 53
0010
0000
0001
0100
0000
2200
0000
3300
,  // measure 54
0100
0010
1000
0001
0100
0000
1000
0001
,  // measure 55
0000
0010
0001
0010
1000
0010
0100
0000
,  // measure 56
0000
1010
0000
1000
0010
0100
1000
0010
,  // measure 57
0001
0100
0010
1000
0000
0022
0000
0000
,  // measure 58
0000
0000
0000
0033
1000
0001
0100
0001
,  // measure 59
0010
0100
1000
0100
0010
0001
0100
0010
,  // measure 60
0100
0001
0010
0001
0100
0010
1000
0100
,  // measure 61
1000
0010
0100
0001
0011
0000
1010
0000
,  // measure 62
1100
0000
0101
0000
0010
0001
0100
0010
,  // measure 63
0100
1000
0010
1000
0001
0100
0001
0010
,  // measure 64
0100
1000
0100
0010
0100
1000
0001
0100
,  // measure 65
0010
0100
0001
1000
1010
0000
0011
0000
,  // measure 66
0101
1100
0220
0000
,  // measure 67
0000
0000
0000
0000
,  // measure 68
0000
0000
0330
0000
;
