#TITLE:TRIP MACHINE 160;
#SUBTITLE:;
#ARTIST:DE-SIRE remixed by SPARKY Z;
#TITLETRANSLIT:;
#SUBTITLETRANSLIT:;
#ARTISTTRANSLIT:;
#CREDIT:;
#BANNER:TRIP MACHINE 160.png;
#BACKGROUND:TRIP MACHINE 160-bg.png;
#JACKET:TRIP MACHINE 160-jacket.png;
#LYRICSPATH:;
#CDTITLE:;
#MUSIC:TRIP MACHINE 160.mp3;
#OFFSET:0.000;
#SAMPLESTART:30.000;
#SAMPLELENGTH:19.500;
#SELECTABLE:YES;
#DISPLAYBPM:160.000;
#BPMS:0.000=160.060;
#STOPS:;
#BGCHANGES:;

//---------------dance-single - ----------------
#NOTES:
     dance-single:
     :
     Beginner:
     4:
     :
0000
0000
0000
0000
,
0000
0000
0000
0000
,
0000
0000
0000
0000
,
0000
0000
0000
0000
,
0000
0000
0100
0000
,
0100
0000
0100
0000
,
0100
0000
0100
0000
,
0000
0000
1001
0000
,
1000
0000
0000
0000
,
1000
0000
0000
0000
,
1000
0000
0000
0000
,
1000
0000
0000
0000
,
1001
1001
0000
0000
,
0001
0000
0000
1000
,
1000
0000
0000
0001
,
0001
0000
0000
0000
,
0010
0010
0000
0100
,
0100
0100
0100
0000
,
0010
0010
0000
0100
,
0100
0100
0100
0000
,
0001
0001
0000
1000
,
1000
1000
1000
0000
,
0010
0000
0010
0000
,
0100
0100
0100
0000
,
0001
0000
0000
0100
,
0010
0000
0000
0000
,
1000
0000
0001
0001
,
0001
0000
0000
0000
,
0100
0000
0010
0010
,
0010
0000
0000
0000
,
1000
0000
1000
1000
,
1000
0000
0000
0000
,
0001
0000
0000
0000
,
0001
0000
0000
0100
,
0100
0000
0000
0000
,
1000
0000
0001
0000
,
1000
0000
0001
0000
,
0100
0000
0000
0100
,
0100
0000
0001
0000
,
1000
0000
1000
0000
,
0010
0000
0000
0000
,
0110
0000
1001
0000
,
1000
0000
0110
0000
,
0000
0000
0000
0000
,
0010
0000
0010
0000
,
0000
0000
0000
0000
,
0100
0000
0100
0100
,
0000
0000
1001
0000
,
1000
0000
1000
0000
,
1000
0000
0100
0000
,
0001
0000
0001
0000
,
0001
0000
0010
0000
,
1000
0000
0001
0000
,
1000
0000
0001
0000
,
0001
0000
1000
0000
,
1000
0000
0001
0000
,
0001
0001
0001
0000
,
1000
1000
1000
0000
,
0001
0001
0001
0000
,
1000
1000
1000
0000
,
0010
0000
0100
0000
,
0010
0000
0100
0000
,
0001
0000
1000
0000
,
0001
0000
1000
0000
,
0001
0001
0000
0000
,
1000
1000
0000
0000
,
0001
0001
0000
0000
,
1000
1000
0000
0000
,
0001
0001
0001
0001
,
0001
0001
0001
0000
,
1000
1000
1000
1000
,
1000
1000
1000
0000
,
0010
0010
0010
0010
,
0010
0010
0010
0000
,
0100
0100
0100
0100
,
0100
0100
0100
0000
,
0010
0000
0000
0000
,
0001
0000
0000
0000
,
1000
0000
0000
0000
,
0100
0000
0000
0000
,
0010
0000
0000
0000
,
0001
0000
0000
0000
,
1000
0000
0000
0000
,
0010
0000
0000
0000
,
0001
0000
0000
1000
,
1000
0000
0000
0001
,
0001
0000
0000
1000
,
1000
0000
0000
0001
,
0001
0001
0000
0000
,
0000
0000
0000
0100
,
0100
0000
0000
0001
,
0001
0001
0001
0001
,
0001
0000
0000
0000
;

//---------------dance-single - ----------------
#NOTES:
     dance-single:
     :
     Easy:
     7:
     :
0000
0000
0000
0000
,
0000
0000
0000
0000
,
0000
0000
0000
0000
,
0000
0000
0000
0000
,
0000
0000
0100
0000
,
0100
0000
0100
0000
,
0100
0000
0100
0000
,
0000
0000
1001
0000
,
1000
0000
0010
0000
,
0001
0000
0010
0000
,
1000
0000
0010
0001
,
0001
0000
0010
1000
,
1000
0001
0010
0001
,
0001
1000
0010
1000
,
1000
0000
0001
0000
0010
0100
0001
0000
,
0001
0000
1000
0000
0010
0100
1000
0000
,
0001
0100
1000
0100
,
0000
0000
0001
0100
1000
0010
0000
0000
,
0010
1000
0100
0001
,
0000
0010
0000
0010
,
1000
0100
0001
0100
,
0000
0000
1000
0100
0001
0010
0000
0000
,
0010
0001
0100
1000
,
0000
0010
0000
0010
,
0001
0100
0001
1000
,
1001
0000
0100
0000
0010
0100
0010
0000
,
1000
0000
0001
0000
0010
0100
0010
0000
,
0010
0000
0001
0000
1000
0010
0001
0000
,
0110
1001
0100
1000
,
0001
0000
0100
0000
,
1000
0000
0010
0100
,
0001
1000
0100
0100
,
0001
0001
0001
0001
,
0001
0010
0000
0000
0000
0000
0001
0100
,
0000
0010
0001
0100
0000
0000
0000
0000
,
0000
0000
0100
0000
0000
0100
0000
0000
,
0010
0001
1000
0010
,
0100
0001
1000
0100
,
0000
0100
1000
0010
1000
0100
0000
0000
,
0000
0000
0100
0000
0000
0100
0000
0000
,
1000
0001
0100
0010
,
0110
0000
1001
0000
,
1100
0101
0110
0000
,
0000
0100
0000
0100
0000
0100
0000
0000
,
0010
0000
0010
0110
,
0000
1100
0000
0010
0000
0011
0000
0000
,
0100
1010
0100
0011
,
0110
0000
1001
0000
,
1000
0100
1000
0000
,
1000
0000
0011
0000
,
0001
0100
0001
0000
,
0001
0000
1010
0000
,
1000
0010
0001
0000
,
1000
0000
0101
0000
,
0001
0010
1000
0000
,
1000
0110
0001
0110
,
0100
0000
0000
0000
0000
0000
0100
1000
,
0001
0000
0000
0000
0000
0001
0100
0000
,
0000
0001
0001
0000
1000
0010
0100
0000
,
1001
0000
0000
0000
1000
0001
1000
0001
,
1000
0001
0000
1000
0000
0010
0000
0001
,
0000
0010
0000
1000
0000
0100
0000
1000
,
0000
0010
0000
0100
0000
0001
0000
0100
,
0000
0001
1000
1000
0000
0000
0000
1000
,
0100
0100
0000
0001
0000
0010
0000
1000
,
0000
0010
0000
0001
0000
0100
0000
0001
,
0000
0010
0000
0100
0000
1000
0000
0100
,
0000
1000
0001
0001
0000
1000
0000
0001
,
0010
0010
0001
0001
,
0100
0000
0100
0000
1000
0010
0001
0000
,
0100
0100
1000
1000
,
0010
0000
0010
0000
0001
0100
1000
0000
,
0010
0010
0001
0001
,
0100
0000
0100
0000
1000
0010
0001
0000
,
0100
0100
1000
1000
,
0010
0010
0001
0001
,
0010
0000
0000
0000
,
0001
1000
0100
0010
,
0000
0010
0001
0000
0100
0000
1000
0000
,
0110
1001
0000
0010
,
0001
0100
1000
0010
,
1000
0001
0100
0010
,
0000
0010
1000
0000
0100
0000
0001
0000
,
0110
1001
0100
0010
,
0001
0110
1000
0100
,
0010
0000
1001
0000
0000
0100
0000
1000
,
0001
0110
1000
0100
,
0000
0010
0000
1000
0000
0001
0000
0100
,
0001
0100
1000
0000
0010
0000
1000
0000
,
0100
0000
0010
0000
0000
0001
0000
0100
,
0010
0001
1000
0110
,
0001
0010
0100
1000
,
0010
0010
0000
0001
0001
0000
1000
1000
,
0000
0100
0100
0000
0000
0000
0000
0000
;

//---------------dance-single - ----------------
#NOTES:
     dance-single:
     :
     Medium:
     9:
     :
0000
0000
0000
0000
,
0000
0000
0000
0000
,
0000
0000
0000
0000
,
0000
0000
0000
0000
,
0000
0000
0100
0000
,
0100
0000
0100
0000
,
0100
0000
0100
0000
,
0000
0000
1001
0000
,
1000
0000
0010
0001
,
0001
0000
0010
1000
,
1000
0001
0010
0001
,
0001
1000
0010
1000
,
1000
0000
0001
0000
0010
0100
0001
0000
,
0001
0000
1000
0000
0010
0100
1000
0000
,
1000
0100
0001
0000
0010
0100
0001
0000
,
0001
0100
1000
0000
0010
0100
1000
0000
,
0001
0000
0100
0000
1000
0010
0001
0000
,
0000
0000
0001
0100
1000
0010
0001
0000
,
0010
1000
0100
0001
,
1000
0001
0100
0010
,
1000
0000
0100
0000
0001
0010
1000
0000
,
0000
0000
1000
0100
0001
0010
1000
0000
,
0010
0001
0100
1000
,
0001
1000
0100
0010
,
0101
0010
0100
1010
,
0001
0000
0010
0000
0100
0010
0001
0000
,
1000
0000
0010
0000
0100
0010
1000
0000
,
0010
0010
0100
0010
0000
0100
0010
0000
,
0011
1100
0101
0110
,
1001
0010
0001
1000
,
1001
1000
0001
0100
,
0001
1000
0100
0100
,
0010
0001
0100
1000
0100
0001
0010
0000
,
0001
0010
1000
0000
0000
0000
0001
0100
,
0000
1000
0001
0100
0000
0000
0000
0000
,
0010
0000
0100
0000
0000
0100
0000
0000
,
1000
0100
0010
1000
,
0001
0100
0010
0001
,
0000
0001
0100
0010
1000
0100
0000
0000
,
0000
0000
0100
0000
0000
0100
0000
0000
,
1000
0100
0010
0001
,
0000
0010
0100
0011
0000
0010
0100
1010
,
0000
0010
0100
0011
0000
0010
0100
1010
,
0000
1100
0000
0101
0000
0011
0000
1010
,
0100
0000
0110
0000
0010
0000
0001
1000
,
0000
1100
0000
0101
0000
0010
1000
0001
,
1100
0000
0101
0000
1100
0000
0100
0001
,
0010
1000
1100
0000
0010
0001
0101
0000
,
0000
0100
1000
0010
0100
0001
0000
0100
,
0000
0100
0001
0010
0000
0101
0000
1100
,
0100
0010
0001
0100
0010
1000
0000
0010
,
0000
0010
1000
0100
0000
1010
0100
0011
,
0010
0010
1000
0100
0010
0001
0000
0010
,
0000
0010
0001
0100
0000
0011
0000
1010
,
0010
0100
0001
0010
0100
0001
0000
0100
,
0000
0100
0001
0010
0100
1000
0100
0001
,
0100
0000
0001
0010
0000
0000
0100
1000
,
0001
0000
0000
0000
0001
0100
0001
1000
,
0000
0100
0100
0000
0010
0001
0100
0000
,
1001
0000
0000
0000
1000
0100
1000
0001
,
0000
0011
0000
0100
0000
0001
0000
1010
,
0000
0010
0000
1000
0000
0010
0000
1001
,
0000
0010
0000
0100
0000
0001
0000
0101
,
0000
0001
1000
1000
0000
0000
0000
0010
,
1000
0100
0000
0001
0000
0010
1000
0010
,
0000
1000
0001
0100
0000
0010
0000
1001
,
0000
0010
0100
0001
0000
1000
0001
0010
,
0000
1000
0001
0001
0000
0010
0000
1000
,
0010
0001
0100
1000
,
0010
0000
0001
0000
0100
1000
0010
0000
,
0001
0100
1000
0010
,
0001
0000
0100
0000
1000
0010
0001
0000
,
0100
1000
0010
0001
,
0100
0000
1000
0000
0010
0001
0100
0000
,
1000
0010
0001
0100
,
1000
0000
0010
0000
0001
0100
1000
0000
,
0010
0000
0000
0000
,
0001
1000
0100
0001
,
0000
0010
0001
0000
0100
0000
1000
0000
,
1100
0011
0000
0010
,
0001
0100
1000
0000
0001
0010
1000
0000
,
1000
0001
0100
1000
,
0000
0010
1000
0000
0100
0000
0001
0000
,
1100
0011
0100
0010
,
1100
0010
0001
0100
,
0010
0000
1001
0000
0000
0100
0000
0001
,
1000
0110
1000
0001
,
0000
1000
0100
0001
0000
1000
0000
0100
,
0001
0100
1000
0000
0010
0000
1100
0000
,
0010
0000
0001
0000
0000
0001
0000
0001
,
1000
0100
0101
0001
,
0011
0010
1010
1000
,
1000
0010
0000
0010
0001
0000
0001
0100
,
0000
0100
1000
0000
0000
0000
0000
0000
;

//---------------dance-single - ----------------
#NOTES:
     dance-single:
     :
     Hard:
     12:
     :
0000
0000
0000
0000
,
0000
0000
0000
0000
,
0000
0000
0000
0000
,
0000
0000
0000
0000
,
0000
0000
0100
0000
,
0100
0000
0100
0000
,
0100
0000
0100
0000
,
0000
0000
1001
0000
,
1000
0000
0000
0000
0010
0100
0001
0000
,
0001
0000
0000
0000
0010
0100
1000
0000
,
1000
0000
0001
0000
0010
0100
0001
0000
,
0001
0000
1000
0000
0010
0100
1000
0000
,
1000
0100
0001
0000
0010
0100
0001
0000
,
0001
0100
1000
0000
0010
0100
1000
0000
,
1000
0010
0001
0000
0010
0100
0001
0000
,
0001
0010
1000
0000
0010
0100
1000
0000
,
0001
0010
0100
0000
1000
0010
0001
0000
,
0000
0000
0001
0100
1000
0010
0001
0000
,
0010
1000
0100
0001
,
0001
0100
1000
0010
0001
0010
1000
0000
,
1000
0010
0100
0000
0001
0010
1000
0000
,
0000
0000
1000
0100
0001
0010
1000
0000
,
0010
0001
0100
1000
,
1000
0100
0001
0010
1000
0010
0001
0000
,
0101
0010
0100
1010
,
0001
0010
0100
0100
0100
0010
0001
0000
,
1000
0010
0100
0100
0100
0010
1000
0000
,
0010
0001
1000
0100
0000
0001
1000
0000
,
0101
1100
0011
1010
,
1001
0000
0010
0000
0001
0001
1000
1000
,
1001
0000
1000
1000
0001
0001
0100
0000
,
0001
0000
1000
0000
0100
0100
0100
0000
,
0010
0001
0010
0100
0010
1000
0010
0100
,
0001
0100
1000
0000
0000
0000
0001
1000
,
0000
0001
1000
0100
0000
0000
0000
0000
,
0010
0001
0001
0000
0000
0100
0000
0000
,
1000
0100
0010
1000
,
0001
0100
0010
0001
,
0000
0001
0100
0010
1000
0100
0000
0000
,
0000
0000
0100
0000
0000
0100
0000
0000
,
0001
0010
0100
1000
,
0001
0000
0100
1000
0100
0000
0010
0000
1000
0000
0100
0001
0100
0000
0010
0000
,
0001
0000
0010
1000
0010
0000
0100
0000
1000
0100
0001
0000
0100
0000
1001
0000
,
0000
1010
0000
1100
0000
0101
0000
0011
,
1000
0010
1000
0000
0101
0000
0100
1000
,
0000
0011
0000
1010
0000
0100
0001
1000
,
0110
0000
0011
0000
1010
0000
0110
1001
,
0100
0000
1000
0000
0010
0001
0010
0000
0100
0000
0001
0000
0010
1000
0010
0000
,
0100
0000
0001
0000
1000
0100
0010
0000
0100
0000
1000
0000
0001
0100
0010
0000
,
0100
0000
0100
0000
0010
0001
1000
0000
0000
0000
0001
0000
0100
0000
0010
0000
,
0100
0000
1000
0000
0001
0100
0010
0000
0100
0000
0001
1000
0010
0000
0100
0000
,
0010
0000
0010
0000
0001
1000
0001
0000
0000
0000
1100
0000
0101
0000
1001
0000
,
0010
0000
0001
0000
1000
0010
0100
0000
0010
0000
1000
0000
0001
0010
0100
0000
,
0010
0000
0010
0000
0100
0001
1000
0000
0000
0000
0001
0000
0010
0000
0100
0000
,
0010
0000
1000
0000
0001
0010
0100
0000
0010
0000
1001
0000
0110
0000
0000
0000
,
1100
0000
0011
0000
0100
0010
1000
0000
0100
0010
0001
0000
0100
0010
0100
0000
,
0010
0000
0000
0010
,
0100
0000
0000
0000
0001
1000
0001
1000
,
0000
0000
0100
0100
,
0010
0000
0000
0000
1000
0001
1000
0001
,
0010
1000
0001
0000
0001
0100
1000
0000
,
0010
0001
1000
0000
1000
0100
0001
0000
,
0010
1000
0100
0000
0001
0100
0001
0000
,
0000
0001
1000
1000
0000
0001
0000
1000
,
0000
0010
0001
1000
0000
1000
0100
0001
,
0000
0010
1000
0001
0000
0001
0100
1000
,
0000
0010
0001
0100
0000
1000
0100
1000
,
0000
1000
0001
0001
0000
1000
0000
0001
,
0010
0001
0100
1000
,
0010
0000
0001
0000
0100
0001
0010
0000
,
0001
0100
1000
0010
,
0001
0000
0100
0000
1000
0100
0001
0000
,
0100
1000
0010
0001
,
0100
0000
1000
0000
0010
1000
0100
0000
,
1000
0010
0001
0100
,
1000
0000
0010
0000
0001
0010
1000
0000
,
0010
0000
0000
0000
,
0011
1000
0100
0100
,
0000
1010
1000
0000
0100
0000
1000
0000
,
1100
0011
0000
0010
,
0001
0100
1000
0000
0001
0010
1000
0000
,
1010
1000
0001
0010
0100
0001
0100
1000
,
0000
0011
0001
0000
0100
0000
0001
0000
,
1100
0011
0100
0010
,
0110
0001
1100
0001
,
0010
0000
0001
0000
0000
0100
0000
0001
,
1000
1000
0001
0010
,
0000
1000
0100
0001
0010
1000
0000
0001
,
0100
0001
0010
0000
0100
0000
1001
0000
,
0011
0000
1010
0000
0000
0001
0000
0010
,
1000
0001
0101
0010
,
0011
1000
1010
0100
,
1000
0010
0000
0100
1000
0000
0001
0100
,
0000
0010
0001
0000
0000
0000
0000
0000
;

//---------------dance-single - ----------------
#NOTES:
     dance-single:
     :
     Challenge:
     13:
     :
// measure 1
0000
0000
0000
0000
,  // measure 2
0000
0000
0000
0000
,  // measure 3
0000
0000
0000
0000
,  // measure 4
0000
0000
0000
0000
,  // measure 5
0000
0000
0101
0000
,  // measure 6
1010
0000
0011
0000
,  // measure 7
1100
0000
0110
0000
,  // measure 8
0000
0000
1001
0000
,  // measure 9
0010
1000
0000
0001
1000
0100
0000
0010
,  // measure 10
0001
0100
0001
1000
0000
1000
0100
0000
,  // measure 11
0001
0100
0000
1100
0000
0101
0000
0100
,  // measure 12
0010
1000
0100
1000
0000
0001
0010
0100
,  // measure 13
1000
0001
0000
1000
0001
1000
0000
0001
,  // measure 14
0100
0010
0000
1010
0000
0011
0000
0010
,  // measure 15
0100
1000
0000
1000
0010
1000
0001
1000
,  // measure 16
0100
0000
0001
0010
0100
1000
0010
0100
,  // measure 17
0010
1000
0100
1000
0001
0100
0001
1000
,  // measure 18
0100
1000
0001
0100
0001
0010
0100
1000
,  // measure 19
1000
0010
0100
0001
0100
0010
0100
1000
,  // measure 20
0100
0010
1000
0001
0100
0001
0010
0001
,  // measure 21
1000
0100
0010
0001
0010
0100
0010
0001
,  // measure 22
1000
0010
1000
0100
1000
0010
1000
0001
,  // measure 23
0100
0001
1000
0001
0010
0100
1000
0010
,  // measure 24
0100
0001
0001
1000
1000
0010
0010
0100
,  // measure 25
0100
0000
0100
0000
0100
0000
0100
0001
,  // measure 26
1000
0000
0010
1000
0000
0001
1000
0001
,  // measure 27
0100
0000
0010
1000
0001
0100
0001
0010
,  // measure 28
0100
0000
0100
0010
0000
0001
1000
0000
,  // measure 29
0010
1010
0000
1001
0000
1100
0000
0011
,  // measure 30
0101
0000
0001
1000
0000
1000
0100
0010
,  // measure 31
0110
0000
0000
0001
0100
0010
0100
0001
,  // measure 32
1000
0000
1000
0100
0000
0001
0100
0000
,  // measure 33
0010
0010
0010
0100
0001
1000
0001
0010
,  // measure 34
0001
0100
0000
0010
0000
1000
0000
0001
,  // measure 35
0000
0100
0010
0001
0000
1000
0010
0100
,  // measure 36
0010
0000
1001
0000
0000
0110
0000
0000
,  // measure 37
0000
0100
0010
0001
0010
1000
0010
0001
,  // measure 38
0000
0100
0001
0000
1000
0010
0000
0000
,  // measure 39
0100
1000
1000
0010
0100
0010
0000
0001
,  // measure 40
1000
0100
1000
0010
0000
0011
0000
0000
,  // measure 41
0001
0000
0100
0010
0000
0100
0010
1000
0010
0100
0010
0000
0001
0000
1000
0000
,  // measure 42
0011
0000
0001
1000
1010
0000
0001
0100
,  // measure 43
0010
1100
0000
0101
0000
1100
0000
0101
,  // measure 44
0000
0011
0000
1010
0000
0011
0000
1010
,  // measure 45
0001
0000
0100
0000
0010
0010
1000
0001
,  // measure 46
0000
0100
0000
0001
0000
1000
0100
0010
,  // measure 47
0001
0000
0010
0000
0010
0000
1000
0100
,  // measure 48
0000
0100
0001
0010
0001
1000
0010
0100
,  // measure 49
0001
1000
0001
0000
0010
0000
0100
0000
0010
0000
1000
0000
0000
0000
0110
0000
,  // measure 50
0000
0001
0100
0010
0000
0010
0100
1000
,  // measure 51
0100
1000
0100
0000
0001
0000
1000
0000
0001
0000
0100
0000
0000
0000
1100
0000
,  // measure 52
0000
0100
0001
1000
0000
1000
0100
0001
,  // measure 53
0010
0001
0010
0000
0100
0000
1000
0000
0001
0000
1000
0000
0000
0000
0101
0000
,  // measure 54
0000
0100
0010
0001
0000
1000
0100
0010
,  // measure 55
0100
0010
0100
0000
0001
0000
1000
0000
0100
0000
1000
0000
0000
0000
1001
0000
,  // measure 56
0000
0100
0010
0001
1000
0001
0100
0001
,  // measure 57
0011
0000
1000
0010
0100
0000
0001
0100
,  // measure 58
0000
0100
0001
0000
0001
0100
1000
0000
,  // measure 59
1100
0000
0100
1000
0001
0000
0010
0100
,  // measure 60
0000
0100
0010
0000
0001
1000
0010
1000
,  // measure 61
0110
0001
0100
0010
0100
0001
1000
0010
,  // measure 62
1010
0010
0100
0001
0100
1000
0100
0010
,  // measure 63
1001
0100
0001
0010
0001
1000
0010
1000
,  // measure 64
0101
0001
0010
0100
0000
1000
0100
0010
,  // measure 65
0011
1000
0010
1000
0100
0010
0100
1000
,  // measure 66
1100
0001
0100
0001
1000
0010
0100
0010
,  // measure 67
0101
0001
0100
1000
0001
1000
0100
1000
,  // measure 68
1010
0010
0100
0010
0110
0000
1001
0000
,  // measure 69
0001
1000
0001
1000
0001
0000
0100
0000
,  // measure 70
0001
1010
1001
1100
,  // measure 71
1000
0001
1000
0001
1000
0000
0100
0000
,  // measure 72
1000
0000
0001
0000
0100
0100
0100
0100
,  // measure 73
0100
0010
0100
0010
0100
0000
0001
0000
,  // measure 74
1000
0011
1001
0101
,  // measure 75
0001
0100
0010
1000
0100
0000
1000
0000
,  // measure 76
0100
0010
0001
1000
,  // measure 77
0110
0000
0000
0000
,  // measure 78
0100
0010
1000
0010
0000
0001
0100
0010
,  // measure 79
0100
0001
0000
1000
0100
0001
0000
0001
,  // measure 80
0010
0100
0000
0011
0000
1010
0000
0100
,  // measure 81
0010
1000
0010
0000
0001
0100
0010
1000
,  // measure 82
0100
0000
0100
0010
0000
0001
0010
0001
,  // measure 83
1000
0001
0100
0001
0000
0010
0000
0100
,  // measure 84
0000
1000
0001
0000
0110
0000
1001
0000
,  // measure 85
0110
0010
1000
0100
0010
0100
1000
0001
,  // measure 86
0100
0001
0010
0001
0000
1001
0000
1000
,  // measure 87
0100
1000
0001
0010
0001
0100
0010
1000
,  // measure 88
0100
0011
0000
0101
0000
1001
0000
1010
,  // measure 89
0000
1100
0010
0100
0001
1000
0100
1000
,  // measure 90
0001
0100
0001
0010
0000
0110
0000
0100
,  // measure 91
1000
0010
1000
0100
1000
0010
0100
0001
,  // measure 92
0100
1000
0100
0001
0010
1000
0010
0001
,  // measure 93
0100
0100
0000
0010
0010
0000
1000
1000
,  // measure 94
0000
0001
0001
0000
0000
0000
0000
0000
;
