#TITLE:Silent Hill;
#SUBTITLE:(3rd Christmas Mix);
#ARTIST:THOMAS HOWARD;
#TITLETRANSLIT:;
#SUBTITLETRANSLIT:;
#ARTISTTRANSLIT:;
#GENRE:;
#CREDIT:;
#BANNER:Silent Hill (3rd Christmas Mix).png;
#BACKGROUND:Silent Hill (3rd Christmas Mix)-bg.png;
#LYRICSPATH:;
#CDTITLE:CD_DDRM2.png;
#MUSIC:Silent Hill (3rd Christmas Mix).ogg;
#OFFSET:0.000000;
#SAMPLESTART:62.880001;
#SAMPLELENGTH:15.000000;
#SELECTABLE:YES;
#DISPLAYBPM:125.000000;
#BPMS:0.000000=124.999992;
#STOPS:;
#BGCHANGES:;
#KEYSOUNDS:;
#ATTACKS:;

//---------------dance-single - ----------------
#NOTES:
     dance-single:
     :
     Beginner:
     2:
     :
// measure 0
0000
0000
0000
0000
,  // measure 1
0001
0000
1000
0000
,  // measure 2
0020
0000
0000
0000
,  // measure 3
0031
0000
1000
0000
,  // measure 4
0200
0000
0000
0000
,  // measure 5
0301
0000
1000
0000
,  // measure 6
0020
0000
0000
0000
,  // measure 7
0031
0000
1000
0000
,  // measure 8
0200
0000
0000
0000
,  // measure 9
0310
0000
0001
0000
,  // measure 10
0010
0000
0000
0001
,  // measure 11
1000
0000
0100
0000
,  // measure 12
1000
0000
0000
0100
,  // measure 13
0001
0000
1000
0000
,  // measure 14
0001
0000
0000
1000
,  // measure 15
0100
0000
0010
0000
,  // measure 16
0100
0000
0000
0010
,  // measure 17
0220
0000
0000
0000
,  // measure 18
0000
0000
0000
0330
,  // measure 19
0010
0000
1000
0000
,  // measure 20
0001
0000
0100
0000
,  // measure 21
1000
0000
0100
0000
,  // measure 22
0010
0000
0001
0000
,  // measure 23
1000
0000
0001
0000
,  // measure 24
0100
0000
0010
0000
,  // measure 25
2000
0000
0100
0010
,  // measure 26
3002
0000
0010
0000
,  // measure 27
0203
0000
0001
1000
,  // measure 28
0320
0000
0000
0100
,  // measure 29
0130
0000
0001
0010
,  // measure 30
0100
0000
1000
0000
,  // measure 31
0010
0000
0100
0001
,  // measure 32
0020
0000
0000
0001
,  // measure 33
0032
0000
0003
0000
,  // measure 34
2000
0000
3000
0000
,  // measure 35
0020
0000
0030
0000
,  // measure 36
0200
0000
0300
0000
,  // measure 37
2000
0000
0001
0000
,  // measure 38
0010
0000
0100
0000
,  // measure 39
3100
0000
0001
0000
,  // measure 40
1000
0000
0010
0000
,  // measure 41
2000
0000
3000
0000
,  // measure 42
0002
0000
0003
0000
,  // measure 43
0020
0000
0030
0000
,  // measure 44
0200
0000
0300
0000
,  // measure 45
0002
0000
0100
0000
,  // measure 46
0010
0000
1003
0000
,  // measure 47
2000
0000
0100
0000
,  // measure 48
0010
0000
3001
0000
,  // measure 49
0000
0220
0000
0300
,  // measure 50
0030
0000
0000
0000
;

//---------------dance-single - ----------------
#NOTES:
     dance-single:
     :
     Easy:
     3:
     :
// measure 0
0000
0000
0000
0000
,  // measure 1
0022
0033
2200
0000
,  // measure 2
0000
0000
0000
3300
,  // measure 3
2020
3030
0202
0303
,  // measure 4
2002
0000
0000
3003
,  // measure 5
0022
0033
2200
0000
,  // measure 6
0000
0000
0000
3300
,  // measure 7
2020
3030
0202
0303
,  // measure 8
0220
0000
0000
0330
,  // measure 9
1000
0010
1000
0001
,  // measure 10
0200
0000
0310
0001
,  // measure 11
0200
0000
0320
0000
,  // measure 12
0000
0000
0000
0130
,  // measure 13
0001
0010
0100
1000
,  // measure 14
0200
0000
0000
0301
,  // measure 15
0002
0000
1000
0010
,  // measure 16
0103
0100
0100
0100
,  // measure 17
0220
0000
0000
0330
,  // measure 18
2002
0000
0000
3003
,  // measure 19
1000
0010
1000
0010
,  // measure 20
1000
0100
0010
0001
,  // measure 21
1000
1000
1000
0010
,  // measure 22
0100
0100
0001
0001
,  // measure 23
0001
0010
1000
0010
,  // measure 24
0002
0000
0100
0010
,  // measure 25
1003
0010
0001
0010
,  // measure 26
2000
0000
3020
0000
,  // measure 27
0230
0000
0301
0010
,  // measure 28
0100
0010
0002
0000
,  // measure 29
0103
0010
0100
0001
,  // measure 30
0100
0010
0100
1000
,  // measure 31
1000
0100
0010
0001
,  // measure 32
0100
0010
0100
1000
,  // measure 33
0001
0001
0002
0000
,  // measure 34
1003
1000
2000
0000
,  // measure 35
3010
0010
0020
0000
,  // measure 36
0000
0130
0100
0100
,  // measure 37
1000
0100
0001
0010
,  // measure 38
0001
0100
1000
0001
,  // measure 39
1000
0100
0010
0001
,  // measure 40
0020
0000
1030
0001
,  // measure 41
1000
0010
0100
0010
,  // measure 42
1000
0100
0001
0100
,  // measure 43
1000
0100
0010
0001
,  // measure 44
0001
0010
1000
0010
,  // measure 45
0001
0100
1000
0100
,  // measure 46
0010
0002
2000
0003
,  // measure 47
3010
0001
0100
1000
,  // measure 48
0100
0020
0200
0000
,  // measure 49
0330
0220
0000
0300
,  // measure 50
0030
0000
0000
0000
;

//---------------dance-single - ----------------
#NOTES:
     dance-single:
     :
     Medium:
     5:
     :
// measure 0
0000
0000
0000
0000
,  // measure 1
0012
1003
2100
0001
,  // measure 2
0100
0010
0001
3010
,  // measure 3
1020
0130
0201
1000
,  // measure 4
0020
0000
0000
0330
,  // measure 5
0021
0031
0102
0010
,  // measure 6
1000
0100
1000
0013
,  // measure 7
2010
3010
1200
0001
,  // measure 8
2000
0000
0000
3300
,  // measure 9
0010
0000
0001
0100
0010
0000
1000
0000
,  // measure 10
0200
0000
0000
0310
,  // measure 11
0012
0000
2000
0000
,  // measure 12
0000
0000
3000
0103
,  // measure 13
0010
0000
1000
0100
0010
0000
0001
0000
,  // measure 14
0200
0000
0000
0310
,  // measure 15
2010
0000
0000
0002
0000
0000
0000
0000
,  // measure 16
0000
0000
0003
3100
,  // measure 17
0202
0000
0300
0020
0000
0000
0033
0000
,  // measure 18
2200
0000
0300
0020
0000
0030
3001
0000
,  // measure 19
0100
0000
1000
0020
0000
0000
0100
0000
,  // measure 20
1000
0001
1000
0130
,  // measure 21
1002
0010
0103
0010
,  // measure 22
0022
0033
2020
3030
,  // measure 23
0200
1000
0010
0001
,  // measure 24
0320
0000
0000
2030
0000
0100
0100
0100
,  // measure 25
3020
0031
0200
0301
,  // measure 26
2000
3100
0200
0310
,  // measure 27
0020
0000
0031
0000
0002
0000
0103
0010
,  // measure 28
1000
0000
0002
0020
0000
0003
0031
0000
,  // measure 29
0200
1000
0010
0301
,  // measure 30
0002
0010
1000
0103
,  // measure 31
2000
0000
0001
0000
0010
0000
3100
0010
,  // measure 32
0001
0000
2000
0020
0000
3000
0130
0000
,  // measure 33
0102
0000
0000
0010
0000
0000
1003
0000
,  // measure 34
2100
0000
0000
0010
0000
0000
3100
0000
,  // measure 35
0210
0000
0000
0001
0000
0000
0010
0000
,  // measure 36
1000
0010
0001
0310
,  // measure 37
2100
0010
0001
0010
,  // measure 38
0100
0100
0001
3001
,  // measure 39
0020
0100
0001
1000
,  // measure 40
0130
0000
0000
1001
0000
0000
0010
0100
,  // measure 41
0002
1000
0100
0010
,  // measure 42
0203
0010
1000
0001
,  // measure 43
0320
0001
0100
1000
,  // measure 44
2030
0001
0001
0100
,  // measure 45
3020
0000
0230
0000
,  // measure 46
0302
0000
2003
0000
,  // measure 47
3010
0001
0100
0010
,  // measure 48
1000
0001
2000
0002
0000
0000
0000
0000
,  // measure 49
3003
0220
0000
0300
,  // measure 50
0030
0000
0000
0000
;

//---------------dance-single - ----------------
#NOTES:
     dance-single:
     :
     Hard:
     9:
     :
// measure 0
0000
0000
0000
0000
,  // measure 1
0001
0010
0001
0100
1000
0010
1000
0100
,  // measure 2
0012
0010
0010
0010
,  // measure 3
1003
0010
0100
0001
0001
0010
0100
1000
,  // measure 4
2020
0000
0000
0000
0000
0000
0000
3030
,  // measure 5
0010
1000
0010
0100
0010
0001
0010
0100
,  // measure 6
0120
0100
0100
0100
,  // measure 7
0130
0001
0010
0001
1000
0010
1000
0100
,  // measure 8
2002
0000
0000
0000
0000
0000
0000
3003
,  // measure 9
0020
0000
0130
0001
1000
0000
1000
0020
,  // measure 10
0000
0230
0000
0301
1000
0100
0010
0001
,  // measure 11
0010
0100
0000
0200
2000
0000
0000
3300
,  // measure 12
0010
0002
0000
1003
0001
0100
0010
1000
,  // measure 13
0020
0000
0031
0010
0200
0000
0310
2000
,  // measure 14
0000
0001
0000
0100
3010
0100
0001
0010
,  // measure 15
0220
0000
0330
1010
0000
0011
0000
1002
,  // measure 16
1000
0100
1000
0013
,  // measure 17
0012
0000
0010
0020
0000
0000
0000
0033
,  // measure 18
2010
0000
0010
0020
0000
0030
0100
0000
,  // measure 19
3002
0013
0001
0100
0020
1030
0100
0001
,  // measure 20
0200
1300
0020
0130
,  // measure 21
2000
3100
0010
0001
0020
0130
1000
0000
,  // measure 22
0020
1030
0002
1003
,  // measure 23
0200
0310
1000
0010
0200
0310
0001
0010
,  // measure 24
0200
0000
0310
0002
0000
1000
0100
1000
,  // measure 25
0013
0100
0001
1000
0200
0000
0320
0000
,  // measure 26
0031
0000
1000
0020
0000
0001
0001
0001
,  // measure 27
0230
0000
0301
0000
2000
0000
3010
0100
,  // measure 28
0010
1000
0002
0020
0000
0003
0031
0000
,  // measure 29
0200
0310
2000
3100
,  // measure 30
0002
1003
0020
0130
,  // measure 31
0200
0000
0310
0000
0002
0000
0013
1000
,  // measure 32
0001
0100
0001
0020
0000
0000
0130
0000
,  // measure 33
1000
0100
1000
0002
0000
0003
0101
0000
,  // measure 34
0010
0001
1000
0200
0000
0300
1100
0000
,  // measure 35
0010
1000
0100
0002
0000
0003
1001
0000
,  // measure 36
2000
3200
0320
0032
,  // measure 37
0023
0100
1000
0100
,  // measure 38
0032
1000
0203
0010
,  // measure 39
0301
0000
1000
1000
0001
0001
0010
0010
,  // measure 40
0200
0000
0310
0012
0000
1003
1010
0010
,  // measure 41
0200
0000
0301
0010
0002
0000
1003
0100
,  // measure 42
2000
0000
3001
0100
0002
0000
1003
0010
,  // measure 43
2000
0000
3100
0010
0002
0000
0013
0100
,  // measure 44
2000
0000
3010
0100
0002
0000
0103
0010
,  // measure 45
2000
0000
3100
0001
0020
0000
0000
0130
,  // measure 46
1000
0100
0001
0200
0000
0000
0000
0310
,  // measure 47
1000
0100
1000
0001
1000
0020
0000
0130
,  // measure 48
0001
1000
0200
0020
0000
0000
0000
0000
,  // measure 49
0000
0330
2002
0000
0000
3003
2200
3300
,  // measure 50
0022
0033
0000
0000
0000
0000
0000
0000
;

//---------------dance-single - ----------------
#NOTES:
     dance-single:
     :
     Challenge:
     8:
     :
// measure 0
0000
0000
0000
0000
,  // measure 1
0000
0000
0000
0000
,  // measure 2
0000
0000
0000
0000
,  // measure 3
0000
0000
0000
0000
,  // measure 4
0020
0000
0000
0030
,  // measure 5
1000
0001
0100
0001
1000
0100
1000
0010
,  // measure 6
0100
0100
0001
0001
1000
1000
0010
0010
,  // measure 7
1000
0001
0010
0100
1000
0100
0010
0001
,  // measure 8
0010
1000
0010
0001
1000
0010
1001
0000
,  // measure 9
0020
2030
3002
0203
,  // measure 10
0320
0230
0302
2003
,  // measure 11
3020
0032
0203
0302
,  // measure 12
0023
2030
3200
2300
,  // measure 13
3020
2030
3020
0230
,  // measure 14
0302
2003
3002
0023
,  // measure 15
0230
2300
3200
0302
,  // measure 16
0203
2300
3002
2003
,  // measure 17
0002
0000
0000
0003
,  // measure 18
0020
0000
0000
3030
,  // measure 19
0102
0100
0100
0103
,  // measure 20
2010
0010
0010
3010
,  // measure 21
0010
1000
0100
0000
0010
1000
0010
0000
,  // measure 22
0010
0001
0100
0000
0010
0001
0010
0000
,  // measure 23
1001
0000
0110
0000
1000
0001
0100
0010
,  // measure 24
0100
1010
0101
0110
,  // measure 25
2001
0001
0001
0001
0001
0000
3001
0000
,  // measure 26
0120
0100
0100
0100
0100
0000
0130
0000
,  // measure 27
1002
1000
1003
0000
0210
0010
0310
0000
,  // measure 28
0001
0100
1000
0100
0001
0010
1000
0010
,  // measure 29
0002
1000
1000
0003
,  // measure 30
0200
0001
0001
0300
,  // measure 31
0020
0100
0100
0030
,  // measure 32
2000
0010
0010
3010
,  // measure 33
0010
1000
0100
0001
0100
1000
0010
0000
,  // measure 34
0010
0001
0100
1000
0100
0001
0010
0000
,  // measure 35
1000
0100
0001
0100
0001
0100
1000
0100
,  // measure 36
1000
0001
0100
0010
,  // measure 37
0100
0001
0010
0000
0100
1000
0100
0000
,  // measure 38
0010
1000
0100
0010
0001
1000
0010
0000
,  // measure 39
0001
1000
0100
0000
0010
0100
0001
0000
,  // measure 40
0001
0010
0100
1000
0001
0010
0100
1000
,  // measure 41
0002
0100
0100
0103
,  // measure 42
2000
0100
0100
3100
,  // measure 43
0010
1000
0100
0010
0001
0100
0010
0100
,  // measure 44
2002
0000
0000
3003
,  // measure 45
0101
0000
1010
0000
0100
0001
0010
0000
,  // measure 46
1100
0000
0011
0000
0100
1000
0001
0000
,  // measure 47
0010
1000
0100
0010
0001
0010
1000
0010
,  // measure 48
0001
1000
0100
0001
0100
1000
0001
0200
,  // measure 49
0000
0020
0000
0030
,  // measure 50
0300
0000
0000
0000
;
