#TITLE:Shut Up + Dance;
#SUBTITLE:;
#ARTIST:Walk The Moon;
#TITLETRANSLIT:;
#SUBTITLETRANSLIT:;
#ARTISTTRANSLIT:;
#CREDIT:;
#BANNER:Shut Up + Dance.png;
#BACKGROUND:Shut Up + Dance-bg.png;
#JACKET:Shut Up + Dance-jacket.png;
#LYRICSPATH:;
#CDTITLE:;
#MUSIC:Shut Up + Dance.mp3;
#OFFSET:-0.013;
#SAMPLESTART:41.410;
#SAMPLELENGTH:22.500;
#SELECTABLE:YES;
#DISPLAYBPM:128.000;
#BPMS:0.000=128.020;
#STOPS:251.500=1.420;
#BGCHANGES:;

//---------------dance-single - ----------------
#NOTES:
     dance-single:
     :
     Beginner:
     3:
     :
0000
0000
0000
0000
,
0000
0000
0000
0000
,
0100
0000
0000
0000
,
0001
0000
0000
0000
,
1000
0000
0000
0000
,
0020
0000
0000
0000
,
1030
0000
0000
0000
,
0100
0000
0000
0000
,
0010
0000
0000
0000
,
0002
0000
0000
0000
,
0103
0000
0010
0000
,
0000
0001
0100
0000
,
1000
0000
0001
0000
,
0000
0010
0001
1000
,
0100
0000
1000
0000
,
0000
1000
0100
0000
,
0001
0000
0010
0000
,
0000
0010
0001
1000
,
0100
0000
0001
0000
,
0000
1000
0001
0000
,
0100
0000
0001
0000
,
0000
0001
0010
0100
,
0000
1000
0000
0110
,
0000
0010
0000
0001
,
0000
1000
0000
0001
,
0020
0000
0000
0000
,
0130
0000
0000
0000
,
0001
0000
0000
0000
,
1000
0000
0000
0000
,
0020
0000
0000
0000
,
1030
0000
0000
0000
,
0001
0000
0000
0000
,
0010
0000
0000
0000
,
0200
0000
0000
0000
,
0020
0000
0000
0000
,
0000
0000
0000
0330
,
0001
0000
0000
0000
,
0100
0000
0001
0000
,
1000
0000
0000
0000
,
0010
0000
0100
0000
,
0010
0000
0000
0000
,
0100
0000
0000
0000
,
0001
0000
0000
1000
,
0000
0010
0100
0010
,
0000
1000
0000
1001
,
0000
0001
0000
0100
,
0000
0010
0000
1000
,
0000
0100
0000
1000
,
0000
0001
0000
0110
,
0000
1000
0000
0010
,
0000
1000
0000
0001
,
0020
0000
0000
0000
,
1030
0000
0000
0000
,
0100
0000
0000
0000
,
0010
0000
0000
0000
,
0001
0000
0000
0000
,
1000
0000
0000
0000
,
0010
0000
0000
0000
,
0100
0000
0000
0000
,
0002
0000
0000
0000
,
0013
0000
0000
0000
,
0100
0000
0000
0000
,
2000
0000
0000
0000
,
3001
0010
0000
0000
,
0000
0100
0000
0000
,
0000
0010
0000
0000
,
0000
2000
0000
0000
,
0000
3100
0000
0000
,
0000
0010
0000
0000
,
0000
0001
0000
0000
,
0000
0200
0000
0000
,
0000
0020
0000
0000
,
0000
0000
0000
0000
,
0000
0330
0000
0000
;

//---------------dance-single - ----------------
#NOTES:
     dance-single:
     :
     Easy:
     5:
     :
0000
0000
0000
0000
,
0000
0000
0000
0000
,
0001
0000
0100
0000
,
0010
0000
1000
0000
,
0001
0000
0100
0000
,
0001
0010
0100
1000
,
0010
0000
0001
0000
,
1000
0000
0001
0000
,
0100
0000
0010
0000
,
1000
0100
0010
0001
,
1100
0000
0101
0000
,
0000
0001
1001
1000
,
0011
0000
1010
0000
,
0000
0010
0110
0001
,
1000
0010
1000
0001
,
0100
0000
0010
0001
,
0010
1000
0001
0100
,
0010
0000
0001
0010
,
0100
1000
0100
0010
,
0001
0000
0100
0001
,
0100
1000
0001
0000
,
0100
0000
0010
0000
0001
0000
1000
1000
,
0000
1000
0001
0110
,
0000
0010
0001
1000
,
0000
0100
1000
0001
,
0020
0000
0000
0031
,
1000
0100
1000
0000
,
0001
0100
0010
0000
,
0010
1000
0100
0000
,
0001
0010
0100
1000
,
0100
0001
0100
0010
,
1000
0100
0001
0000
,
0001
1000
0010
0000
,
1000
0100
0010
0001
,
2002
0000
0000
0000
,
3000
0010
1000
0103
,
2000
0000
0000
0000
,
3001
0010
0100
0010
,
0002
0000
0100
0000
,
1003
0100
0020
0000
,
1030
1000
0010
0010
,
0100
0100
0002
0000
,
0103
0000
0000
0001
0000
0000
0010
0000
,
0000
0000
1000
0000
0100
0000
0001
0001
,
0000
0010
1000
1001
,
0000
0100
0001
0010
,
0000
0001
1000
0100
,
0000
1000
0001
0010
,
0000
1000
0010
0110
,
0000
0100
0010
0001
,
0000
0001
0010
0100
,
2000
0000
0000
0000
,
3001
0001
0001
0001
,
1000
0001
1000
0001
,
1000
1000
1000
1000
,
0001
1000
0001
1000
,
0010
0010
0010
0010
,
0100
0010
0100
0010
,
0100
0100
0100
0100
,
0010
0100
0010
0100
,
0001
0010
0100
1000
,
0100
0010
0001
1000
,
0010
0010
1000
0001
,
1001
1000
0010
0001
,
0010
1000
0001
1000
,
0010
0100
0001
0100
,
0010
2001
0010
0100
,
0010
3001
0100
1000
,
0010
1000
0100
0001
,
0100
0220
0000
0000
,
0330
0010
0100
0001
,
1000
0000
0200
0000
0000
0302
0000
0000
,
2003
0000
3020
0130
,
0110
0000
0000
0000
;

//---------------dance-single - ----------------
#NOTES:
     dance-single:
     :
     Medium:
     8:
     :
// measure 1
0000
0000
0000
0000
,  // measure 2
0000
0000
0000
0000
0000
0000
0100
1000
,  // measure 3
0001
0000
0100
0000
0001
0000
1000
0100
,  // measure 4
0010
0000
0001
0000
0010
0000
1000
0100
,  // measure 5
0001
0000
1000
0000
0100
0000
1000
0010
,  // measure 6
0100
0010
0001
0010
,  // measure 7
0100
0000
1000
0000
0001
0000
0100
0010
,  // measure 8
1000
0100
0001
0100
,  // measure 9
1000
0000
0100
0000
0010
0000
0001
1000
,  // measure 10
0010
0100
1000
0001
,  // measure 11
0100
0100
0000
0000
1000
1000
0000
0000
,  // measure 12
0000
0000
0001
0001
1000
1000
1001
0000
,  // measure 13
0100
0100
0000
0000
1000
1000
0000
0000
,  // measure 14
0000
0000
0010
0010
0001
0001
0101
0000
,  // measure 15
0100
0100
0000
0000
0001
0001
0000
0000
,  // measure 16
0000
0000
1000
1000
0001
0001
0011
0000
,  // measure 17
0100
0100
0000
0000
0001
0001
0000
0000
,  // measure 18
0000
0000
1000
1000
0001
0001
0101
0000
,  // measure 19
0010
0010
0000
0000
1000
1000
0000
0000
,  // measure 20
0000
0000
0001
0001
0100
0100
0110
0000
,  // measure 21
0010
0010
0000
0000
0001
0001
0000
0000
,  // measure 22
0000
0011
1001
1100
,  // measure 23
0000
0010
0001
0000
0100
0000
1001
0000
,  // measure 24
0000
0000
1000
0010
0100
0000
0110
0000
,  // measure 25
0000
0001
0100
0000
0010
0000
1000
0002
,  // measure 26
0000
0000
0000
0000
0000
0000
0010
0013
,  // measure 27
0100
0000
0001
0000
0100
0000
0010
1000
,  // measure 28
0001
0000
0100
0000
0010
0000
1000
0001
,  // measure 29
0010
0000
0001
0000
0100
0000
0001
0010
,  // measure 30
0001
0000
0010
0000
0100
0000
1000
0001
,  // measure 31
0100
0001
1000
1000
,  // measure 32
0001
0000
1000
0010
0000
0010
0100
0000
,  // measure 33
0001
0000
1000
0020
0000
0000
0000
0130
,  // measure 34
0100
0000
0010
0000
1000
0000
0001
0001
,  // measure 35
2200
0000
0000
0000
,  // measure 36
0000
0000
0000
0000
0000
3300
0010
0002
,  // measure 37
0000
0000
0013
0000
0100
1000
0001
0000
,  // measure 38
0100
0000
0100
0010
0000
0010
1000
0000
,  // measure 39
0100
0000
0001
0020
0000
0000
0031
0000
,  // measure 40
0100
1000
0010
2000
0000
0000
3001
0000
,  // measure 41
1000
0001
0100
0001
,  // measure 42
1000
0000
0100
0000
0022
0000
0000
0033
,  // measure 43
1000
1000
0000
0001
0001
0000
0100
0100
,  // measure 44
0000
1010
0110
0101
,  // measure 45
0000
0001
1000
0000
0001
0000
0011
0000
,  // measure 46
0000
0000
0100
0001
1000
0000
1000
0001
,  // measure 47
0000
0100
0010
0000
1000
0000
0101
0000
,  // measure 48
0000
0010
0100
0000
0110
0000
1001
0000
,  // measure 49
0000
1000
0001
0000
0010
0000
1100
0000
,  // measure 50
0000
0000
0100
0010
0001
0000
0001
1000
,  // measure 51
0000
0100
0001
0000
0100
0000
0100
2020
,  // measure 52
0000
0000
0000
0000
0000
0000
0000
3030
,  // measure 53
1000
0100
1000
0100
,  // measure 54
1000
0001
1000
0001
,  // measure 55
0100
0001
0100
0001
,  // measure 56
0010
0001
0010
0001
,  // measure 57
0100
0001
0100
0001
,  // measure 58
0100
0010
0100
0010
,  // measure 59
1000
0010
1000
0010
,  // measure 60
1000
0001
1000
0001
,  // measure 61
0010
0100
1000
0100
,  // measure 62
0010
0001
0010
0100
,  // measure 63
1000
0100
0010
0001
,  // measure 64
1001
1000
0001
0100
,  // measure 65
0001
0010
0100
0000
1000
0000
0100
0000
,  // measure 66
0010
0001
0100
0000
0001
0000
0100
0000
,  // measure 67
1000
0010
0100
0000
0010
0000
0001
0000
,  // measure 68
0100
0010
1000
0000
0001
0000
1000
0000
,  // measure 69
0010
0100
0010
1000
,  // measure 70
0001
0000
0010
0000
0001
0022
0000
0000
,  // measure 71
0033
1000
0010
0000
0100
0000
0001
0000
,  // measure 72
0001
1000
0100
0100
0000
0010
0010
0000
,  // measure 73
0001
0001
0000
1000
1000
0000
0001
0000
,  // measure 74
0110
0110
0000
0000
0000
0000
0000
0000
;

//---------------dance-single - ----------------
#NOTES:
     dance-single:
     :
     Hard:
     11:
     :
0000
0000
0000
0000
,
0000
0000
0000
0000
0000
1000
0100
0010
,
0001
0000
0000
1000
0000
0000
0001
0000
0000
0000
1000
0000
0010
0000
0100
0000
,
0010
0000
0000
1000
0000
0000
0001
0000
0000
0000
1000
0000
0100
0000
1000
0000
,
0001
0000
0000
0100
0000
0000
0001
0000
0000
0000
1000
0000
0001
0000
0100
0000
,
0010
0000
0010
0000
0010
0000
0010
1000
,
0000
0001
0000
0100
0000
0001
1000
0100
,
0010
0000
0000
0001
0000
0000
0100
0000
0000
0000
0010
0000
1000
0000
0000
0000
,
1000
0100
1000
0020
0000
0000
0000
0130
,
0001
0000
0010
0000
0010
0000
0100
0100
,
1000
1000
0000
0000
0001
0001
0000
0000
,
0000
0100
0010
0010
1000
0001
1000
0000
,
0100
0100
0000
0000
0010
0010
0000
0000
,
0000
0100
0010
0010
0001
1000
0010
1000
,
0001
0000
1000
0000
0100
1000
0010
0100
,
0000
0100
0010
0001
1000
0100
1000
0000
,
1000
0000
0001
0000
0100
0000
0000
0000
0010
0000
0000
0100
0000
0000
0010
0000
,
0000
1000
0001
0100
0001
0010
0100
1000
,
0001
0000
0100
0000
0010
1000
0010
0100
,
0000
0100
0010
0001
0000
1000
0100
0010
,
0000
0010
0100
0010
1000
0100
0000
1000
,
0000
0001
0010
0001
1000
0100
0010
0001
,
0000
0001
0100
0010
0100
0000
0110
0000
,
0000
0100
1000
0001
0010
0001
1000
0100
,
0000
1000
0100
0001
0010
0001
0100
0020
,
0000
0100
0100
0100
0100
1030
0001
0010
,
0100
0000
0000
1000
0000
0000
0001
0000
0000
0000
0010
0000
0100
0000
0010
0000
,
0001
0000
0000
0100
0000
0000
0010
0000
0000
0000
1000
0000
0100
0000
0010
0000
,
0100
0000
0000
1000
0000
0000
0001
0000
0000
0000
1000
0000
0001
0000
1000
0000
,
0100
0000
0100
0000
0100
0000
0100
1000
,
0000
0100
0000
0001
0000
1000
0001
1000
,
0010
0000
0000
0100
0000
0000
0001
0000
0000
0000
1000
0000
0100
0000
0000
0000
,
0001
0001
0010
0002
0000
0000
0000
1003
,
0010
0000
0100
0000
0001
0000
1000
0001
,
0220
0000
0000
0000
0000
0000
0000
0330
,
0010
1000
0010
0100
0010
0000
1000
0000
0001
0000
0100
0000
0001
0000
2000
0000
,
0100
0100
0100
0100
,
3001
0010
0001
1000
0000
1000
0100
0001
,
0010
0000
0010
0002
0000
0000
0100
0003
,
1000
0100
1000
0002
0010
0000
0010
0000
,
0103
1000
0000
1000
0001
0000
0001
0010
0000
0010
0100
0000
0100
1000
0000
1000
,
0001
0000
0001
0100
0000
0100
0010
0000
2002
0000
0000
0000
0000
0000
3003
0000
,
0001
0101
0000
1000
1100
0000
0010
1010
,
0000
0100
1000
0001
0100
0001
0010
0011
,
0000
0100
1000
0100
0010
0000
1001
0000
,
0000
0001
0100
0010
1000
0100
0010
0001
,
0000
1000
0001
0001
1000
0000
0110
0000
,
0000
0001
1000
0010
1010
0000
0101
0000
,
0000
0010
0100
0010
1000
0000
1100
0000
,
0000
1000
0001
0010
0001
1000
0100
0010
,
0000
0001
1000
0010
0100
0001
0010
0012
,
0000
0100
0100
0100
0010
0010
1000
1003
,
0100
0010
0100
1000
0000
0001
0100
0001
,
0010
1000
0001
1000
0000
0010
0100
0001
,
0010
0001
0100
0010
0000
1000
0100
0010
,
0100
1000
0100
0001
0000
0100
0001
1000
,
0010
0000
0000
0010
0000
0000
0010
0000
0000
0000
0100
0000
1000
0000
0001
0000
,
0100
0000
0000
0100
0000
0000
0100
0000
0000
0000
0010
0000
1000
0000
0001
0000
,
1000
0000
0000
1000
0000
0000
1000
0000
0000
0000
0001
0000
0010
0000
0100
0000
,
1000
0000
1000
0000
1000
0000
1000
0100
,
0000
0001
0000
0010
0000
0001
1000
0100
,
0001
0000
0000
0001
0000
0000
0001
0000
0000
0000
0100
0000
1000
0000
0000
0000
,
0010
1000
0100
0002
0000
0000
0000
0000
,
1003
0000
0100
0000
0010
0000
0000
0100
0000
0000
1000
0000
0000
0000
0100
0000
,
0001
0000
0001
0000
0100
0000
0000
0010
0000
0000
0100
0000
0000
0000
1000
0000
,
0010
0000
0100
0000
0001
0000
0000
1000
0000
0000
0100
0000
0000
0000
0001
0000
,
0100
0100
0001
0000
0001
0000
0001
0000
,
0001
1000
0000
0010
0000
0100
0000
0010
,
0001
0000
1000
0000
0010
0000
0000
1000
0000
0000
0100
0000
0000
0000
0001
0000
,
0010
0000
0010
0010
0001
2000
0000
0000
,
0000
3001
0010
0000
0100
0000
0001
0000
,
1000
0100
1000
1010
0000
0001
0011
0000
,
1000
1001
0000
0001
0100
0001
1000
0100
,
0010
0110
0000
0000
0000
0000
0000
0000
;
