#TITLE:STRICTLY BUSINESS;
#SUBTITLE:;
#ARTIST:MANTRONIK VS. EPMD;
#TITLETRANSLIT:;
#SUBTITLETRANSLIT:;
#ARTISTTRANSLIT:;
#CREDIT:;
#BANNER:STRICTLY BUSINESS.png;
#BACKGROUND:STRICTLY BUSINESS-bg.png;
#JACKET:STRICTLY BUSINESS-jacket.png;
#LYRICSPATH:;
#CDTITLE:;
#MUSIC:STRICTLY BUSINESS.ogg;
#OFFSET:0.000;
#SAMPLESTART:61.261;
#SAMPLELENGTH:15.300;
#SELECTABLE:YES;
#DISPLAYBPM:125.000;
#BPMS:0.000=125.365,28.000=125.243;
#STOPS:;
#BGCHANGES:;

//---------------dance-single - ----------------
#NOTES:
     dance-single:
     :
     Beginner:
     3:
     :
// measure 1
0000
0000
0000
0000
,  // measure 2
0000
0000
0000
0000
,  // measure 3
0000
0000
0000
0000
,  // measure 4
0000
0000
0000
0000
,  // measure 5
0000
0000
0000
0000
,  // measure 6
0000
0000
0000
0000
,  // measure 7
0000
0000
0000
0000
,  // measure 8
1000
0000
0010
0000
,  // measure 9
0100
0000
0001
0000
,  // measure 10
0001
0000
0010
0000
,  // measure 11
0100
0000
1000
0000
,  // measure 12
2002
0000
0000
0000
0000
0000
0000
3003
,  // measure 13
0011
0000
0000
0000
,  // measure 14
0101
0000
0000
0000
,  // measure 15
1010
0000
0000
0000
,  // measure 16
1100
0000
0000
0000
,  // measure 17
0110
0000
0000
0000
0220
0000
0000
0330
,  // measure 18
0001
0000
0100
0000
,  // measure 19
0010
0000
1000
0000
,  // measure 20
0010
0000
0100
0000
,  // measure 21
0001
0000
0001
0000
,  // measure 22
0010
0000
0010
0000
,  // measure 23
0100
0000
0100
0000
,  // measure 24
1000
0000
1000
0000
,  // measure 25
0010
0000
0010
0000
,  // measure 26
0100
0000
0100
0000
,  // measure 27
0010
0000
1000
0000
,  // measure 28
0010
0000
0001
0000
,  // measure 29
0100
0000
1000
0000
,  // measure 30
0100
0000
0001
0000
,  // measure 31
0002
0000
0000
0000
,  // measure 32
2000
0000
0000
0000
0000
0000
0000
3003
,  // measure 33
0110
0000
0000
0000
,  // measure 34
0010
0000
1000
0000
,  // measure 35
1001
0000
0000
0000
,  // measure 36
0001
0000
0100
0000
,  // measure 37
0110
0000
0000
0000
,  // measure 38
1000
0000
0001
0000
,  // measure 39
1001
0000
0000
0000
,  // measure 40
0100
0000
0010
0000
,  // measure 41
0100
0000
0010
0000
,  // measure 42
0100
0000
0010
0000
,  // measure 43
0100
0000
0010
0000
,  // measure 44
0100
0000
0010
0000
,  // measure 45
1001
0000
0000
0000
,  // measure 46
0001
0000
1000
0000
,  // measure 47
0110
0000
0000
0000
,  // measure 48
0010
0000
0100
0110
;

//---------------dance-single - ----------------
#NOTES:
     dance-single:
     :
     Easy:
     5:
     :
// measure 1
0000
0000
0000
0000
,  // measure 2
0000
0000
0000
0000
,  // measure 3
0000
0000
0000
0000
,  // measure 4
0000
0000
0000
0000
,  // measure 5
0000
0000
0000
0000
,  // measure 6
0000
0000
0000
0000
,  // measure 7
0000
0000
0000
0000
,  // measure 8
1000
0001
0100
0010
,  // measure 9
0000
0000
1000
0001
,  // measure 10
0100
0001
1000
0010
,  // measure 11
1000
0001
0100
0010
,  // measure 12
2020
0000
0000
3030
0022
0000
0000
0033
,  // measure 13
0100
1000
0001
0010
,  // measure 14
0100
1000
0001
0010
,  // measure 15
0100
1000
0001
0010
,  // measure 16
0100
1000
0001
0010
,  // measure 17
0100
0000
1000
0000
2002
0000
0000
3003
,  // measure 18
0100
0001
1000
0001
,  // measure 19
0100
0001
0010
0100
,  // measure 20
1000
0010
1000
0100
,  // measure 21
1000
0010
1000
0001
,  // measure 22
0100
1000
0010
0001
,  // measure 23
0100
1000
0010
1000
,  // measure 24
0100
0010
0001
0010
,  // measure 25
1000
0010
0001
1000
,  // measure 26
0100
0001
0100
1000
,  // measure 27
0001
0001
1000
0010
,  // measure 28
0100
0010
0100
0001
,  // measure 29
0010
0001
1000
0001
,  // measure 30
1000
0100
0010
0001
,  // measure 31
0010
0100
1000
0001
,  // measure 32
0100
0000
0010
0000
0220
0000
0000
0330
,  // measure 33
0002
2003
3200
0300
,  // measure 34
0010
1000
0001
0100
,  // measure 35
2000
3200
0320
0030
,  // measure 36
0010
1000
0001
0100
,  // measure 37
0020
0032
0203
0300
,  // measure 38
0010
1000
0001
0100
,  // measure 39
2000
3002
0023
0030
,  // measure 40
0010
1000
0001
0100
,  // measure 41
0010
0010
0010
0010
,  // measure 42
1000
1000
1000
1000
,  // measure 43
0001
0001
0001
0001
,  // measure 44
0100
0100
0100
0100
,  // measure 45
0002
0203
0320
0030
,  // measure 46
0001
0010
0100
1000
,  // measure 47
0020
0032
2003
3000
,  // measure 48
1000
0100
0010
0001
;

//---------------dance-single - ----------------
#NOTES:
     dance-single:
     :
     Medium:
     8:
     :
// measure 1
0000
0000
0000
0000
,  // measure 2
0000
0000
0000
0000
,  // measure 3
0000
0000
0000
0000
,  // measure 4
0000
0000
0000
0000
,  // measure 5
0000
0000
0000
0000
,  // measure 6
0000
0000
0000
0000
,  // measure 7
0000
0000
0000
0000
,  // measure 8
1000
0001
0000
0000
1100
0000
0101
0000
,  // measure 9
0000
0000
0000
0001
0100
0000
0010
0000
,  // measure 10
0010
1000
0000
0000
1001
0000
0110
0000
,  // measure 11
1000
0000
0001
0000
0100
0010
0001
0000
,  // measure 12
2200
0000
0000
3300
0202
0000
0000
0303
,  // measure 13
0100
0000
0001
0000
0100
0001
1000
0000
,  // measure 14
0100
0000
0010
0000
1000
0001
0010
0000
,  // measure 15
0100
0000
0001
0000
1000
0100
0001
0000
,  // measure 16
0100
0000
0010
0000
0001
0100
1000
0000
,  // measure 17
0010
0000
0100
0000
2002
0000
0000
3003
,  // measure 18
0010
0000
1000
0000
0001
1000
0100
0000
,  // measure 19
0100
0001
0000
0000
1010
0000
0011
0000
,  // measure 20
0010
0000
0001
0000
1000
0001
0100
0000
,  // measure 21
0100
0010
0000
0000
0001
0010
1000
0010
,  // measure 22
0001
0000
1000
0000
0100
0010
0001
0000
,  // measure 23
0001
0000
0100
0000
0010
1000
0100
0000
,  // measure 24
0010
1000
0001
0000
0100
0010
1000
0000
,  // measure 25
1001
0000
0110
0000
0010
0001
0100
0000
,  // measure 26
1000
0000
0010
0000
0001
1000
0010
0000
,  // measure 27
0010
0000
0100
0000
0001
0100
1000
0000
,  // measure 28
0001
0000
0010
0000
0001
1000
0100
0000
,  // measure 29
0010
0000
0100
0000
1000
0100
0001
0000
,  // measure 30
0100
0000
0001
0000
0010
0001
1000
0000
,  // measure 31
0010
0000
0001
0000
0100
0010
1000
0000
,  // measure 32
0001
0000
1000
0000
0220
0000
0000
0330
,  // measure 33
0001
1000
0100
0000
0100
0001
0000
0000
,  // measure 34
1000
0100
0001
0000
0001
0100
1000
0000
,  // measure 35
0010
0100
0001
0000
0100
0010
0000
0000
,  // measure 36
0001
0100
0001
0000
1000
0100
0010
0000
,  // measure 37
0001
0100
0010
0000
1000
0010
0000
0000
,  // measure 38
1000
0100
0001
0000
0010
0001
0100
0000
,  // measure 39
0001
1000
0010
0000
0001
0100
0000
0000
,  // measure 40
1000
0100
0001
0000
1000
0100
0010
0000
,  // measure 41
0010
0001
0100
0000
0001
0100
0010
0000
,  // measure 42
1000
0100
1000
0000
0010
0001
0010
0000
,  // measure 43
0010
1000
0001
0000
1000
0100
0001
0000
,  // measure 44
0001
0100
1000
0000
0001
1000
0010
0000
,  // measure 45
0001
1000
0010
0000
0100
0001
0000
0000
,  // measure 46
1000
0100
0010
0000
0010
0100
0010
0000
,  // measure 47
1000
0010
0100
0000
0001
0010
0000
0000
,  // measure 48
1000
0010
0100
0000
0100
0010
0001
0000
;

//---------------dance-single - ----------------
#NOTES:
     dance-single:
     :
     Hard:
     13:
     :
// measure 1
0000
0000
0000
0000
,  // measure 2
0000
0000
0000
0000
,  // measure 3
0000
0000
0000
0000
,  // measure 4
0000
0000
0000
0000
,  // measure 5
0000
0000
0000
0000
,  // measure 6
0000
0000
0000
0000
,  // measure 7
0000
0000
0000
0000
,  // measure 8
1000
0010
0100
0000
1000
0001
0001
1000
,  // measure 9
0000
0100
0010
0001
1000
0010
0100
0000
,  // measure 10
0001
0010
0001
0000
0100
1000
0010
1000
,  // measure 11
0100
0010
0001
0010
0100
1000
0100
0000
,  // measure 12
0101
0000
0001
0100
0000
1001
0000
0000
1000
0100
1000
0100
1000
0100
1000
0100
,  // measure 13
0010
0001
1000
0001
,  // measure 14
0100
0001
1000
0010
,  // measure 15
1000
0100
1000
0001
,  // measure 16
0100
0010
1000
0010
,  // measure 17
0100
0000
0000
0000
0001
0000
0000
0000
1000
0010
1000
0010
1000
0010
1000
0010
,  // measure 18
0100
0001
0100
1000
0001
0001
1000
1000
,  // measure 19
0100
0010
0001
0010
1000
0010
0001
0010
,  // measure 20
0100
1000
0100
0010
0100
1000
0100
0001
,  // measure 21
0100
0010
1000
0100
0010
0001
0010
0100
,  // measure 22
0010
0001
1000
0010
1000
0100
1000
0010
,  // measure 23
0001
0010
0100
1000
0010
1000
0100
1000
,  // measure 24
0010
0100
0001
0010
0100
1000
0100
0001
,  // measure 25
0100
1000
0100
0001
0010
0001
0100
0001
,  // measure 26
1000
0100
0010
0001
1000
0010
0100
0010
,  // measure 27
1000
0100
0010
0100
0001
1000
0100
1000
,  // measure 28
0001
0001
0010
0010
1000
1000
0100
0100
,  // measure 29
0010
0001
0100
0010
1000
0100
1000
0001
,  // measure 30
0100
0010
0001
0010
0100
0001
1000
0100
,  // measure 31
0001
0100
1000
0010
0001
0010
1000
0010
,  // measure 32
0100
0000
0001
0000
0010
0000
0100
0000
0001
0010
0001
0010
0001
0010
0001
0010
,  // measure 33
0100
0000
0010
0000
0001
0000
0000
0100
0010
0000
1000
0000
0000
0000
0000
0000
,  // measure 34
0010
0100
0000
1000
0000
0100
0010
0001
1000
0000
0010
0000
0100
0000
0000
0000
,  // measure 35
0010
0000
0100
0000
0001
0000
0000
1000
0100
0000
0010
0000
0000
0000
0000
0000
,  // measure 36
0001
0100
0000
1000
0000
0100
0010
0001
0100
0000
0010
0000
0100
0000
0000
0000
,  // measure 37
0001
0000
0010
0000
0001
0000
0000
1000
0001
0000
0010
0000
0000
0000
0000
0000
,  // measure 38
1000
0100
0000
0100
0000
0010
0100
0010
1000
0000
0001
0000
1000
0000
0000
0000
,  // measure 39
0100
0000
0010
0000
0001
0000
0000
0010
0100
0000
0001
0000
0000
0000
0000
0000
,  // measure 40
1000
0001
0000
0010
0000
0001
0010
0100
1000
0000
0001
0000
0100
0000
0000
0000
,  // measure 41
0010
1000
0000
0001
0000
0100
0010
0001
1000
0000
0010
0000
0100
0000
0000
0000
,  // measure 42
0001
1000
0000
0010
0000
1000
0001
0100
0010
0000
0001
0000
0100
0000
0000
0000
,  // measure 43
0100
0010
0000
1000
0000
1000
0100
1000
0100
0000
0010
0000
0001
0000
0000
0000
,  // measure 44
1000
0001
0000
0100
0000
0001
1000
0010
0100
0000
0001
0000
1000
0000
0000
0000
,  // measure 45
0001
0000
0100
0000
0010
0000
0000
1000
0010
0000
1000
0000
0000
0000
0000
0000
,  // measure 46
0001
0100
0000
1000
0000
0001
0100
0001
0100
0000
0001
0000
1000
0000
0000
0000
,  // measure 47
0100
0000
0010
0000
0001
0000
0000
0100
0001
0000
1000
0000
0000
0000
0000
0000
,  // measure 48
0001
0100
0000
0010
0000
0100
0010
1000
0010
0000
0100
0000
1001
0000
0000
0000
;
