#TITLE:PARANOiA;
#SUBTITLE:;
#ARTIST:ω-type 360;
#TITLETRANSLIT:;
#SUBTITLETRANSLIT:;
#ARTISTTRANSLIT:;
#CREDIT:;
#BANNER:PARANOiA.png;
#BACKGROUND:PARANOiA-bg.png;
#JACKET:PARANOiA-jacket.png;
#LYRICSPATH:;
#CDTITLE:;
#MUSIC:PARANOiA.mp3;
#OFFSET:-0.032;
#SAMPLESTART:82.700;
#SAMPLELENGTH:12.000;
#SELECTABLE:YES;
#BPMS:0.000=90.000,8.000=180.000,72.000=90.000,76.000=180.000,140.000=90.000,172.000=360.000,300.000=180.000;
#STOPS:;
#BGCHANGES:0.000=PARANOiA.avi=1.000=1=0=1,
315.750=PARANOiA-bg.png=1.000=1=0=1,
99999=-nosongbg-=1.000=0=0=0 // don't automatically add -songbackground-
;

//---------------dance-single - ----------------
#NOTES:
     dance-single:
     :
     Beginner:
     6:
     :
// measure 1
0000
0000
0000
0000
,  // measure 2
0000
0000
0000
0000
,  // measure 3
1000
0010
0100
0000
,  // measure 4
0001
0100
0001
1000
,  // measure 5
0001
0010
0100
0000
,  // measure 6
1000
0001
1000
0100
,  // measure 7
1000
0010
0100
0000
,  // measure 8
0001
0100
1000
0100
,  // measure 9
0001
0010
0100
0000
,  // measure 10
1000
0100
0001
0100
,  // measure 11
1000
0010
0001
0000
,  // measure 12
0202
0000
0000
0303
,  // measure 13
0001
0010
1000
0000
,  // measure 14
2200
0000
0000
3300
,  // measure 15
1000
0010
0100
0000
,  // measure 16
0022
0000
0000
0033
,  // measure 17
0001
0010
0100
0000
,  // measure 18
2200
0000
0000
3300
,  // measure 19
1000
0000
0001
0000
0220
0000
0000
0330
,  // measure 20
1000
0100
1000
0100
,  // measure 21
0000
0000
0000
0000
,  // measure 22
0001
0010
0001
0010
,  // measure 23
0000
0000
0000
0000
,  // measure 24
0001
0100
0001
0100
,  // measure 25
0000
0000
0000
0000
,  // measure 26
1000
0010
1000
0010
,  // measure 27
0000
0000
0000
0000
,  // measure 28
1000
0100
1000
0100
,  // measure 29
1000
0010
1000
0010
,  // measure 30
0001
0100
0001
0100
,  // measure 31
0001
0010
0001
0010
,  // measure 32
0001
1000
0010
1000
,  // measure 33
0001
0100
0001
0010
,  // measure 34
0100
0010
1000
0100
,  // measure 35
0010
0001
0100
0010
,  // measure 36
1000
0000
1000
0000
,  // measure 37
0000
1000
0000
0000
,  // measure 38
0001
0000
0001
0000
,  // measure 39
0000
0001
0000
0000
,  // measure 40
0100
0000
0100
0000
,  // measure 41
0100
0000
0100
0000
,  // measure 42
0010
0010
0010
0010
,  // measure 43
0100
0010
0100
0010
,  // measure 44
1000
0000
0010
0000
,  // measure 45
0101
0000
0000
0000
,  // measure 46
1000
0000
1000
0000
,  // measure 47
0001
0000
0001
0000
,  // measure 48
0001
0000
0010
0000
,  // measure 49
1100
0000
0000
0000
,  // measure 50
0001
0000
0001
0000
,  // measure 51
1000
0000
1000
0000
,  // measure 52
0001
0000
0010
0000
,  // measure 53
0011
0000
0000
0000
,  // measure 54
0100
0000
0100
0000
,  // measure 55
0010
0000
0010
0000
,  // measure 56
1000
0000
0010
0000
,  // measure 57
1010
0000
0000
0000
,  // measure 58
0010
0000
0010
0000
,  // measure 59
0100
0000
0100
0000
,  // measure 60
1000
0010
1000
0000
,  // measure 61
1100
0000
0000
0000
,  // measure 62
0001
0010
0001
0000
,  // measure 63
1000
0001
1000
0000
,  // measure 64
0001
0010
0001
0000
,  // measure 65
0011
0000
0000
0000
,  // measure 66
1000
0010
1000
0000
,  // measure 67
0010
0100
0010
0000
,  // measure 68
1000
0010
1000
0000
,  // measure 69
0101
0000
0000
0000
,  // measure 70
0001
0010
0001
0000
,  // measure 71
0100
0010
0100
0000
,  // measure 72
0001
0010
0001
0000
,  // measure 73
1010
0000
0000
0000
,  // measure 74
0001
0100
0001
0000
,  // measure 75
1000
0010
1000
0000
,  // measure 76
2002
0000
0000
0000
,  // measure 77
0000
0000
0000
0000
,  // measure 78
0000
0000
0000
0000
,  // measure 79
0000
0000
0000
3003
,  // measure 80
0220
0000
0000
0000
,  // measure 81
0330
0000
0000
0000
;

//---------------dance-single - ----------------
#NOTES:
     dance-single:
     :
     Easy:
     8:
     :
// measure 1
0000
0000
0000
0000
,  // measure 2
0000
0000
0000
0000
,  // measure 3
1000
0010
0100
0000
1010
0000
0000
0000
,  // measure 4
0001
0100
0010
0100
,  // measure 5
0001
0010
0100
0000
0011
0000
0000
0000
,  // measure 6
1000
0010
0100
0001
,  // measure 7
1000
0010
1000
0000
0101
0000
0000
0000
,  // measure 8
0100
0001
0010
0001
,  // measure 9
1000
0100
0001
0000
1100
0000
0000
0000
,  // measure 10
0001
1000
0010
0100
,  // measure 11
0001
0010
0100
0010
0001
0000
0000
0000
,  // measure 12
2020
0000
0000
3030
,  // measure 13
1000
0100
0010
0100
1000
0000
0000
0000
,  // measure 14
0022
0000
0000
0033
,  // measure 15
0010
0100
0001
1000
0100
0000
0000
0000
,  // measure 16
0202
0000
0000
0303
,  // measure 17
0001
0100
1000
0100
0001
0000
0000
0000
,  // measure 18
2200
0000
0000
3300
,  // measure 19
0100
0010
0100
0000
2002
0000
0000
3003
,  // measure 20
0010
1000
0010
1000
,  // measure 21
1000
0010
0100
0001
,  // measure 22
0010
0001
0010
0001
,  // measure 23
0001
1000
0001
0100
,  // measure 24
0010
1000
0010
1000
,  // measure 25
0100
0001
1000
0010
,  // measure 26
0010
0001
0010
0001
,  // measure 27
1000
0010
0001
0100
,  // measure 28
1000
0100
1000
0100
,  // measure 29
0001
0010
0001
0010
,  // measure 30
1000
0100
1000
0000
0010
0000
0100
0000
,  // measure 31
0001
0010
0001
0000
0100
0000
0010
0000
,  // measure 32
1000
0100
1000
0000
0100
1000
0100
0000
,  // measure 33
0010
0001
0010
0000
0001
0010
0001
0000
,  // measure 34
1000
1100
0100
0101
,  // measure 35
0001
0011
0010
0110
,  // measure 36
1001
0000
0000
0000
1000
1000
0000
0000
,  // measure 37
0000
0000
0000
0000
1000
1000
0000
0000
0000
0000
0000
0000
0000
0000
0000
0000
,  // measure 38
1001
0000
0000
0000
0001
0001
0000
0000
,  // measure 39
0000
0000
0000
0000
0001
0001
0000
0000
0000
0000
0000
0000
0000
0000
0000
0000
,  // measure 40
1000
0010
1000
0000
0001
0100
0010
1000
,  // measure 41
0022
0000
0000
0033
,  // measure 42
0001
0010
0001
0000
0100
0010
1000
0001
,  // measure 43
2020
0000
0000
3030
,  // measure 44
1000
0100
0010
0001
,  // measure 45
1001
0000
0000
0000
,  // measure 46
1000
0100
1000
0000
,  // measure 47
0001
0010
0001
0000
,  // measure 48
0001
1000
0010
0100
,  // measure 49
0110
0000
0000
0000
,  // measure 50
0001
0010
0001
0000
,  // measure 51
1000
0010
1000
0000
,  // measure 52
0001
1000
0010
1000
,  // measure 53
0101
0000
0000
0000
,  // measure 54
0100
0010
0100
0000
,  // measure 55
1000
0001
1000
0000
,  // measure 56
0100
0001
0010
0001
,  // measure 57
1100
0000
0000
0000
,  // measure 58
0010
0100
0010
0000
,  // measure 59
0001
1000
0001
0000
,  // measure 60
0100
0010
1000
0010
,  // measure 61
0100
0000
0000
0000
,  // measure 62
0001
0100
0001
0010
,  // measure 63
0001
1000
0001
1000
,  // measure 64
0100
0010
0001
0100
,  // measure 65
0010
0000
0000
0000
,  // measure 66
1000
0010
1000
0001
,  // measure 67
0010
0100
0010
0001
,  // measure 68
1000
0010
1000
0100
,  // measure 69
1000
0000
0000
0000
,  // measure 70
0001
0010
0001
1000
,  // measure 71
0010
0100
0010
0001
,  // measure 72
0100
0010
1000
0010
,  // measure 73
0100
0000
0000
0000
,  // measure 74
0001
0100
1000
0100
,  // measure 75
0001
0010
1000
0010
,  // measure 76
2002
0000
0000
0000
,  // measure 77
0000
0000
0000
0000
,  // measure 78
0000
0000
0000
0000
,  // measure 79
0000
0000
0000
3003
,  // measure 80
0220
0000
0000
0000
,  // measure 81
0330
0000
0000
0000
;

//---------------dance-single - ----------------
#NOTES:
     dance-single:
     :
     Medium:
     10:
     :
// measure 1
0000
0000
0000
0000
,  // measure 2
0000
0000
0000
0000
,  // measure 3
1000
0010
0100
0001
0010
0000
0000
0000
,  // measure 4
1100
0000
0011
0000
0001
0100
0001
1000
,  // measure 5
0100
1000
0010
1000
0001
0000
0000
0000
,  // measure 6
0101
0000
1010
0000
0100
1000
0001
1000
,  // measure 7
0100
0010
0001
1000
0001
0000
0000
0000
,  // measure 8
0101
0000
0011
0000
0100
1000
1000
0100
,  // measure 9
0010
0100
0010
0001
0100
0000
0000
0000
,  // measure 10
1100
0000
1010
0000
0100
0001
1000
0001
,  // measure 11
0100
0010
0100
0001
0100
0000
0000
0000
,  // measure 12
2020
0000
0000
0000
0000
0000
0000
3030
,  // measure 13
0100
0001
0010
0100
1000
0000
0000
0000
,  // measure 14
0022
0000
0000
0000
0000
0000
0000
0033
,  // measure 15
0100
1000
0001
0100
0001
0000
0000
0000
,  // measure 16
0202
0000
0000
0000
0000
0000
0000
0303
,  // measure 17
0010
1000
0100
1000
0001
0000
0000
0000
,  // measure 18
2200
0000
0000
0000
0000
0000
0000
3300
,  // measure 19
0010
0001
1000
0000
0100
0100
0010
0010
,  // measure 20
1000
1000
0001
0001
,  // measure 21
0100
0000
0100
0000
0010
0000
0010
0100
,  // measure 22
0001
1000
0001
1000
,  // measure 23
0100
0010
0001
0010
1000
0010
0100
0010
,  // measure 24
0001
0100
1000
0100
,  // measure 25
0001
0000
1000
0000
0010
0000
0100
0010
,  // measure 26
1000
0100
0001
0100
,  // measure 27
1000
0100
0001
0100
0010
0100
1000
0100
,  // measure 28
0010
1000
0001
0010
,  // measure 29
0001
0000
0100
0000
0010
0000
1000
0100
,  // measure 30
1000
0001
0100
0001
,  // measure 31
0010
1000
1000
0010
0010
0100
0100
0001
,  // measure 32
0001
0100
0010
0100
,  // measure 33
0001
0000
0100
0000
1000
0000
1000
0100
,  // measure 34
0001
0010
1000
0010
,  // measure 35
0001
0100
0010
0100
0001
1000
0010
1000
,  // measure 36
0220
0000
0000
0330
0011
0202
0000
0000
,  // measure 37
0000
0000
0303
0000
1010
2200
0000
0000
0000
0000
0000
0000
0000
0000
3300
0000
,  // measure 38
2002
0000
0000
3003
0011
2020
0000
0000
,  // measure 39
0000
0000
3030
0000
1100
0202
0000
0000
0000
0000
0000
0000
0000
0000
0303
0000
,  // measure 40
0001
0010
0001
0000
1000
0100
1000
0001
,  // measure 41
0220
0000
0000
0000
0000
0000
0000
0330
,  // measure 42
0100
0001
1000
0000
1000
0010
0100
0001
,  // measure 43
2002
0000
0000
0000
0000
0000
0000
3003
,  // measure 44
0100
0001
0010
0001
,  // measure 45
2000
0000
0000
0000
,  // measure 46
3010
0100
0001
0100
,  // measure 47
1000
0100
1000
0001
,  // measure 48
0100
0010
1000
0100
,  // measure 49
0020
0000
0000
0000
,  // measure 50
0031
1000
0100
0010
,  // measure 51
0100
1000
0010
0100
,  // measure 52
0001
0100
1000
0100
,  // measure 53
0002
0000
0000
0000
,  // measure 54
0103
0010
1000
0010
,  // measure 55
0001
0100
0001
0010
,  // measure 56
0100
1000
0001
1000
,  // measure 57
0200
0000
0000
0000
,  // measure 58
0310
0001
1000
0001
,  // measure 59
0100
0001
0010
0100
,  // measure 60
1000
0010
1000
0001
,  // measure 61
2200
0000
0000
3300
,  // measure 62
0100
0010
0100
0000
1000
0000
0010
0000
,  // measure 63
0001
0100
0001
0000
0100
0000
0010
0000
,  // measure 64
0100
0001
1000
0010
,  // measure 65
2020
0000
0000
3030
,  // measure 66
0010
0100
0010
0000
1000
0000
0010
0000
,  // measure 67
1000
0100
1000
0000
0100
0000
0001
0000
,  // measure 68
0010
0100
0010
0001
,  // measure 69
0202
0000
0000
0303
,  // measure 70
0100
1000
0001
0000
0100
0000
0001
0000
,  // measure 71
1000
0010
0100
0000
0100
0000
0001
0000
,  // measure 72
0010
0100
1000
0100
,  // measure 73
0022
0000
0000
0033
,  // measure 74
0001
0010
0100
0000
0010
0000
0001
0000
,  // measure 75
0100
0010
0001
0000
0100
0000
0010
0000
,  // measure 76
2002
0000
0000
0000
,  // measure 77
0000
0000
0000
0000
,  // measure 78
0000
0000
0000
0000
,  // measure 79
0000
0000
0000
0000
0000
0000
0000
3003
,  // measure 80
0220
0000
0000
0000
,  // measure 81
0330
0000
0000
0000
;

//---------------dance-single - ----------------
#NOTES:
     dance-single:
     :
     Hard:
     16:
     :
// measure 1
0000
0000
0000
0000
,  // measure 2
0000
0000
0000
0000
,  // measure 3
1000
0100
0001
0100
1000
0000
0000
0000
,  // measure 4
0001
0010
0001
0100
0010
1000
0100
1000
,  // measure 5
0100
0001
0010
1000
0001
0000
0000
0000
,  // measure 6
0100
0001
0100
0010
0100
1000
0100
0001
,  // measure 7
0010
0100
1000
0010
0100
0000
0000
0000
,  // measure 8
0010
0001
1000
0010
0100
1000
0001
0100
,  // measure 9
0010
0100
0001
0010
0001
0000
0000
0000
,  // measure 10
0100
1000
0100
0010
0100
1000
0001
1000
,  // measure 11
0010
0100
0010
1000
0010
0000
0000
0000
,  // measure 12
0100
1000
0100
1000
0010
1000
0010
1000
0001
0100
0001
0100
0001
0010
0001
0010
,  // measure 13
0100
1000
0010
0001
0010
0000
0000
0000
,  // measure 14
0001
0010
0001
0010
0100
0010
0100
0010
1000
0100
1000
0100
1000
0001
1000
0001
,  // measure 15
0010
0100
0010
0001
1000
0000
0000
0000
,  // measure 16
0001
0100
0001
0100
0001
1000
0001
1000
0010
1000
0010
1000
0010
0100
0010
0100
,  // measure 17
0001
0100
1000
0100
0010
0000
0000
0000
,  // measure 18
0010
0001
0010
0001
1000
0010
1000
0010
0100
0001
0100
0001
1000
0100
1000
0100
,  // measure 19
1000
0000
0001
0000
0010
0000
0001
0000
0100
0000
0000
0000
0000
0000
0000
0000
0100
0010
0100
0010
1000
0001
1000
0001
0010
0100
0010
0100
0001
1000
0001
1000
,  // measure 20
0010
0000
0000
0010
0001
0000
0000
0001
0010
0000
0000
0010
0001
0000
0000
0000
,  // measure 21
0100
0000
0000
0000
0010
0000
0000
0000
1000
0000
0000
0000
0010
0000
0100
0010
,  // measure 22
1000
0000
0000
1000
0010
0000
0000
0010
1000
0000
0000
1000
0010
0000
0000
0000
,  // measure 23
0001
0000
1000
0000
0010
0000
1000
0000
0100
0000
0010
0000
0001
0000
1000
0100
,  // measure 24
1000
0000
0000
1000
0100
0000
0000
0100
1000
0000
0000
1000
0100
0000
0000
0000
,  // measure 25
0001
0000
0000
0000
0010
0000
0000
0000
0001
0000
0000
0000
1000
0000
0001
0100
,  // measure 26
0001
0000
0000
0001
0100
0000
0000
0100
0001
0000
0000
0001
0100
0000
0000
0000
,  // measure 27
0010
1000
0100
1000
0001
0010
0100
0010
,  // measure 28
0001
0101
1000
1100
,  // measure 29
1000
1010
0001
0011
,  // measure 30
0100
0001
1000
0010
1001
0000
0110
0000
,  // measure 31
1000
0100
0001
0010
0110
0000
1001
0000
,  // measure 32
0010
0001
1000
0001
0100
0010
0100
0001
,  // measure 33
0100
1000
0100
0010
0001
0100
1000
0010
,  // measure 34
0100
0010
1000
0001
0010
0001
0100
0010
,  // measure 35
1000
1000
0001
0001
0100
0100
0010
0010
,  // measure 36
0110
0000
0000
0000
0000
0000
0000
0000
0000
0000
0000
0000
0000
0000
0000
0000
1000
0001
1000
0001
1000
0100
1000
0100
1000
0001
1000
0001
1000
0010
1000
0010
,  // measure 37
0000
0000
0000
0000
0000
0000
0000
0000
0110
0000
0110
0000
0000
0000
0000
0000
0001
0010
0001
0010
0001
1000
0001
1000
0001
0100
0001
0100
0001
0010
0001
0010
,  // measure 38
1001
0000
0000
0000
0000
0000
0000
0000
0000
0000
0000
0000
0000
0000
0000
0000
0100
0001
0100
0001
0100
1000
0100
1000
0100
0010
0100
0010
0100
0001
0100
0001
,  // measure 39
0000
0000
0000
0000
0000
0000
0000
0000
1001
0000
1001
0000
0000
0000
0000
0000
0010
1000
0010
1000
0010
0100
0010
0100
0010
0001
0010
0001
0010
0100
0010
0100
,  // measure 40
0001
1000
0010
0100
0010
0000
0000
0000
1000
0100
0010
0100
1000
0001
0010
0001
,  // measure 41
0022
0033
0101
0000
,  // measure 42
0100
0001
0010
0001
1000
0000
0000
0000
0100
1000
0001
0010
0001
0100
0010
1000
,  // measure 43
2020
0000
0000
0000
3030
0000
0000
0000
1000
0100
1000
0100
1000
0100
1000
0100
,  // measure 44
1000
0001
0100
0000
0010
0000
1000
0000
,  // measure 45
0202
0000
0000
0000
0000
0000
0000
0303
,  // measure 46
1000
0100
1000
0000
0001
0000
0010
0000
,  // measure 47
0001
0100
0001
0000
0100
0000
0010
0000
,  // measure 48
0100
0001
1000
0000
0010
0000
0100
0000
,  // measure 49
2020
0000
0000
0000
0000
0000
0000
3030
,  // measure 50
0001
0010
0001
0000
1000
0000
0100
0000
,  // measure 51
1000
0010
1000
0000
0001
0000
0010
0000
,  // measure 52
0100
0010
0001
0000
0010
0000
0100
0000
,  // measure 53
2200
0000
0000
0000
0000
0000
0000
3300
,  // measure 54
0010
0100
0010
0000
1000
0000
0100
0000
,  // measure 55
0001
1000
0001
0000
0100
0000
0010
0000
,  // measure 56
0100
0001
1000
0000
0010
0000
1000
0000
,  // measure 57
0022
0000
0000
0000
0000
0000
0000
0033
,  // measure 58
0100
1000
0001
0000
0001
0010
0100
0000
,  // measure 59
1000
0100
0010
0000
0001
1000
0010
0000
,  // measure 60
0010
0100
0001
0000
0010
0000
0100
0000
,  // measure 61
0022
0000
0000
0000
0000
0000
0000
0033
,  // measure 62
1000
0010
1000
0000
0100
0000
0010
0000
0001
0000
0010
0000
0100
0000
0010
0000
,  // measure 63
0001
1000
0001
0000
1000
0000
0010
0000
0001
0000
0010
0000
1000
0000
0100
0000
,  // measure 64
1000
0001
0010
0000
0001
0000
1000
0000
,  // measure 65
2020
0000
0000
0000
0000
0000
0000
3030
,  // measure 66
0001
0100
0001
0000
0010
0000
0100
0000
0010
0000
0001
0000
0010
0000
1000
0000
,  // measure 67
0010
0100
0010
0000
0001
0000
0100
0000
0010
0000
0100
0000
0010
0000
1000
0000
,  // measure 68
0100
0001
0010
0000
1000
0000
0100
0000
,  // measure 69
2200
0000
0000
0000
0000
0000
0000
3300
,  // measure 70
0100
0010
0100
0000
0001
0000
1000
0000
0100
0000
1000
0000
0001
0000
0010
0000
,  // measure 71
0001
1000
0001
0000
0100
0000
1000
0000
0100
0000
0010
0000
0100
0000
1000
0000
,  // measure 72
0001
0010
0001
0000
1000
0000
0001
0000
,  // measure 73
0202
0000
0000
0000
0000
0000
0000
0303
,  // measure 74
0001
0010
0001
0000
0100
0000
0010
0000
1000
0100
1000
0000
0010
0000
1000
0000
,  // measure 75
0010
1000
0010
0000
0100
0000
0001
0000
0100
0010
0100
0000
0010
0000
0100
0000
,  // measure 76
2002
0000
0000
0000
,  // measure 77
0000
0000
0000
0000
,  // measure 78
0000
0000
0000
0000
,  // measure 79
0000
0000
0000
0000
0000
0000
0000
3003
,  // measure 80
0220
0000
0000
0000
,  // measure 81
0330
0000
0000
0000
;
