#TITLE:OVERD;
#SUBTITLE:;
#ARTIST:Takane Lui;
#TITLETRANSLIT:;
#SUBTITLETRANSLIT:;
#ARTISTTRANSLIT:;
#GENRE:;
#CREDIT:;
#BANNER:OVERD.png;
#BACKGROUND:OVERD-bg.png;
#LYRICSPATH:;
#CDTITLE:;
#MUSIC:OVERD.mp3;
#OFFSET:-0.270000;
#SAMPLESTART:103.599998;
#SAMPLELENGTH:14.800000;
#SELECTABLE:YES;
#DISPLAYBPM:130.000000;
#BPMS:0.000000=130.020004;
#STOPS:;
#BGCHANGES:;
#KEYSOUNDS:;
#ATTACKS:;

//---------------dance-single - ----------------
#NOTES:
     dance-single:
     :
     Beginner:
     3:
     :
// measure 0
0000
0000
0000
0000
,  // measure 1
0000
0000
0000
0000
,  // measure 2
0000
0000
0000
0000
,  // measure 3
0000
0000
0000
0000
,  // measure 4
0110
0000
0000
0000
,  // measure 5
1100
0000
0000
0000
,  // measure 6
0101
0000
0000
0000
,  // measure 7
0100
0010
0100
0000
,  // measure 8
0010
0000
0100
0000
,  // measure 9
1000
0000
0100
0000
,  // measure 10
0001
0000
0100
0000
,  // measure 11
0010
0100
0010
0000
,  // measure 12
0002
0000
0000
0000
,  // measure 13
0000
0000
0000
0000
0000
0000
0000
0003
,  // measure 14
1000
0010
1000
0000
,  // measure 15
0001
0100
0001
0000
,  // measure 16
2000
0000
0000
0000
,  // measure 17
0000
0000
0000
0000
0000
0000
0000
3000
,  // measure 18
0001
0010
0001
0000
,  // measure 19
1000
0100
1000
0000
,  // measure 20
0001
0000
0001
0000
,  // measure 21
1000
0000
1000
0000
,  // measure 22
0010
0100
0010
0000
,  // measure 23
0100
0010
0220
0000
,  // measure 24
0000
0000
0000
0000
,  // measure 25
0000
0000
0000
0000
,  // measure 26
0000
0000
0000
0000
0000
0000
0000
0330
,  // measure 27
0001
0000
0100
0010
,  // measure 28
2002
0000
0000
0000
0000
0000
0000
3003
,  // measure 29
0010
0000
1000
0001
,  // measure 30
2200
0000
0000
3300
0100
0000
0010
0000
,  // measure 31
0001
0000
0010
0100
,  // measure 32
2002
0000
0000
0000
0000
0000
0000
3003
,  // measure 33
0010
0000
0001
1000
,  // measure 34
0202
0000
0000
0000
0000
0000
0000
0303
,  // measure 35
0110
0000
1001
0000
,  // measure 36
0110
0000
1001
0000
,  // measure 37
0001
0000
0001
0000
,  // measure 38
1000
0000
1000
0000
,  // measure 39
0010
0010
0000
0000
,  // measure 40
0100
0001
1000
0000
,  // measure 41
0010
0010
0000
0000
,  // measure 42
0001
0010
0100
0000
,  // measure 43
0010
0010
0000
0000
,  // measure 44
1000
0010
0100
0010
,  // measure 45
2000
0000
0000
0000
0000
0000
0000
3000
,  // measure 46
0020
0000
0000
0000
0000
0000
0000
0030
,  // measure 47
0002
0000
0000
0000
0000
0000
0000
0003
,  // measure 48
0200
0000
0000
0000
0000
0000
0000
0300
,  // measure 49
2002
0000
0000
0000
,  // measure 50
0000
0000
0000
0000
0000
0000
0000
3003
,  // measure 51
0010
0100
0010
0100
,  // measure 52
0220
0000
0000
0000
0000
0000
0000
0330
,  // measure 53
1000
1000
0001
0001
,  // measure 54
0100
0000
0010
0100
,  // measure 55
0010
0000
0100
0010
,  // measure 56
0100
0100
0001
0001
,  // measure 57
0010
0000
0001
1000
,  // measure 58
0010
0010
1000
1000
,  // measure 59
0001
0000
1000
0100
,  // measure 60
0001
0001
1000
1000
,  // measure 61
0001
0000
0010
0100
,  // measure 62
1000
0000
0101
1100
,  // measure 63
0010
0000
0001
1000
,  // measure 64
0001
0010
0100
1000
,  // measure 65
0110
0000
0000
0000
,  // measure 66
0101
0000
0000
0000
,  // measure 67
1100
0000
0000
0000
,  // measure 68
1000
0001
1000
0000
,  // measure 69
0010
0000
0100
0000
,  // measure 70
0001
0000
0100
0000
,  // measure 71
1000
0000
0100
0000
,  // measure 72
0001
1000
0001
0000
,  // measure 73
0220
0000
0000
0000
,  // measure 74
0000
0000
0000
0000
,  // measure 75
0000
0000
0000
0000
,  // measure 76
0000
0000
0000
0000
,  // measure 77
0000
0000
0000
0000
,  // measure 78
0330
0000
0000
0000
;

//---------------dance-single - ----------------
#NOTES:
     dance-single:
     :
     Easy:
     5:
     :
// measure 0
0000
0000
0000
0000
,  // measure 1
0000
0000
0000
0000
,  // measure 2
0000
0000
0000
0000
,  // measure 3
0000
0000
0000
0000
,  // measure 4
0010
0000
0100
0000
0220
0000
0000
0330
,  // measure 5
1000
0000
0100
0000
2200
0000
0000
3300
,  // measure 6
0001
0000
0100
0000
0202
0000
0000
0303
,  // measure 7
1000
0000
0001
0000
2002
0000
0000
3003
,  // measure 8
0010
0001
1000
0100
,  // measure 9
1000
0001
1000
0010
,  // measure 10
0100
0001
0010
0100
,  // measure 11
1000
0001
1001
0110
,  // measure 12
1000
0010
0001
0010
,  // measure 13
1000
0001
0010
0100
,  // measure 14
0010
0000
0001
1000
0100
0000
1100
0000
,  // measure 15
0010
0000
1000
0001
0100
0000
0101
0000
,  // measure 16
2002
0000
0000
0000
,  // measure 17
0000
0000
0000
0000
0000
0000
0000
3003
,  // measure 18
0001
0000
1000
0100
0001
0000
0011
0000
,  // measure 19
0100
0000
0010
1000
0001
0000
1010
0000
,  // measure 20
0001
0001
0001
0001
,  // measure 21
1000
1000
1000
1000
,  // measure 22
0010
0000
0100
0000
,  // measure 23
0001
1000
0220
0000
,  // measure 24
0000
0000
0000
0000
,  // measure 25
0000
0000
0000
0000
,  // measure 26
0000
0000
0000
0000
0000
0000
0000
0330
,  // measure 27
1000
0000
0010
0000
1000
0001
0100
0000
,  // measure 28
0012
0010
0010
0010
,  // measure 29
0103
0000
0001
0000
1000
0010
0100
0000
,  // measure 30
2020
0000
0000
3030
0100
0010
0100
0000
,  // measure 31
0001
0000
1000
0000
0010
0001
0100
0000
,  // measure 32
1200
1000
1000
1000
,  // measure 33
0310
0000
1000
0000
0001
0100
0010
0000
,  // measure 34
0202
0000
0000
0000
0000
0000
0000
0303
,  // measure 35
0011
0000
1100
0000
,  // measure 36
1010
0000
0101
0000
,  // measure 37
0001
1000
0001
1000
,  // measure 38
0010
1000
0100
0000
,  // measure 39
0010
0010
0010
0000
0001
0000
1000
0000
,  // measure 40
0100
1000
0001
0000
,  // measure 41
0100
0100
0100
0000
0010
0000
1000
0000
,  // measure 42
0100
0010
0001
0000
,  // measure 43
1000
0001
1000
0000
0010
0000
0100
0000
,  // measure 44
0010
0000
0001
0000
0010
0000
0100
0200
,  // measure 45
0000
0300
0000
0000
0001
0000
1000
0000
,  // measure 46
0010
0010
0100
0000
,  // measure 47
0110
0000
1001
0000
,  // measure 48
0100
0010
0110
0000
,  // measure 49
1000
0100
0001
0100
,  // measure 50
0010
1000
0001
0100
,  // measure 51
0010
1000
0010
0000
1000
0010
1000
0000
,  // measure 52
0012
0000
0000
0000
0100
0100
0103
0000
,  // measure 53
0010
0001
0010
0000
0001
0100
0001
0000
,  // measure 54
0100
0010
1000
0010
,  // measure 55
0100
0001
0010
0001
,  // measure 56
1000
0010
1000
0000
0100
1000
0100
0000
,  // measure 57
0001
0100
0010
1000
,  // measure 58
0001
0100
0001
0000
0100
0010
0100
0000
,  // measure 59
0010
0000
1000
0000
0100
1000
0100
0000
,  // measure 60
1000
0001
1000
0000
0010
0100
0010
0000
,  // measure 61
1000
0100
0001
0100
,  // measure 62
0010
0100
0110
1001
,  // measure 63
0010
0001
1000
0001
,  // measure 64
0011
1100
1010
0101
,  // measure 65
0100
0000
0010
0000
2002
0000
0000
3003
,  // measure 66
1000
0000
0010
0000
2020
0000
0000
3030
,  // measure 67
0001
0000
0010
0000
0022
0000
0000
0033
,  // measure 68
0001
0000
1000
0000
0220
0000
0000
0330
,  // measure 69
0100
1000
0001
0010
,  // measure 70
0001
1000
0001
0100
,  // measure 71
0010
1000
0100
0010
,  // measure 72
0001
1000
0010
0100
,  // measure 73
0220
0000
0000
0000
,  // measure 74
0000
0000
0000
0000
,  // measure 75
0000
0000
0000
0000
,  // measure 76
0000
0000
0000
0000
,  // measure 77
0000
0000
0000
0000
,  // measure 78
0330
0000
0000
0000
;

//---------------dance-single - ----------------
#NOTES:
     dance-single:
     :
     Medium:
     8:
     :
// measure 0
0000
0000
0000
0000
,  // measure 1
0000
0000
0000
0000
,  // measure 2
0000
0000
0000
0000
,  // measure 3
0000
0000
0000
0000
,  // measure 4
0010
0000
0000
0000
1000
0000
0000
0000
0001
0000
0000
0101
0000
0000
0001
0000
,  // measure 5
0010
0000
0000
0000
0001
0000
0000
0000
1000
0000
0000
1100
0000
0000
1000
0000
,  // measure 6
0001
0000
0000
0000
0100
0000
0000
0000
1000
0000
0000
1010
0000
0000
1000
0000
,  // measure 7
0001
0000
0100
0000
0001
0000
0000
0000
0010
0000
0000
0011
0000
0000
0010
0000
,  // measure 8
1000
0000
0000
0000
0001
0000
0000
0000
0010
0000
0000
1100
0000
0000
1000
0000
,  // measure 9
0010
0000
0000
0000
0100
0000
0000
0000
0001
0000
0000
0011
0000
0000
0100
0000
,  // measure 10
0010
0000
0000
0000
1000
0000
0000
0000
0100
0000
0000
0101
0000
0000
0001
0000
,  // measure 11
1000
0000
0010
0000
1000
0000
0000
0000
0010
0000
0000
1010
0000
0000
0001
0000
,  // measure 12
0010
0001
1000
0100
,  // measure 13
1000
0001
1000
0000
0010
0000
0110
0000
,  // measure 14
0001
0100
0001
1000
0100
0000
0011
0000
,  // measure 15
1000
0010
1000
0001
0100
0000
1010
0000
,  // measure 16
0100
0100
0010
0010
,  // measure 17
1000
1000
0001
0001
,  // measure 18
1000
0100
0001
0100
0010
0000
0101
0000
,  // measure 19
0001
0010
1000
0001
1000
0000
1100
0000
,  // measure 20
0001
0010
0001
0000
0001
0100
0001
0000
,  // measure 21
1000
0010
1000
0100
1000
0000
1001
0000
,  // measure 22
0011
0000
0000
1100
1100
0000
0000
0010
,  // measure 23
0001
0100
0010
1000
0010
0000
0010
0000
,  // measure 24
0010
0100
0010
0000
1000
0100
1000
0000
,  // measure 25
0001
0100
0001
0000
0010
0000
0010
0000
,  // measure 26
0010
0100
0010
0000
2002
0000
0000
3003
,  // measure 27
1000
0100
0001
0000
0001
0010
1000
0000
,  // measure 28
0001
0100
0001
1000
,  // measure 29
0010
0100
0001
0000
1000
0010
0100
0000
,  // measure 30
0001
0000
0100
0000
0001
1000
0001
0000
,  // measure 31
0010
0100
1000
0000
0100
0010
0001
0000
,  // measure 32
0001
0100
1000
0010
,  // measure 33
0100
0010
1000
0000
0001
1000
0010
0000
,  // measure 34
0001
0000
0010
0000
0022
0000
0000
0033
,  // measure 35
0110
0000
0000
0000
0000
0000
0000
0000
0001
0000
0000
1000
0000
0000
0000
0000
,  // measure 36
0100
0000
0000
0010
1000
0000
0001
0000
,  // measure 37
0100
0100
0100
0100
,  // measure 38
0100
0010
0100
0010
0100
0010
0100
0010
,  // measure 39
1000
1000
1000
0000
0010
0000
0001
0000
,  // measure 40
1000
0100
1000
0000
,  // measure 41
0001
0001
0001
0000
0100
0000
0010
0000
,  // measure 42
0100
0001
1000
0000
,  // measure 43
0010
0010
0010
0000
0100
0000
0001
0000
,  // measure 44
0010
0000
0001
0000
1000
0000
1000
0200
,  // measure 45
0000
0300
0000
0100
0001
1000
0001
0000
,  // measure 46
0100
0100
0010
0010
0100
0000
0000
0100
,  // measure 47
0001
0001
0000
0000
1000
1000
0000
0100
,  // measure 48
1000
0100
0010
0001
0010
0000
0000
0100
,  // measure 49
0010
0100
0001
0000
0100
1000
0010
0000
,  // measure 50
0100
0010
1000
0001
,  // measure 51
1000
0010
0100
0000
0001
0100
0010
0000
,  // measure 52
2200
0000
0000
3300
0001
0100
0001
0000
,  // measure 53
0010
1000
0100
0000
0100
0010
0001
0000
,  // measure 54
1000
0100
0001
0100
,  // measure 55
1000
0000
0010
0000
0001
0010
1000
0000
,  // measure 56
0010
0100
0001
0000
0100
0010
1000
0000
,  // measure 57
0100
0001
0010
0001
,  // measure 58
1000
0100
0001
0000
0001
0100
0010
0000
,  // measure 59
0100
1000
0010
0000
0100
0001
1000
0000
,  // measure 60
0100
1000
0010
0000
0100
0010
0001
0000
,  // measure 61
0010
0001
0100
0010
,  // measure 62
1000
0000
0001
0000
0001
0010
0001
1000
,  // measure 63
0100
0010
0100
0000
0010
0000
1001
0000
,  // measure 64
1010
0011
0101
1100
,  // measure 65
0100
0000
0000
0000
0001
0000
0000
0000
1000
0000
0000
1010
0000
0000
1000
0000
,  // measure 66
0100
0000
0000
0000
1000
0000
0000
0000
0001
0000
0000
0011
0000
0000
0001
0000
,  // measure 67
1000
0000
0000
0000
0010
0000
0000
0000
0001
0000
0000
0101
0000
0000
0001
0000
,  // measure 68
1000
0000
0010
0000
1000
0000
0000
0000
0100
0000
0000
1100
0000
0000
0100
0000
,  // measure 69
0001
0000
0000
0000
1000
0000
0000
0000
0100
0000
0000
0011
0000
0000
0001
0000
,  // measure 70
0100
0000
0000
0000
0010
0000
0000
0000
1000
0000
0000
1100
0000
0000
0010
0000
,  // measure 71
0100
0000
0000
0000
0001
0000
0000
0000
0010
0000
0000
1010
0000
0000
1000
0000
,  // measure 72
0001
0000
0001
0000
0202
0000
0000
0003
,  // measure 73
0010
0000
0010
0000
0010
0010
0010
0000
,  // measure 74
1000
1000
1000
0000
0001
0001
0001
0000
,  // measure 75
0310
0000
0010
0000
0010
0100
0010
0000
,  // measure 76
1000
0010
1000
0000
0001
0010
0001
0000
,  // measure 77
0220
0000
0000
0000
,  // measure 78
0330
0000
0000
0000
;

//---------------dance-single - ----------------
#NOTES:
     dance-single:
     :
     Hard:
     13:
     :
// measure 0
0000
0000
0000
0000
,  // measure 1
0000
0000
0000
0000
,  // measure 2
0000
0000
0000
0000
,  // measure 3
0000
0000
0000
0000
,  // measure 4
0010
0000
0000
0000
1100
0000
0000
0000
0010
0000
0000
0110
0000
0000
0001
0000
,  // measure 5
1000
0000
0000
0000
0101
0000
0000
0000
0001
0000
0000
1001
0000
0000
0100
0000
,  // measure 6
0001
0000
0000
0000
0110
0000
0000
0000
1000
0000
0000
0110
0000
0000
0010
0000
,  // measure 7
1000
0000
0100
0000
0001
0000
0100
0000
1000
0010
0000
1001
0000
0000
0100
0000
,  // measure 8
0010
0000
0000
0000
0101
0000
0000
0000
0001
0000
0000
0110
0000
0000
1000
0000
,  // measure 9
0001
0000
0000
0000
1100
0000
0000
0000
0010
0000
0000
1001
0000
0000
1000
0000
,  // measure 10
0001
0000
0000
0000
0110
0000
0000
0000
0010
0000
0000
0110
0000
0000
1000
0000
,  // measure 11
0010
0000
0001
0000
0010
0000
1000
0000
0100
0001
0000
1001
0000
0000
0010
0000
,  // measure 12
1000
0100
1000
0001
0010
0100
0001
1000
,  // measure 13
0100
0010
1000
0010
0100
0001
0010
0100
,  // measure 14
1000
0100
1000
0000
0001
0000
0100
0001
0000
0000
1000
0000
0010
0000
0100
0000
,  // measure 15
0001
0010
0001
0000
1000
0100
1000
0001
0000
0000
0100
0000
0010
0000
1000
0000
,  // measure 16
0000
0002
0000
0000
0000
0200
0003
0000
0000
2000
0300
0000
0000
0020
3000
0000
,  // measure 17
0000
0031
0010
0100
1000
0100
0010
0001
,  // measure 18
0100
1000
0010
1000
0010
0100
0001
0010
0000
0000
0100
0000
1000
0000
0001
0000
,  // measure 19
0100
0010
0100
0001
0000
0010
0100
1000
0000
0000
0100
0000
0010
0000
0001
0000
,  // measure 20
1000
0010
0001
0010
1000
0100
0001
0100
,  // measure 21
0010
0001
1000
0010
0100
1000
0100
0001
,  // measure 22
0010
0010
0000
0001
0000
1000
1000
0000
0010
0000
1000
0000
0100
0000
1000
0000
,  // measure 23
0010
0000
0100
0000
0001
0000
0100
0000
0010
0000
1000
0100
1000
0000
0001
0100
,  // measure 24
0001
0010
0011
0000
1000
0100
1100
0000
,  // measure 25
0001
0000
1000
0000
1001
0000
0010
0001
0010
0000
0010
1000
0010
0000
0010
0100
,  // measure 26
0010
0001
0100
0000
0010
1000
0100
0010
,  // measure 27
0001
0000
0010
1000
0001
0000
0010
0000
0100
0000
0010
0000
0001
0000
0000
0000
,  // measure 28
0100
0000
0010
0001
1000
0000
0100
0000
0010
0000
0100
0000
1000
0000
0000
0000
,  // measure 29
1000
0000
0010
1000
0100
0000
0001
0000
0010
0000
0100
0000
1000
0000
0000
0000
,  // measure 30
0010
0000
0100
0001
0010
0000
1000
0000
0010
0000
0001
0000
0010
0000
0000
0000
,  // measure 31
1000
0000
0100
1000
0100
0000
0010
1000
0010
0000
1000
0000
0001
0000
0000
0000
,  // measure 32
0001
0000
0100
0001
0100
0000
0001
0010
0001
0000
1000
0000
0010
0000
0100
0000
,  // measure 33
0010
0000
0100
0000
0001
1000
0001
1000
,  // measure 34
0010
0100
0010
0100
0001
1000
0001
1000
0020
0000
0000
0000
0000
0000
0030
0000
,  // measure 35
0110
0000
0000
0000
0000
0000
0100
0000
0011
0000
0000
1001
0000
0000
1000
0000
,  // measure 36
0110
0000
0010
0110
0101
0000
0100
0001
,  // measure 37
1000
0100
0000
1000
0000
0000
0001
0000
0100
0000
0001
0000
0010
0000
1000
0000
,  // measure 38
0010
0000
0100
0000
0001
0000
0010
0000
2000
0000
0000
0000
3000
0010
0001
0000
,  // measure 39
1010
1000
1001
0010
0001
0100
0010
1000
,  // measure 40
0100
0000
1000
0000
0001
0000
0100
0000
0002
0000
0000
0000
0003
0000
0100
0010
,  // measure 41
0011
0001
1001
0100
0010
1000
0010
0001
,  // measure 42
0100
0000
0010
0000
0100
0000
0001
0000
2000
0000
0000
0000
3000
0010
0100
0010
,  // measure 43
1100
0100
0101
0010
0001
1000
0100
0001
,  // measure 44
0100
1000
0010
0001
0010
0100
0010
0002
,  // measure 45
0000
1000
0000
0103
0010
1000
0010
0100
,  // measure 46
0001
0000
0010
0000
0001
0000
1000
0000
0200
0000
0000
0000
0300
0001
0010
0001
,  // measure 47
0010
0010
0000
1000
0001
1000
0000
0100
,  // measure 48
1000
0000
0100
0000
0010
0000
0001
0000
2000
0000
0000
0000
3000
0010
0100
0000
,  // measure 49
0010
0000
0010
0000
0010
0000
0100
0001
1000
0000
0010
0000
0100
0000
0000
0000
,  // measure 50
0100
0001
0010
0100
0010
0001
0100
1000
,  // measure 51
0010
0000
0010
0000
0010
1000
0000
0100
1000
0000
0010
0000
0001
0000
0000
0000
,  // measure 52
0010
0100
1000
0100
0001
0100
0010
0100
0010
0000
0001
0000
1000
0000
0010
0000
,  // measure 53
1100
0000
1100
0000
1100
0000
1000
0001
0011
0000
0011
0000
0011
0000
0000
0000
,  // measure 54
1000
0010
0001
0010
0100
1000
0001
1000
,  // measure 55
0010
0100
0010
0001
0010
0100
0010
0001
1000
0000
1100
0000
1001
0000
0100
0000
,  // measure 56
1010
0000
1010
0000
1010
0000
0100
0010
0101
0000
0101
0000
0101
0000
0000
0000
,  // measure 57
0100
0010
1000
0010
0100
0010
0001
0010
,  // measure 58
0011
0000
0011
0000
0011
0000
0100
0010
1010
0000
1010
0000
1010
0000
0000
0000
,  // measure 59
0100
0001
1000
0001
0010
0100
0010
1000
0010
0000
0001
0000
1000
0000
0100
0000
,  // measure 60
1100
0000
1100
0000
1100
0000
1000
0001
0101
0000
0101
0000
0101
0000
0000
0000
,  // measure 61
0010
0100
0010
0001
1000
0010
0100
1000
,  // measure 62
0001
0010
0001
0100
0001
1000
0001
0100
0010
0000
0010
0000
0100
0000
0100
0000
,  // measure 63
0101
0000
1100
0000
0101
0000
0001
1000
1010
0000
0011
0000
1010
0000
0100
0000
,  // measure 64
0010
0000
0001
0010
0001
0000
0100
0000
0001
0000
0010
0000
0100
0000
1000
0000
,  // measure 65
0010
0000
0000
0000
1100
0000
0000
0000
0010
0000
0000
0110
0000
0000
0001
0000
,  // measure 66
1000
0000
0000
0000
0101
0000
0000
0000
0001
0000
0000
1001
0000
0000
0100
0000
,  // measure 67
0001
0000
0000
0000
0110
0000
0000
0000
1000
0000
0000
0110
0000
0000
0010
0000
,  // measure 68
1000
0000
0100
0000
0001
0000
0100
0000
1000
0000
0000
1001
0000
0000
0100
0000
,  // measure 69
0010
0000
0000
0000
0101
0000
0000
0000
0001
0000
0000
0110
0000
0000
1000
0000
,  // measure 70
0001
0000
0000
0000
1100
0000
0000
0000
0010
0000
0000
1001
0000
0000
1000
0000
,  // measure 71
0001
0000
0000
0000
0110
0000
0000
0000
0010
0000
0000
0110
0000
0000
1000
0000
,  // measure 72
0010
0000
0001
0000
0010
0000
1000
0000
0200
0000
0000
0000
0000
0000
0310
0100
,  // measure 73
0010
0000
0001
0010
0001
0000
1000
0010
1000
0100
1000
0000
0100
0000
0000
0000
,  // measure 74
0001
0100
0001
0000
0010
0000
0000
0000
1000
0001
1000
0000
0001
0000
0100
0010
,  // measure 75
0100
0000
0100
1000
0100
0000
0100
0001
0100
0010
1000
0000
0100
0000
0000
0000
,  // measure 76
0100
1000
0100
0010
0001
0010
0100
1000
,  // measure 77
0220
0000
0000
0000
,  // measure 78
0330
0000
0000
0000
;
