#TITLE:ONE TWO;
#SUBTITLE:(LITTLE BITCH);
#ARTIST:BUSā˜…STOP;
#TITLETRANSLIT:;
#SUBTITLETRANSLIT:;
#ARTISTTRANSLIT:;
#CREDIT:;
#BANNER:ONE TWO (LITTLE BITCH).png;
#BACKGROUND:ONE TWO (LITTLE BITCH)-bg.png;
#JACKET:ONE TWO (LITTLE BITCH)-jacket.png;
#LYRICSPATH:;
#CDTITLE:;
#MUSIC:ONE TWO (LITTLE BITCH).ogg;
#OFFSET:0.000;
#SAMPLESTART:18.201;
#SAMPLELENGTH:15.000;
#SELECTABLE:YES;
#DISPLAYBPM:145.000;
#BPMS:0.000=145.044;
#STOPS:;
#BGCHANGES:;

//---------------dance-single - ----------------
#NOTES:
     dance-single:
     :
     Beginner:
     4:
     :
// measure 1
0000
0000
0000
0000
,  // measure 2
0000
0000
0000
0000
,  // measure 3
0000
0000
0000
0000
,  // measure 4
0000
0000
0000
0000
,  // measure 5
0000
0000
0000
0000
,  // measure 6
0000
0000
0000
0000
,  // measure 7
0000
0000
0000
0000
,  // measure 8
0000
0000
0000
0000
,  // measure 9
0000
0000
0000
0000
,  // measure 10
0000
0000
0000
0000
,  // measure 11
0000
0000
0000
0000
,  // measure 12
0010
0000
1000
0000
,  // measure 13
0001
0000
1000
0000
,  // measure 14
0100
0000
1000
0000
,  // measure 15
0001
0000
0010
0000
,  // measure 16
0001
0000
1000
0000
,  // measure 17
0001
0000
0101
0000
,  // measure 18
0100
0000
0010
0000
,  // measure 19
1000
0100
0001
0000
,  // measure 20
0000
0010
0100
0000
,  // measure 21
1000
0000
1000
0000
,  // measure 22
0001
0100
0001
0000
,  // measure 23
0010
0000
1000
0000
,  // measure 24
0010
0001
0000
1100
,  // measure 25
0001
0000
0001
0000
,  // measure 26
1000
0100
1000
0000
,  // measure 27
0010
0000
0001
0000
,  // measure 28
0100
0010
0000
1001
,  // measure 29
0100
0000
0010
0000
,  // measure 30
1000
0000
0010
0000
,  // measure 31
0001
0000
0010
0000
,  // measure 32
1000
0000
0100
0000
,  // measure 33
0001
0000
0010
0000
,  // measure 34
0001
0000
0100
0000
,  // measure 35
0010
0000
1000
0000
,  // measure 36
0100
0000
0010
0000
,  // measure 37
0001
0000
1000
0000
,  // measure 38
0001
0100
0000
0100
,  // measure 39
0010
0000
0010
0000
,  // measure 40
0100
0000
0100
0000
,  // measure 41
1000
0000
0001
0000
,  // measure 42
0100
0010
0000
0010
,  // measure 43
1000
0000
1000
0000
,  // measure 44
0001
0000
0001
0000
,  // measure 45
0010
0000
0001
0000
,  // measure 46
1000
0000
0001
0000
,  // measure 47
0100
0000
0001
0000
,  // measure 48
1000
0000
0010
0000
,  // measure 49
1000
0000
0001
0000
,  // measure 50
1000
0000
1100
0000
,  // measure 51
0100
0000
0001
0000
,  // measure 52
1000
0010
0100
0000
,  // measure 53
0000
0001
1000
0000
,  // measure 54
1001
0000
0000
0000
;

//---------------dance-single - ----------------
#NOTES:
     dance-single:
     :
     Easy:
     5:
     :
// measure 1
0000
0000
0000
0000
,  // measure 2
0000
0000
0000
0000
,  // measure 3
0000
0000
0000
0000
,  // measure 4
0000
0000
0000
0000
,  // measure 5
0000
0000
0000
0000
,  // measure 6
0000
0000
0000
0000
,  // measure 7
0000
0000
0000
0000
,  // measure 8
0000
0000
0000
0000
,  // measure 9
0000
0000
0000
0000
,  // measure 10
0000
0000
0000
0000
,  // measure 11
0000
0000
0000
0000
,  // measure 12
0010
0010
0001
0001
,  // measure 13
1000
1000
0001
0001
,  // measure 14
0100
0100
0001
0001
,  // measure 15
1000
1000
0010
0010
,  // measure 16
1000
1000
0001
0001
,  // measure 17
1000
1000
1100
0100
,  // measure 18
0100
0001
0001
0100
,  // measure 19
0010
1000
0001
0000
,  // measure 20
0000
0011
1010
0000
,  // measure 21
1000
0001
1000
0100
,  // measure 22
0010
0100
1000
0001
,  // measure 23
0010
0010
0001
1000
,  // measure 24
0100
0100
0000
0011
,  // measure 25
1000
0010
0001
0010
,  // measure 26
1000
0010
0100
0001
,  // measure 27
0010
0010
0100
0100
,  // measure 28
1000
0010
0000
0000
,  // measure 29
1000
1000
0001
0001
,  // measure 30
0010
0100
1000
0100
,  // measure 31
0000
0001
0001
0100
,  // measure 32
0010
1000
1000
0100
,  // measure 33
0000
0010
0001
0001
,  // measure 34
0010
0001
1000
0001
,  // measure 35
0010
0001
0100
0001
,  // measure 36
1000
0010
0100
0001
,  // measure 37
1100
0000
0101
0000
,  // measure 38
0001
0100
0010
1000
,  // measure 39
0001
0001
0001
0000
,  // measure 40
0000
1000
1000
0000
,  // measure 41
0101
0000
1100
0000
,  // measure 42
0010
0100
0001
0100
,  // measure 43
0010
1000
0001
0000
,  // measure 44
0000
0001
1000
0000
,  // measure 45
0010
0010
1000
1000
,  // measure 46
0001
0001
1000
1000
,  // measure 47
0100
0100
1000
1000
,  // measure 48
0001
0001
0010
0010
,  // measure 49
0001
0001
1000
1000
,  // measure 50
0001
0001
0101
0100
,  // measure 51
0100
0010
0010
1000
,  // measure 52
0100
0010
0001
0000
,  // measure 53
0000
1010
0011
0000
,  // measure 54
1001
0000
0000
0000
;

//---------------dance-single - ----------------
#NOTES:
     dance-single:
     :
     Medium:
     8:
     :
// measure 1
0000
0000
0000
0000
,  // measure 2
0000
0000
0000
0000
,  // measure 3
0000
0000
0000
0000
,  // measure 4
0000
0000
0000
0000
,  // measure 5
0000
0000
0000
0000
,  // measure 6
0000
0000
0000
0000
,  // measure 7
0000
0000
0000
0000
,  // measure 8
0000
0000
0000
0000
,  // measure 9
0000
0000
0000
0000
,  // measure 10
0000
0000
0000
0000
,  // measure 11
0000
0000
0000
0000
,  // measure 12
1000
0100
0001
0100
,  // measure 13
1000
0000
0010
0000
0001
1000
0010
0000
,  // measure 14
1000
0000
0100
0000
0010
0000
0000
0001
,  // measure 15
0010
0000
0001
0000
1000
0010
0100
0000
,  // measure 16
0001
1000
0100
0001
,  // measure 17
0010
1000
0001
0000
0110
0000
0001
0000
,  // measure 18
0100
0000
1000
0000
0100
0000
0010
0001
,  // measure 19
1000
0000
0010
1000
0001
0000
0000
0000
,  // measure 20
0000
0101
1100
0000
,  // measure 21
0010
0001
1000
0010
,  // measure 22
1000
0001
0100
0000
1000
0000
0001
0010
,  // measure 23
1000
0000
0001
0000
1000
0000
0000
0100
,  // measure 24
0010
0001
0000
0000
0000
1000
0001
0000
,  // measure 25
0100
0001
1000
0001
,  // measure 26
0010
1000
0100
0000
0001
0000
1000
0010
,  // measure 27
0001
0000
1000
0000
0100
0000
0000
0001
,  // measure 28
0100
0010
0000
0000
0000
0010
0100
0000
,  // measure 29
1000
0001
0100
0010
,  // measure 30
1000
0100
1000
0001
,  // measure 31
0100
0001
1000
0010
,  // measure 32
0010
0100
0001
1000
,  // measure 33
0001
0000
0010
1000
0010
0000
0100
0000
,  // measure 34
0100
0010
0001
0000
0010
0100
1000
0000
,  // measure 35
0001
0001
0001
0000
1000
1000
1000
0000
,  // measure 36
0011
1100
1010
0101
,  // measure 37
0001
0010
0000
0000
1000
0100
0000
0000
,  // measure 38
0001
0000
0100
0010
0000
0000
0010
1000
,  // measure 39
0000
0100
0010
0100
0010
0000
0000
0000
,  // measure 40
0000
0001
1000
0001
1000
0000
0000
0000
,  // measure 41
0010
1000
0000
0000
0001
0100
0000
0000
,  // measure 42
1000
0000
0010
0001
0000
0000
0001
1000
,  // measure 43
0000
0100
0001
1000
0001
0000
0000
0000
,  // measure 44
0000
1000
0100
0010
0100
0000
0000
0000
,  // measure 45
0001
0010
1000
0010
,  // measure 46
0001
0000
0100
0000
1000
0001
0100
0000
,  // measure 47
0001
0000
0010
0000
0100
0000
0000
1000
,  // measure 48
0100
0000
1000
0000
0001
0100
0010
0000
,  // measure 49
1000
0001
0010
1000
,  // measure 50
0100
0001
1000
0000
1001
0000
1000
0000
,  // measure 51
0010
0000
0001
0000
0010
0000
0100
1000
,  // measure 52
0001
0000
0100
0001
1000
0000
0000
0000
,  // measure 53
0000
1100
0101
0000
,  // measure 54
1001
0000
0000
0000
;

//---------------dance-single - ----------------
#NOTES:
     dance-single:
     :
     Hard:
     11:
     :
// measure 1
0000
0000
0000
0000
,  // measure 2
0000
0000
0000
0000
,  // measure 3
0000
0000
0000
0000
,  // measure 4
0000
0000
0000
0000
,  // measure 5
0000
0000
0000
0000
,  // measure 6
0000
0000
0000
0000
,  // measure 7
0000
0000
0000
0000
,  // measure 8
0000
0000
0000
0000
,  // measure 9
0000
0000
0000
0000
,  // measure 10
0000
0000
0000
0000
,  // measure 11
0000
0000
0000
0000
,  // measure 12
1000
0001
1000
0010
1000
0100
1000
0001
,  // measure 13
0100
0010
1000
0100
1000
0010
0001
0010
,  // measure 14
0100
0001
1000
0010
1000
0001
0010
0100
,  // measure 15
0010
0001
1000
0010
1000
0100
1000
0010
,  // measure 16
0100
0001
1000
0100
0001
0100
1000
0100
,  // measure 17
0010
0001
0010
1000
0010
0001
1000
0010
,  // measure 18
0100
0100
0010
0001
1000
1000
0001
0010
,  // measure 19
0001
1000
0100
0010
0001
0010
0100
1000
,  // measure 20
0100
0011
1100
0110
,  // measure 21
0001
0010
0000
0000
0000
0000
0000
0000
0010
0100
0000
0000
0000
0000
0000
0000
1000
0100
0000
0000
0000
0000
0000
0000
1000
0010
0000
0000
0000
0000
0000
0000
,  // measure 22
0100
0001
0010
0001
1000
0000
0100
0001
,  // measure 23
0010
0000
0011
0000
0101
0000
0000
1000
,  // measure 24
0100
0000
0010
0000
1000
0000
0001
0000
0000
0000
0100
0010
0110
0000
0000
0000
,  // measure 25
1000
0010
0000
0000
0000
0000
0000
0000
0010
0100
0000
0000
0000
0000
0000
0000
0001
0100
0000
0000
0000
0000
0000
0000
0001
0010
0000
0000
0000
0000
0000
0000
,  // measure 26
0001
1000
0010
1000
0100
0000
0010
1000
,  // measure 27
0001
0000
1010
0000
1100
0000
0000
0100
,  // measure 28
0010
0001
0010
1000
0000
1000
0100
0000
,  // measure 29
0100
0010
0100
1000
0100
0010
0001
0000
,  // measure 30
1000
0000
0010
0000
1000
0000
0001
0010
0001
0000
0100
0000
0010
0000
0000
0000
,  // measure 31
0000
0000
0000
0100
1000
0000
0010
0000
0001
0000
0100
0000
0001
0000
0010
0000
,  // measure 32
0100
1000
0100
0001
0001
1000
1000
0000
,  // measure 33
0000
0000
0000
0010
0001
0000
0100
0000
0001
0000
0010
0000
0100
0000
0000
0000
,  // measure 34
1000
0000
0010
0000
1000
0100
0000
0000
0001
0000
0100
0000
0001
0000
0000
0100
,  // measure 35
0010
0100
0001
1000
0100
1000
0010
0000
,  // measure 36
0001
0000
0010
0000
0100
0000
1000
0100
0010
0000
0001
0000
1000
0000
0000
0000
,  // measure 37
0010
0110
0000
0000
0001
0011
0000
0000
,  // measure 38
0010
0100
0001
0010
0000
0000
0010
1100
,  // measure 39
0000
0000
0010
0100
1000
0000
0001
0000
1000
0000
0000
0000
0000
0000
0000
0000
,  // measure 40
0000
0000
0010
1000
0100
0000
1000
0000
0001
0000
0100
0000
0000
0000
0000
0000
,  // measure 41
0001
0101
0000
0000
1000
1010
0000
0000
,  // measure 42
0100
0001
1000
0010
0000
0000
0100
1001
,  // measure 43
0000
0000
0100
0010
0001
0000
1000
0000
0001
0000
0000
0000
0000
0000
0000
0000
,  // measure 44
0000
1000
0001
0100
0010
0001
0000
0000
,  // measure 45
1000
0001
0010
0100
0010
0001
0100
1000
,  // measure 46
0100
0001
0100
1000
0100
0010
1000
1000
,  // measure 47
0010
0100
0001
0001
0100
0010
1000
0010
,  // measure 48
0001
0010
1000
0010
0001
1000
0010
0100
,  // measure 49
0010
0100
0001
0001
1000
1000
0010
1000
,  // measure 50
0001
1000
0100
0100
1000
0001
0100
0001
,  // measure 51
0010
0001
0100
0010
1000
1000
0100
0010
,  // measure 52
0001
1000
0100
1000
0001
0100
0010
0100
,  // measure 53
0001
1010
0101
0000
,  // measure 54
1001
0000
0000
0000
;
