#TITLE:Never Say Never;
#SUBTITLE:(from DANGANRONPA);
#ARTIST:TKDz2b with The 49ers, Natalie Oliveri and Tribeca;
#TITLETRANSLIT:;
#SUBTITLETRANSLIT:;
#ARTISTTRANSLIT:;
#GENRE:;
#CREDIT:;
#BANNER:Never Say Never.png;
#BACKGROUND:Never Say Never-bg.png;
#LYRICSPATH:;
#CDTITLE:;
#MUSIC:Never Say Never.mp3;
#OFFSET:-0.250000;
#SAMPLESTART:34.919998;
#SAMPLELENGTH:28.459999;
#SELECTABLE:YES;
#DISPLAYBPM:128.000000;
#BPMS:0.000000=127.949997;
#STOPS:;
#BGCHANGES:;
#KEYSOUNDS:;
#ATTACKS:;

//---------------dance-single - ----------------
#NOTES:
     dance-single:
     :
     Beginner:
     3:
     :
0000
0000
0000
0000
,
0000
0000
0000
0000
,
0000
0100
0100
0001
,
0000
0010
0000
0100
,
0000
0010
0001
1000
,
0000
0100
0000
0010
,
0000
0001
0100
0010
,
0000
1000
0000
0001
,
0010
0100
1000
0100
,
0000
0010
0000
0001
,
0100
0010
1000
0002
,
0000
0100
0000
0023
,
0000
0001
0000
0230
,
0000
1000
0000
2300
,
0000
0010
0000
3200
,
0000
0010
1300
0020
,
0000
0001
0130
0002
,
0000
0100
0013
2000
,
0000
0100
3010
0001
,
0100
0001
0000
1000
,
0100
1000
0000
0010
,
0100
0010
0000
1001
,
0000
0110
0000
2000
,
0000
0001
0000
0100
,
0000
0001
0000
3010
,
0000
0100
0010
0001
,
0000
0110
0000
1000
,
0100
1000
0000
0001
,
0010
0001
0000
1001
,
0000
0110
0000
1000
,
0001
1000
0000
2200
,
0000
0000
3300
0022
,
0000
0000
0033
0200
,
0020
0000
0030
0001
,
0000
0001
0000
0301
,
0010
0100
0000
1000
,
0100
0010
0000
0110
,
0000
1001
0000
0001
,
1000
0001
0000
0202
,
0000
0000
0303
2020
,
0000
0000
3030
0002
,
0000
0000
0000
0000
,
0000
0100
0010
2003
,
0000
0000
0000
3002
,
0000
0000
0000
0203
,
0000
0000
0000
0320
,
0000
0000
0000
0030
;

//---------------dance-single - ----------------
#NOTES:
     dance-single:
     :
     Easy:
     5:
     :
0000
0000
0000
0000
,
0000
0000
0000
0000
,
0000
0010
0010
0100
,
0001
0100
0010
1000
,
0001
1000
0100
0001
,
0100
0010
1000
0010
,
0001
0010
0100
0010
,
1000
0001
0100
0010
,
0010
0001
0001
0100
,
0100
1000
1000
0010
,
0100
0000
0001
0000
1000
0000
0010
0001
,
0010
0000
2200
0000
3300
0000
0100
0001
,
0100
0000
0202
0000
0303
0000
0010
1000
,
0010
0000
2020
0000
3030
0000
0100
1000
,
0100
0000
0022
0000
0033
0000
1000
0100
,
0001
0000
0100
0000
1000
0000
0010
0001
,
0100
0000
0010
0000
1000
0000
0001
0100
,
1000
0000
0100
0000
0001
0000
0010
1000
,
0100
0010
0001
1000
,
0100
0010
0100
1000
,
1000
0100
0100
0010
,
0001
0010
0100
1000
,
0010
0100
0001
0010
,
0010
0001
0001
0010
,
0100
1000
0010
0001
,
0100
0010
0100
1000
,
0001
0100
1000
0001
,
0010
0100
0010
1000
,
0001
0100
0001
0010
,
0010
0001
0010
0100
,
0010
0001
1000
0100
,
0010
1000
0010
0001
,
0100
1000
0100
0001
,
0010
1000
0001
0100
,
1000
0001
0100
1000
,
0010
0100
0010
0001
,
0100
0010
1000
0010
,
0010
0100
0001
1000
,
0100
0001
0100
1000
,
0100
0010
0001
0001
,
0010
0100
1000
0220
,
0000
0000
0000
0000
,
0300
0100
0100
1030
,
0100
0001
0100
1000
,
0010
0001
0010
0100
,
1000
0010
0100
0001
,
0010
0002
0000
0003
;

//---------------dance-single - ----------------
#NOTES:
     dance-single:
     :
     Medium:
     9:
     :
// measure 0
0000
0000
0000
0000
,  // measure 1
0000
0000
0000
0000
,  // measure 2
0000
0000
0001
1000
0001
1000
0001
0010
,  // measure 3
0100
0000
0100
0010
0001
0000
0001
1000
,  // measure 4
0010
0000
0010
0100
0001
0000
0001
0010
,  // measure 5
1000
0001
1000
0100
0010
0000
0010
0100
,  // measure 6
0001
0010
0001
0100
1000
0000
0001
0010
,  // measure 7
1000
0100
0001
0000
0110
0000
0001
0100
,  // measure 8
1000
0000
1000
0100
0001
0000
1001
0000
,  // measure 9
0001
1000
0100
0010
0100
0000
1000
0100
,  // measure 10
0010
0000
0001
0010
0100
0000
1000
0100
,  // measure 11
1000
0001
0011
0000
1100
0000
0001
0100
,  // measure 12
0010
0001
1000
0010
0100
0000
0010
0100
,  // measure 13
0001
0000
1000
0000
0010
0000
0001
0000
0010
0000
0000
0000
0001
0010
0001
0000
,  // measure 14
1000
0000
0100
0010
0000
0010
0001
0000
1000
0000
0001
0000
0000
0000
0100
0010
,  // measure 15
0100
0001
0100
0000
0010
0000
1000
0000
0010
0000
0001
0000
1010
0000
1000
0000
,  // measure 16
1000
1000
0101
0001
0001
0000
0101
0000
,  // measure 17
1100
0000
1010
0000
0011
0000
1000
0100
,  // measure 18
0010
0000
0001
0100
0001
0000
1000
0100
1000
0000
0001
0000
0100
0000
0000
0010
,  // measure 19
0000
0000
1000
0000
0010
0000
0000
0100
0000
0000
0010
0000
1000
0000
0000
0001
,  // measure 20
0000
0000
0010
0000
0001
0000
0000
0100
0000
0000
0001
0000
0002
0000
0000
0000
,  // measure 21
0000
0013
0020
0000
0000
1030
2000
0000
,  // measure 22
0000
3100
0200
0000
0000
0000
0301
0000
,  // measure 23
1000
0010
0000
0100
0000
0010
0001
1000
,  // measure 24
0001
0000
0100
0010
0100
0000
2000
0000
,  // measure 25
0010
0000
0001
0000
0010
0000
3100
0010
,  // measure 26
0001
0000
1000
0000
0010
0000
0100
0000
0001
0000
0100
0000
0010
0000
0000
0200
,  // measure 27
0000
0000
0001
0000
0301
0000
0000
2000
0000
0000
0100
0000
3100
0000
0000
0020
,  // measure 28
0000
0000
1000
0000
1030
0000
0000
0002
0000
0000
0010
0000
0013
0000
0000
0000
,  // measure 29
0110
0011
0000
1010
0000
0101
0000
1100
,  // measure 30
0000
2002
0000
0000
0000
3003
0001
0000
,  // measure 31
1000
0010
0000
0010
0001
1000
0100
0000
,  // measure 32
0001
0100
0000
1000
0100
0010
1001
0000
,  // measure 33
0220
0000
0000
0000
0030
0000
0310
1000
,  // measure 34
0100
0000
1000
0000
0010
0000
0001
0000
0100
0000
0010
0000
1000
0000
0000
2000
,  // measure 35
0000
0000
0001
0000
3100
0000
0000
0200
0000
0000
1000
0000
0310
0000
0000
0020
,  // measure 36
0000
0000
0100
0000
0031
0000
0000
0002
0000
0000
0010
0000
1003
0000
0000
0000
,  // measure 37
1001
0101
0000
1100
0000
1010
0000
0011
,  // measure 38
0000
0220
0000
0000
0000
0330
1001
0000
,  // measure 39
1000
0001
0000
0100
1000
0001
0110
0000
,  // measure 40
0100
0010
0000
0001
0100
0010
1000
0100
,  // measure 41
0010
0001
0010
0100
1000
0000
0001
0010
,  // measure 42
0100
1000
0100
0010
0001
0000
0100
0001
,  // measure 43
0100
0000
0010
0000
1000
0000
1000
0010
,  // measure 44
1000
0000
0100
0000
0001
0000
0010
0001
,  // measure 45
0010
0000
0100
0000
1000
0000
1000
0100
,  // measure 46
1000
0000
0000
0000
1100
0000
0000
0101
0000
0000
0110
0000
0000
0000
0000
0000
;

//---------------dance-single - ----------------
#NOTES:
     dance-single:
     :
     Hard:
     13:
     :
// measure 0
0000
0000
0000
0000
,  // measure 1
0000
0000
0000
0000
,  // measure 2
0000
0000
0000
0000
0000
0000
0000
0000
0000
0000
0100
0001
0010
0001
1000
0000
,  // measure 3
0100
0000
0000
0000
0010
0000
0001
1000
0000
0000
0000
0100
0000
0010
0001
0010
,  // measure 4
0100
0000
1000
0100
0001
0000
1000
0000
0010
0000
0000
0100
0000
0010
0001
0000
,  // measure 5
1000
0000
0010
1000
0000
1000
0001
0000
0100
0000
0010
0001
0010
0000
1000
0100
,  // measure 6
0000
0001
0100
0001
0010
0000
1000
0010
0000
0010
0100
0000
0100
0000
0001
0000
,  // measure 7
1000
0000
0010
0001
0000
0001
0100
0000
0010
0000
0000
1000
0100
0000
0001
0010
,  // measure 8
0000
0001
0000
0100
0010
1000
0010
0100
0001
0000
0000
0000
1001
0000
0000
0000
,  // measure 9
0100
0010
0100
0000
0001
1000
0100
0000
0002
0000
0000
0000
0103
0010
0100
0010
,  // measure 10
0100
0000
0001
1000
0000
1000
0100
0000
0110
0000
0000
0000
1000
0000
0100
0000
,  // measure 11
0001
0100
0010
0000
0100
0000
0010
0000
1000
0010
0000
0000
0100
0010
0001
0010
,  // measure 12
0100
0000
1000
0100
1000
0000
0011
0000
0000
0101
0000
0000
1000
0001
0100
0001
,  // measure 13
0010
0000
1000
0010
0100
0010
0001
1000
0100
0000
0001
0000
0100
0010
0100
0000
,  // measure 14
0010
0000
1000
0100
0000
0010
0001
0000
1000
0000
1100
0000
0000
0000
0100
0010
,  // measure 15
0001
0010
1000
0100
1000
0001
1000
0010
0001
0010
0100
0000
1000
0010
0100
0010
,  // measure 16
1000
0100
0010
0001
0010
0100
0010
0000
2010
0000
0000
0000
0000
0000
3100
0010
,  // measure 17
0100
0001
1000
0100
0000
0010
0001
0010
0100
0010
0000
1000
0100
0000
0010
0000
,  // measure 18
0100
0000
0001
0010
0100
0000
1000
0100
0010
0000
0100
0000
0010
0000
0000
1010
,  // measure 19
0000
0000
1000
0000
0010
0000
0000
1001
0000
0000
0010
0000
0001
0000
0000
1100
,  // measure 20
0000
0000
0001
0000
0100
0000
0000
0101
0000
0000
0010
0000
0001
0000
0000
0110
,  // measure 21
0000
0000
0001
0000
1000
0000
0000
0011
0000
0000
0001
0000
1000
0000
0100
0000
,  // measure 22
0000
0001
0100
0000
0110
0000
1000
0010
,  // measure 23
1000
0100
0000
0100
0001
0010
1000
0010
,  // measure 24
0100
0010
0001
0010
0100
1000
1001
0000
,  // measure 25
0101
0000
0000
0000
0012
0000
0000
1000
0000
0000
0103
0000
0000
0000
0100
0010
,  // measure 26
0001
0000
1000
0000
0010
0000
0001
0100
0010
0000
0100
0000
1010
0000
0000
0100
,  // measure 27
0000
0000
1000
0000
0101
0000
0000
0010
0000
0000
0001
0000
0011
0000
0000
0001
,  // measure 28
0000
0000
1000
0000
1100
0000
0000
0001
0000
0000
0010
0000
1002
0000
1000
0000
,  // measure 29
0100
0013
0000
0110
0000
1100
0000
0101
,  // measure 30
0000
0000
0110
0000
0000
0000
0100
0000
0010
0000
1000
0000
0201
0000
0000
0001
,  // measure 31
0000
0000
0001
0000
0000
0000
0310
1000
0001
0000
0100
0000
0012
0000
0000
0010
,  // measure 32
0000
0000
0010
0000
0000
0000
0103
0010
0001
0000
0100
0000
0010
0000
1000
0000
,  // measure 33
1020
0000
0100
0000
1000
0000
0001
0000
0100
0000
0001
0000
1030
0000
0001
0100
,  // measure 34
0010
0000
0001
0000
0001
0010
0100
0010
0001
0000
0000
0000
2100
0000
0000
0100
,  // measure 35
0000
0000
3010
0000
0102
0000
0000
1000
0000
0000
0013
0000
2010
0000
0000
0100
,  // measure 36
0000
0000
3001
0000
0012
0000
0000
0100
0000
0000
0013
0000
1000
0000
0001
0000
,  // measure 37
0100
0001
0000
1010
0000
1001
0000
0011
,  // measure 38
0000
0000
1001
0000
0000
0000
0010
0000
0001
0000
0100
0000
0010
0000
0000
1000
,  // measure 39
0000
0000
0020
0000
0000
0000
0130
0001
1000
0000
0100
0000
0001
0000
0000
0010
,  // measure 40
0000
0000
0002
0000
0000
0000
1003
0010
0100
0000
0001
0000
0100
0000
0010
0000
,  // measure 41
0100
0000
0001
1000
0000
1000
0001
0000
0010
0000
0100
0001
0000
0100
0001
0000
,  // measure 42
1000
0000
0001
0100
0000
0100
1000
0000
0010
0000
0001
0000
0100
0000
0001
0000
,  // measure 43
0010
1000
0100
0010
0001
0100
1000
0100
,  // measure 44
0001
0100
0010
0001
0100
1000
0100
0010
,  // measure 45
1000
0001
0010
0100
0010
0001
0100
1000
,  // measure 46
0001
0000
0100
0000
0011
0000
0000
1010
0000
0000
1001
0000
0000
0000
0000
0000
;
