#TITLE:Miracle Hinacle;
#SUBTITLE:(PUNK REMIX);
#ARTIST:IOSYS (void feat. 96);
#TITLETRANSLIT:;
#SUBTITLETRANSLIT:;
#ARTISTTRANSLIT:;
#GENRE:;
#CREDIT:;
#BANNER:Miracle Hinacle (PUNK REMIX).png;
#BACKGROUND:Miracle Hinacle (PUNK REMIX)-bg.png;
#JACKET:Miracle Hinacle (PUNK REMIX)-jacket.png;
#LYRICSPATH:;
#CDTITLE:;
#MUSIC:Miracle Hinacle (PUNK REMIX).mp3;
#OFFSET:-0.038000;
#SAMPLESTART:61.301998;
#SAMPLELENGTH:20.459999;
#SELECTABLE:YES;
#DISPLAYBPM:94.000000:376.000000;
#BPMS:0.000000=188.001999
,192.000000=94.000999
,224.000000=188.001999
,256.000000=94.000999
,272.000000=188.001999
,336.000000=376.003998
,400.000000=94.000999;
#STOPS:;
#BGCHANGES:;
#KEYSOUNDS:;
#ATTACKS:;

//---------------dance-single - ----------------
#NOTES:
     dance-single:
     :
     Beginner:
     5:
     :
0000
0000
0000
0000
,
0000
0000
0000
0000
,
0000
0000
0000
0000
,
0000
0000
0000
0000
,
0000
0000
0000
0000
,
0000
0000
0000
0000
,
0000
0000
0000
0000
,
0000
0000
0000
0000
,
0010
0100
0010
0000
,
1000
0001
1000
0000
,
0010
0100
1000
0000
,
0001
0010
0100
0010
,
0001
1000
0100
0000
,
1000
0001
0010
0000
,
0220
0000
0000
0000
,
0000
0000
0000
0330
,
0100
0000
0010
0000
,
0100
0000
1000
0000
,
0001
0000
0100
0000
,
0010
0001
1000
0000
,
0010
0000
1000
0000
,
0010
0000
0100
0000
,
0001
0000
0010
0000
,
0100
0001
1000
0000
,
0011
0000
0100
0010
,
1000
0000
0000
0100
,
0101
0000
0010
1000
,
0001
0000
0000
0100
,
1000
0000
0100
0000
,
0010
0000
0001
0000
,
0100
0100
0010
0010
,
1000
0000
0001
0010
,
0100
0000
1000
0100
,
0001
1100
0000
0000
,
0100
0000
0010
0001
,
1000
0011
0000
0100
,
0010
0000
0000
0001
,
0100
0100
0010
0010
,
1000
0000
0100
0010
,
2002
0000
0000
3003
,
0100
0000
0010
0001
,
0100
0020
0000
0000
,
1030
0000
0010
1000
,
0001
0020
0000
0001
,
0130
0100
0010
0010
,
0010
1000
0001
0100
,
0220
0000
0000
0330
,
2002
0000
0000
3003
,
1000
0000
0100
0000
,
0010
0000
0100
0000
,
1000
0000
0001
0000
,
0100
0000
0010
0000
,
0002
0010
1000
0020
,
0000
0000
0000
0033
,
2000
0100
0001
0020
,
0000
0000
0000
3030
,
0010
0000
0100
0010
,
1000
0000
0000
0001
,
1000
0000
0001
0010
,
0001
0000
0000
0100
,
0010
0000
0010
0000
,
0100
0000
0100
0000
,
0010
0001
0100
0010
,
1001
0000
0110
0000
,
2000
0000
0000
0000
,
3200
0000
0000
0000
,
0320
0000
0000
0000
,
0032
0000
0000
0000
,
0103
0000
0010
0001
,
1000
0010
0000
0000
,
0001
0000
0100
0001
,
0010
0001
0000
1000
,
0100
0010
0001
0000
,
0010
0100
1000
0100
,
0022
0000
0000
0033
,
2200
0000
0000
3300
,
0002
0000
0000
0000
,
0000
0010
0100
0010
,
0203
0000
0000
0000
,
0000
0010
1000
0001
,
0320
0000
0000
0000
,
0000
1000
0100
0100
,
2030
0000
0000
0000
,
0000
0000
0000
3000
,
2020
0000
0000
0000
,
0000
0000
0000
0000
,
3030
0000
0010
0000
,
0100
0000
0001
0000
,
0022
0000
0000
0000
,
0000
0000
0000
0000
,
0033
0100
0000
0000
,
0010
0000
1000
0000
,
2200
0000
0000
0000
,
0000
0000
0000
0000
,
3300
0000
0100
0000
,
0010
0000
0001
0000
,
0202
0000
0000
0000
,
0000
0000
0000
0000
,
0000
0000
0000
0000
,
0000
0000
0000
0303
,
2000
0000
0000
0000
0000
0100
0010
3001
,
0002
0000
0000
0000
0000
1000
0100
0013
,
0020
0000
0000
0000
0000
0001
1000
0130
,
0220
0000
0330
0000
;

//---------------dance-single - ----------------
#NOTES:
     dance-single:
     :
     Easy:
     7:
     :
0000
0000
0000
0000
,
0000
0000
0000
0000
,
0000
0000
0000
0000
,
0000
0000
0000
0000
,
0000
0000
0000
0000
,
0000
0000
0000
0000
,
0000
0000
0000
0000
,
0000
0000
0000
0000
,
0100
1000
0001
0010
,
1000
0010
0100
0010
,
0100
0001
0010
0100
,
0010
1000
0001
1000
,
0010
0100
1000
0100
,
0001
0100
1000
0010
,
0002
0000
0000
0203
0000
0000
2300
0000
,
0000
3020
0000
0000
0032
0000
0010
0000
,
1003
1000
0001
0001
,
1000
0010
1000
0001
,
0100
1000
0001
0010
,
1000
0001
1001
0000
,
0100
0010
0001
0100
,
0001
0010
0100
0001
,
1000
0001
0010
1000
,
0010
0001
0110
0000
,
0100
0010
1000
0001
,
2100
0000
0000
3001
,
0010
0001
0100
0001
,
0102
0000
0000
0013
,
0100
0100
0100
0100
,
0010
0010
0010
0010
,
0100
0010
1000
0001
,
2020
0000
3030
0000
0010
0001
0010
0001
,
0010
0100
0010
0001
,
0100
0001
1000
0010
,
0100
0001
0100
1000
,
0010
0100
0001
1000
,
0100
0010
0001
1000
,
0010
0100
0010
0001
,
0100
0001
1000
0100
,
1000
0000
0000
0001
0000
0000
1001
0000
,
1010
1000
1010
1000
,
0110
0010
0110
0010
,
0011
0001
0011
0001
,
0101
0100
0101
0100
,
1100
1000
1100
1000
,
1001
0001
1001
0001
,
0220
0000
0000
0030
,
0301
1000
0001
1000
0000
0100
0010
0000
,
0100
0001
0100
0020
,
1000
0000
0100
0000
,
1030
0001
0010
0002
,
1000
1000
0100
0100
,
0013
0001
0100
0000
0001
0100
2000
0000
,
0100
0100
0100
0100
,
3100
1000
0010
0000
1000
0010
0002
0000
,
0100
0000
0100
0000
1000
1000
1000
1000
,
0013
0100
0001
1000
,
0101
0001
0100
0001
,
0010
1000
0001
0010
,
1100
1000
1000
0100
,
0001
0001
0001
0001
,
1000
1000
1000
1000
,
0001
0010
0001
0100
,
0220
0000
0330
0000
1000
0100
1000
0100
,
2000
3020
2030
3002
,
2003
3020
0230
0302
,
0023
0230
0302
2003
,
3200
0000
0320
0000
0032
0000
2000
3003
,
0011
0010
0010
0010
,
0101
0001
0001
0001
,
0110
0010
0010
0010
,
1001
0001
0001
0001
,
1100
1000
1000
1000
,
1010
0010
0010
0010
,
2002
0000
0000
3003
,
1000
0100
0010
0001
0000
0100
0010
0000
,
1000
0100
1000
0100
,
0001
0100
0001
0100
,
0010
0100
0010
0100
,
1000
0010
1000
0010
,
0001
0010
0001
0010
,
0100
0010
0100
0010
,
1000
0001
1000
0001
,
0220
0000
0000
0000
,
0330
0001
0000
0100
,
0000
1000
0000
0010
,
0000
0001
0000
0100
,
0000
1000
0000
0010
,
0000
0001
0000
0100
,
0000
1000
0000
0010
,
0000
0001
0000
0100
,
0000
1000
0000
0010
,
0000
0001
0000
0010
,
0000
1000
0000
0100
,
0000
0001
0000
0010
,
0000
1000
0000
0100
,
0000
0001
0000
0010
,
0000
1000
0000
0100
,
0000
0001
0000
0010
,
0000
1000
0000
0100
,
0020
0000
0000
0000
0000
0000
0000
0000
0000
0000
0031
0000
0100
0000
0010
2000
,
0000
0000
0000
0000
0000
0000
0000
0000
0000
0000
3010
0000
0001
0000
0100
0002
,
0000
0000
0000
0000
0000
0000
0000
0000
0000
0000
0013
0000
0100
0000
1000
0220
,
0000
0000
0330
0000
;

//---------------dance-single - ----------------
#NOTES:
     dance-single:
     :
     Medium:
     12:
     :
// measure 0
0000
0000
0000
0000
,  // measure 1
0000
0000
0000
0000
,  // measure 2
0000
0000
0000
0000
,  // measure 3
0000
0000
0000
0000
,  // measure 4
0000
0000
0000
0000
,  // measure 5
0000
0000
0000
0000
,  // measure 6
0000
0000
0000
0000
,  // measure 7
0000
0000
0000
0000
,  // measure 8
1010
0000
0001
0100
0001
1000
0000
0110
,  // measure 9
0000
1000
0010
0000
0101
0000
0110
0000
,  // measure 10
1010
0000
0001
0010
0100
1000
0000
1010
,  // measure 11
0000
0010
0100
0000
0001
1000
0100
0000
,  // measure 12
0110
0000
0001
0100
1000
0001
0000
0101
,  // measure 13
0000
1000
0010
0000
1100
0000
0011
0000
,  // measure 14
1010
0000
0000
0011
0000
0000
0101
0000
,  // measure 15
0000
1100
0000
0000
0110
0000
1001
0000
,  // measure 16
0100
0001
0000
0010
0001
1000
0000
1010
,  // measure 17
0000
0100
0010
0000
0001
0010
0000
1000
,  // measure 18
0001
0100
0000
0001
1000
0100
0000
1001
,  // measure 19
0000
0010
0001
0100
0001
0000
1100
0000
,  // measure 20
0010
0001
0000
0100
0010
1000
0000
0011
,  // measure 21
0000
0001
0100
0001
1000
0100
0000
0010
,  // measure 22
0110
0100
0000
0001
1000
0010
0000
0101
,  // measure 23
0000
0001
0010
0100
0000
1000
0001
0000
,  // measure 24
0100
0000
1100
0000
0001
0010
0100
0010
,  // measure 25
0000
0001
0100
0000
0001
1000
0100
0000
,  // measure 26
0001
0000
0101
0000
1000
0100
0010
0001
,  // measure 27
0000
1000
0000
0010
0001
0100
0000
1000
,  // measure 28
0001
0000
0110
0000
0001
0100
1000
0100
,  // measure 29
0000
0001
0100
0000
0010
0001
1000
0000
,  // measure 30
0001
1001
1010
0011
,  // measure 31
0210
0000
0000
0000
0001
0010
1000
0010
,  // measure 32
0302
0000
0000
0103
1000
0010
0000
0001
,  // measure 33
0100
0010
1000
0001
,  // measure 34
2000
0000
0000
3001
0100
0010
0000
0001
,  // measure 35
0100
0000
0010
0000
0100
0000
0100
0010
,  // measure 36
0001
0000
0011
0000
1010
0000
0010
0100
,  // measure 37
0001
0000
0010
0100
1000
0000
0100
0001
,  // measure 38
1000
0000
0110
0000
1000
0100
0001
0100
,  // measure 39
1100
0000
0000
0101
0000
0000
1001
0000
,  // measure 40
0200
0302
2003
3020
,  // measure 41
0230
0000
1300
0100
0010
0100
0001
0100
,  // measure 42
2000
3002
0023
0230
,  // measure 43
2300
0000
3001
1000
0010
1000
0100
1000
,  // measure 44
0001
0000
0011
0000
1010
0000
0100
0001
,  // measure 45
1000
0010
1000
0100
0001
0000
0010
0001
,  // measure 46
0202
0000
0000
0000
0303
1000
0100
0010
,  // measure 47
0100
1000
0001
1000
0000
0100
0010
0000
,  // measure 48
0100
0010
0001
0100
1000
0010
1000
0001
,  // measure 49
0100
0000
0000
0000
0001
0000
0100
0010
0000
0000
0100
0010
1000
0000
0000
0000
,  // measure 50
0001
0100
1000
0100
0010
0001
1000
0001
,  // measure 51
2000
3002
0203
0320
,  // measure 52
1030
0100
0001
0100
0010
1000
0001
1000
,  // measure 53
0100
0010
0001
0010
1000
0100
0001
0100
,  // measure 54
1000
0010
0100
0010
1000
0001
0010
0001
,  // measure 55
0100
0000
0010
0000
0010
0000
0100
0000
1000
0001
1000
0001
0010
1000
0001
1000
,  // measure 56
0100
0000
0101
0000
0100
0001
0100
1000
,  // measure 57
0000
1000
0100
0000
0001
0010
0100
0010
,  // measure 58
0001
0000
1100
0000
0010
0100
0010
1000
,  // measure 59
0000
0100
0000
0001
0010
0001
0000
1000
,  // measure 60
0010
0000
1001
0000
0001
1000
0010
1000
,  // measure 61
0000
0001
0100
0000
0010
0100
0001
0010
,  // measure 62
0001
0110
0011
1010
,  // measure 63
2001
0000
0000
0000
0001
0001
0010
0010
,  // measure 64
3100
0100
0010
0010
1000
1000
0001
0001
,  // measure 65
1000
1000
0010
0010
0100
0100
0001
0001
,  // measure 66
0010
0010
0100
0100
0001
0001
1000
1000
,  // measure 67
0100
0000
0100
0000
0010
0000
0010
0000
0001
0001
0010
0010
0100
0100
1001
0000
,  // measure 68
0011
0101
0011
0101
,  // measure 69
0120
0000
0031
0010
0100
0010
1000
0010
,  // measure 70
1010
1100
1010
1100
,  // measure 71
1002
0000
1003
0001
0100
0001
0010
0001
,  // measure 72
0100
0000
1001
0000
0110
0000
0001
1000
,  // measure 73
0010
0100
0010
1000
0100
0000
0001
0010
,  // measure 74
2200
0000
0000
0000
3300
0100
0001
0010
,  // measure 75
0001
1000
0010
1000
0000
0100
0001
1000
,  // measure 76
0001
1100
0100
0101
,  // measure 77
1000
0110
0010
0110
,  // measure 78
0001
0011
1000
1010
,  // measure 79
0100
1001
0100
1001
,  // measure 80
1000
1010
0001
0101
,  // measure 81
1000
0011
0010
1100
,  // measure 82
0101
0011
1010
1000
,  // measure 83
1000
0100
1000
0010
0100
0001
0010
0001
,  // measure 84
1000
0100
0001
0100
,  // measure 85
1000
0010
0100
0001
,  // measure 86
0010
1000
0001
1000
,  // measure 87
0100
0010
1000
0001
,  // measure 88
0100
0001
0010
1000
,  // measure 89
0001
1000
0010
0001
,  // measure 90
0100
1000
0100
0001
,  // measure 91
1000
0001
0100
0010
,  // measure 92
0100
0101
0010
0011
,  // measure 93
1000
1100
0001
0101
,  // measure 94
1000
0011
0100
1010
,  // measure 95
0001
1100
0010
0101
,  // measure 96
0001
0010
0001
0000
0001
0000
0011
0000
,  // measure 97
1000
0010
1000
0000
1000
0000
1010
0000
,  // measure 98
0001
0100
0001
0000
0100
0000
0101
0000
,  // measure 99
1000
0100
1000
0000
0100
0000
1100
0000
,  // measure 100
0200
0000
0000
0000
0000
0000
0000
0000
0300
0010
0001
1000
0100
1000
0010
2000
,  // measure 101
0000
0000
0000
0000
0000
0000
0000
0000
3000
0010
0000
0010
1000
0001
0100
0002
,  // measure 102
0000
0000
0000
0000
0000
0000
0000
0000
0003
0010
0001
1000
0100
1000
0001
0220
,  // measure 103
0000
0000
0330
0000
;

//---------------dance-single - ----------------
#NOTES:
     dance-single:
     :
     Hard:
     18:
     :
0000
0000
0000
0000
,
0000
0000
0000
0000
,
0000
0000
0000
0000
,
0000
0000
0000
0000
,
0000
0000
0000
0000
,
0000
0000
0000
0000
,
0000
0000
0000
0000
,
0000
0000
0000
0000
,
0110
0000
0000
0000
1000
0001
0100
0000
0010
0000
0001
0000
0010
0000
1010
0000
,
1000
0000
0100
0010
0001
0000
0100
0000
0010
0100
0010
0000
1001
0000
0010
0000
,
1100
0000
0000
0000
0001
1000
0010
0000
0100
0000
0010
0000
0001
0000
0011
0000
,
0000
0000
0100
0001
1000
0000
0001
0000
1000
0100
0010
0000
0110
0000
0000
0000
,
1001
0000
0000
0000
0100
0001
1000
0000
0001
0000
0010
0000
0100
0000
0110
0000
,
1000
0000
0001
0010
0100
0000
0010
0000
0100
0010
1000
0000
0110
0000
0100
0000
,
2010
3010
0000
0021
0031
0000
1200
1300
,
0000
0102
0103
0000
0110
0000
1001
0000
,
0100
0001
0100
0010
0001
1000
0010
0100
,
0001
0100
0010
1000
0001
0010
0100
1000
,
0001
0100
0010
0100
1000
0100
0010
0001
,
0100
0000
0010
0000
0001
0000
1000
0000
0010
1000
0100
0000
0010
0001
0100
0000
,
0010
0001
0010
0100
0010
1000
0010
0001
,
0100
0001
0010
0001
1000
0100
1000
0010
,
0100
0001
0100
0010
1000
0010
0100
0001
,
1000
0100
1000
0000
0001
0010
0001
0000
0100
0001
0100
0000
1000
0010
1000
0100
,
0001
1000
0100
1000
0010
0100
0010
0101
,
0000
0000
0100
0010
1000
0000
0010
0000
0001
0100
1000
0000
0100
0000
0001
0000
,
0010
0100
0001
1000
0001
0010
0100
1100
,
0000
0000
0100
0010
0001
0000
1000
0000
0010
0100
0001
0000
0100
0000
0010
0000
,
0100
0010
0001
0010
0100
1000
0100
0011
,
0000
1100
0100
0001
0100
1000
0010
1000
,
0001
0010
0100
0000
1000
0010
0100
0000
0001
0100
0010
0000
1000
0100
0010
0000
,
1001
0000
0000
0000
0110
0000
0000
0000
0001
1000
0001
0100
0001
0010
0001
0000
,
1000
0100
0001
0100
1000
0010
0100
0010
,
0101
0000
0000
0000
0001
1000
0010
0000
0100
0010
1000
0000
0010
0100
0001
0000
,
0100
0010
0100
0001
0100
1000
0010
0100
,
1100
0000
0000
0000
0010
0001
1000
0000
0001
0000
0010
0000
0100
0000
0010
0000
,
0001
1000
0100
1000
0110
0000
0001
0100
,
0010
1000
0001
0000
0100
0000
0010
0000
1001
0000
0000
0000
1000
0000
0010
0000
,
1000
0100
0001
0010
1000
0100
0001
1000
,
0010
0100
0001
0000
0100
0000
1000
0001
0100
0000
0001
0000
1010
0000
0011
0000
,
0010
1000
0100
1000
0010
0001
0100
0010
,
1000
0000
0100
0000
0001
0010
0100
0000
0010
0000
1000
0000
0010
0000
0001
0000
,
1000
0100
1000
0001
1000
0010
0100
0001
,
0100
0000
0010
0000
0001
0100
0010
0000
0100
0000
0001
0000
1000
0000
0010
0000
,
1000
0000
0001
0000
0010
0000
0100
0000
1000
0000
0100
0000
0010
0000
0001
1000
,
0100
0010
0100
1000
0100
0001
0010
0001
,
1000
0000
0100
0001
0100
0000
0010
1000
0010
0000
0100
0000
0001
0000
1000
0000
,
0010
0001
0100
0000
0010
0000
0100
0000
0000
0000
0110
0000
1001
0000
0000
0000
,
1000
0100
0010
0000
0011
0000
1000
0010
0000
0010
1000
0000
0100
0010
0001
0000
,
0010
0000
0001
1000
0010
0100
0001
0100
0000
0001
0100
0000
1000
0010
0100
0000
,
0001
0010
0001
0000
1100
0000
0100
0010
0000
0010
0001
0000
0010
1000
0001
0000
,
0100
0001
0100
0001
1000
0100
1000
0100
0010
0001
0010
0001
1000
0100
0011
0000
,
0001
0010
0100
0000
1000
0010
0100
0010
0000
1000
0010
0000
0001
0100
0010
0000
,
0001
0010
1000
0010
0001
0100
0010
1000
0100
0010
0100
1000
0010
0100
0010
0100
,
0001
0010
0001
0000
1000
0001
0010
0001
0000
0100
0010
0000
0001
0010
0100
0000
,
1000
0000
0100
0000
1000
0000
0010
0000
0100
0000
0001
0000
0010
0000
0001
0000
0010
0001
0010
0001
0100
0001
0100
0001
1000
0010
1000
0010
1100
0000
0000
0000
,
0001
0100
0001
1000
0100
1000
0001
0011
,
0000
0000
0001
0100
1000
0000
0010
0000
1000
0100
0001
0000
0010
0000
0001
0000
,
1000
0010
0100
0010
0001
1000
0100
1010
,
0000
0000
0010
0001
0100
0000
1000
0000
0010
0100
0010
0000
0001
0000
0100
0000
,
0010
1000
0001
0010
0001
1000
0100
1010
,
0000
0101
0010
0001
1000
0100
0010
0100
,
1000
0100
0010
0000
0100
0010
0001
0000
0010
0001
1000
0000
0001
1000
0100
0000
,
1001
0000
0110
0000
1000
0010
0100
0001
,
0100
0000
0100
0001
0010
0000
0010
0100
1000
0000
1000
0010
0001
0000
0001
0100
,
1000
0000
1000
0001
0010
0000
0010
1000
0100
0000
0100
0010
0001
0000
0001
0100
,
0010
0000
0010
1000
0100
0000
0100
0001
1000
0000
1000
0010
0001
0000
0001
0010
,
0100
0000
0100
0001
0010
0000
0010
0100
1000
0100
0010
0001
0010
0100
1100
0000
,
0101
0001
0100
0010
0100
0001
0010
0100
,
0001
0000
1000
0000
0100
0010
0001
0000
0100
0000
0010
0000
0100
0000
0001
0000
,
1000
0100
0010
0001
0100
0010
1000
0100
,
0001
0000
0010
0000
0001
1000
0100
0000
0010
0000
0100
0000
1000
0000
0001
0000
,
0010
0000
0100
0000
0010
0000
0001
0000
1000
0000
0010
0000
0100
0000
0001
0010
,
0100
0001
0100
1000
0100
0001
1000
0001
,
0010
0000
0100
0010
0001
0000
0100
1000
0010
0000
0100
0000
0001
0000
1000
0000
,
0010
0100
0001
0000
0010
0000
0100
0000
0000
0000
0100
1000
0010
0000
0100
0000
,
0010
0100
0001
1000
0001
0010
1000
0010
,
0100
1000
0010
0001
0010
0100
1000
0100
,
0010
0100
0010
1000
0001
0100
1000
0100
,
0001
0100
0010
0001
0100
1000
0100
0001
,
0010
0100
1000
0000
0001
0000
0100
0000
0010
0000
1000
0000
0001
0000
1000
0000
,
0100
0010
0001
0000
1000
0000
0001
0000
0100
0000
0001
0000
1000
0000
0010
0000
,
0001
0100
0001
0000
0100
0000
0001
0000
1000
0010
1000
0000
0010
0000
0100
0000
,
0001
0100
0001
0000
1000
0100
1000
0000
0001
0010
0001
0000
1000
0010
1000
0000
,
0001
0100
0010
1000
0001
0100
0001
0010
,
0001
0010
0100
0001
0100
0010
1000
0100
,
0010
0001
0010
0100
1000
0010
1000
0100
,
1000
0001
0010
0100
1000
0010
0001
0010
,
1000
0100
0001
0100
1000
0001
0100
0001
,
0010
1000
0100
1000
0100
0001
0010
1000
,
0010
0001
0100
0010
1000
0001
0010
0100
,
0100
0001
0001
1000
1000
0010
0010
1000
,
0100
1000
0010
0100
0001
0010
0001
0100
,
1000
0100
0001
0010
0100
1000
0010
0001
,
0010
1000
0001
0010
0001
0100
0010
1000
,
0100
1000
0001
0100
0001
0010
0001
1000
,
0100
1000
0010
1000
0001
0100
1000
0100
,
0001
1000
0100
0001
0100
1000
0001
0001
,
1000
0100
0001
0010
0010
0001
0100
1000
,
0001
0100
1000
0010
0010
0100
1000
0001
,
0020
0000
0001
0100
0001
1000
0001
0100
0030
1000
0010
0100
0001
0010
0100
2000
,
0000
0001
0100
0010
0100
0001
0010
0001
3000
1001
0000
0010
0100
0010
1000
0002
,
0000
0100
0010
1000
0010
0100
1000
0100
0003
0010
1000
0001
1000
0100
0010
2002
,
0000
0000
3003
0000
;
