#TITLE:Made Me Realize;
#SUBTITLE:(from GRAVITY FALLS);
#ARTIST:Brad Breeck;
#TITLETRANSLIT:;
#SUBTITLETRANSLIT:;
#ARTISTTRANSLIT:;
#GENRE:;
#CREDIT:;
#BANNER:Made Me Realize.png;
#BACKGROUND:Made Me Realize-bg.png;
#LYRICSPATH:;
#CDTITLE:;
#MUSIC:Made Me Realize.mp3;
#OFFSET:-0.350000;
#SAMPLESTART:94.080002;
#SAMPLELENGTH:23.500000;
#SELECTABLE:YES;
#DISPLAYBPM:80.000000:166.000000;
#BPMS:0.000000=80.000000
,59.000000=160.000000
,60.000000=80.000000
,99.000000=160.000000
,152.000000=166.100006
,236.000000=165.899994
,237.000000=82.000000;
#STOPS:;
#BGCHANGES:;
#KEYSOUNDS:;
#ATTACKS:;

//---------------dance-single - ----------------
#NOTES:
     dance-single:
     :
     Beginner:
     2:
     :
// measure 0
0000
0000
0000
0000
,  // measure 1
0000
0000
0000
0000
,  // measure 2
1000
0000
0000
0000
,  // measure 3
0001
0000
0000
0000
,  // measure 4
0100
0000
0000
0000
,  // measure 5
0001
0000
0000
0000
,  // measure 6
1000
0000
0000
0000
,  // measure 7
0010
0000
0000
0000
,  // measure 8
0100
0000
0000
0110
,  // measure 9
0000
0001
0000
0000
,  // measure 10
0000
0010
0000
0000
,  // measure 11
0000
1000
0000
0000
,  // measure 12
0000
0100
0000
0000
,  // measure 13
0000
0002
0000
0000
,  // measure 14
0000
2000
0000
3003
,  // measure 15
0110
0100
0001
0010
,  // measure 16
0000
1000
0010
0001
,  // measure 17
0000
0100
1000
0010
,  // measure 18
0001
1000
0001
0100
,  // measure 19
0000
1000
0010
0001
,  // measure 20
0010
1000
0100
0000
,  // measure 21
0000
0100
0000
0000
,  // measure 22
0000
0010
0000
0000
,  // measure 23
0000
1000
0000
0000
,  // measure 24
0000
2000
0000
3100
,  // measure 25
0000
0010
0000
0001
,  // measure 26
0000
0100
0000
0010
,  // measure 27
0000
1000
0000
0001
,  // measure 28
0000
0100
0000
0010
,  // measure 29
0000
0100
0000
0010
,  // measure 30
0000
1000
0000
0001
,  // measure 31
0000
0010
0000
0100
,  // measure 32
0000
1000
0000
0001
,  // measure 33
0000
0100
0000
1000
,  // measure 34
0000
0001
0000
0100
,  // measure 35
0000
1000
0000
0001
,  // measure 36
0000
0010
0000
1000
,  // measure 37
0000
0010
0000
0002
,  // measure 38
0000
0013
0000
0000
,  // measure 39
0001
0001
0000
0000
,  // measure 40
0000
1000
0000
0001
,  // measure 41
0000
0100
0000
0000
,  // measure 42
0000
0001
0000
0000
,  // measure 43
1000
1000
0000
0100
,  // measure 44
0000
0010
0000
0000
,  // measure 45
0000
0001
0000
0000
,  // measure 46
0000
0000
0202
0000
,  // measure 47
0303
0010
0000
0100
,  // measure 48
0000
0000
2200
0000
,  // measure 49
3300
1000
0000
0001
,  // measure 50
0000
0000
0220
0000
,  // measure 51
0330
0010
0000
0100
,  // measure 52
0000
0000
2020
0000
,  // measure 53
3030
0000
0022
0000
,  // measure 54
0033
0000
2002
0000
,  // measure 55
3003
0010
0000
1000
,  // measure 56
0000
0000
0022
0000
,  // measure 57
0033
0100
0000
1000
,  // measure 58
0000
0001
0000
0010
,  // measure 59
0000
2200
0000
0000
,  // measure 60
3300
0000
0000
0000
;

//---------------dance-single - ----------------
#NOTES:
     dance-single:
     :
     Easy:
     4:
     :
// measure 0
0000
0000
0000
0000
,  // measure 1
0000
0000
0000
0000
,  // measure 2
0010
0100
0010
0001
,  // measure 3
0100
0010
1000
0001
,  // measure 4
1000
0100
0001
0010
,  // measure 5
0100
1000
0100
0010
,  // measure 6
0001
0100
1000
0010
,  // measure 7
0100
1000
0010
0001
,  // measure 8
0100
1000
0001
0010
,  // measure 9
0110
1000
0001
0100
,  // measure 10
1000
0001
0100
0010
,  // measure 11
0001
0010
1000
0001
,  // measure 12
0100
1000
0010
0100
,  // measure 13
1000
0022
0000
0000
,  // measure 14
0033
2020
0000
3030
,  // measure 15
0110
0200
0302
0023
,  // measure 16
0030
2000
3020
0032
,  // measure 17
0003
0200
2300
3020
,  // measure 18
0032
2003
3002
0203
,  // measure 19
0300
2000
3020
0032
,  // measure 20
0023
2030
3200
0300
,  // measure 21
0110
0010
0001
1000
,  // measure 22
0100
1000
0001
0100
,  // measure 23
0010
0002
0010
1000
,  // measure 24
0100
0010
1000
0103
,  // measure 25
1000
0010
0001
0001
,  // measure 26
0010
0100
1000
0000
,  // measure 27
0100
1000
0010
0001
,  // measure 28
1000
0100
0010
0000
,  // measure 29
0001
0100
0001
0010
,  // measure 30
0000
1000
0000
0001
,  // measure 31
1000
0010
1000
0100
,  // measure 32
0001
1000
0100
0000
,  // measure 33
0001
0100
0001
1000
,  // measure 34
0000
0001
0000
0100
,  // measure 35
0000
1000
0000
0001
,  // measure 36
0000
0010
0000
1000
,  // measure 37
0000
0010
0000
0110
,  // measure 38
0001
2020
0000
3030
,  // measure 39
1000
0022
0000
0000
,  // measure 40
0033
0020
0000
0100
,  // measure 41
1030
2200
0000
0000
,  // measure 42
3300
0002
0000
0000
,  // measure 43
1003
0002
0000
0203
,  // measure 44
0000
2300
0000
3002
,  // measure 45
0000
2003
0000
3200
,  // measure 46
0000
0000
0301
0001
,  // measure 47
0001
0010
0010
1000
,  // measure 48
0100
0000
0010
0010
,  // measure 49
0010
1000
0001
1000
,  // measure 50
0100
0000
1000
1000
,  // measure 51
1000
0010
0010
0001
,  // measure 52
1000
0000
1100
0101
,  // measure 53
1100
0000
1010
0011
,  // measure 54
1010
0000
0100
0100
,  // measure 55
0100
0010
0010
0001
,  // measure 56
1000
0000
1000
0001
,  // measure 57
0010
0101
0000
1001
,  // measure 58
0000
1010
0000
0110
,  // measure 59
0000
2002
0000
0000
,  // measure 60
3003
0000
0000
0000
;

//---------------dance-single - ----------------
#NOTES:
     dance-single:
     :
     Medium:
     7:
     :
// measure 0
0000
0000
0000
0000
,  // measure 1
0000
0000
0000
0000
,  // measure 2
0001
0000
0010
0000
1000
0000
0100
0010
,  // measure 3
0100
0000
0010
0000
1000
0000
0010
0001
,  // measure 4
0100
0000
0001
0000
1000
0000
0010
1000
,  // measure 5
0100
0000
0010
0000
1000
0000
0010
0001
,  // measure 6
0100
0000
0001
0000
0010
0000
1000
0100
,  // measure 7
0001
0000
0100
0000
0001
0000
1000
0010
,  // measure 8
1000
0000
0100
0000
0010
0000
0001
1000
,  // measure 9
0001
0000
1000
0000
0100
0000
0001
0000
0100
0000
0000
0010
0000
0000
1000
0000
,  // measure 10
0000
0000
0100
0000
0010
0000
0001
0000
1000
0000
0000
0001
0000
0000
0100
0000
,  // measure 11
0000
0000
0010
0000
1000
0000
0001
0000
1000
0000
0000
0010
0000
0000
0100
0000
,  // measure 12
0000
0000
0001
0000
0100
0000
0010
0000
0100
0000
0000
1000
0000
0000
0001
0000
,  // measure 13
0000
1000
0102
0000
0010
0000
1000
0000
,  // measure 14
0103
2001
0100
3010
,  // measure 15
0110
0100
0001
0010
,  // measure 16
1100
1000
0010
0001
,  // measure 17
1010
0100
1000
0010
,  // measure 18
0001
1000
0001
0100
,  // measure 19
0011
1000
0010
0001
,  // measure 20
0110
1001
0202
0000
,  // measure 21
0000
0000
0303
0000
1000
0000
0100
0000
1000
0000
0000
0001
0000
0000
0100
0000
,  // measure 22
0000
0010
0100
0000
0001
0000
1000
0000
0100
0000
0000
1000
0000
0000
0001
0000
,  // measure 23
0110
0000
0000
0000
1000
0000
0010
0000
0100
0000
0000
0001
0000
0000
1000
0000
,  // measure 24
0000
0001
0010
0000
1000
0000
0100
0000
0010
0000
0001
0000
1100
0000
0000
0000
,  // measure 25
1000
0010
0001
0001
,  // measure 26
0010
0100
1000
0101
,  // measure 27
0100
1000
0010
0001
,  // measure 28
1000
0100
0010
1001
,  // measure 29
0001
0100
0001
0022
,  // measure 30
0033
2002
3003
0101
,  // measure 31
1000
0010
1000
0100
,  // measure 32
0001
1000
0100
0110
,  // measure 33
0001
0100
0001
2200
,  // measure 34
3300
2002
3003
0202
,  // measure 35
0303
2020
3030
2002
,  // measure 36
3003
0220
0330
2020
,  // measure 37
3030
0000
0022
0000
0033
0000
0001
1000
,  // measure 38
0001
0100
1010
0000
0100
0000
0001
0000
,  // measure 39
1000
0011
0001
0100
,  // measure 40
1000
0000
0110
0000
0000
1001
0000
0000
,  // measure 41
0110
1100
0001
0100
,  // measure 42
0010
0101
0010
0100
,  // measure 43
1000
0000
0202
0000
0000
0303
2200
0000
,  // measure 44
0000
3300
2002
0000
0000
3003
0022
0000
,  // measure 45
0000
0033
2020
0000
0000
3030
0220
0000
,  // measure 46
0000
0330
1001
0000
0100
0000
1000
0000
,  // measure 47
0100
0010
0010
1000
,  // measure 48
0001
1100
0010
0001
,  // measure 49
0010
0100
0001
1000
,  // measure 50
0100
0101
0100
1000
,  // measure 51
0001
0010
0010
0001
,  // measure 52
0100
0110
1100
0101
,  // measure 53
1100
1001
0011
1010
,  // measure 54
0011
0101
1000
0001
,  // measure 55
0100
0010
0010
0001
,  // measure 56
1000
0110
0001
0010
,  // measure 57
0001
0100
0101
0001
,  // measure 58
1001
1000
1010
0010
,  // measure 59
0110
0002
2003
3020
,  // measure 60
0230
0300
0000
0000
;

//---------------dance-single - ----------------
#NOTES:
     dance-single:
     :
     Hard:
     10:
     :
// measure 0
0000
0000
0000
0000
,  // measure 1
0000
0000
0000
0000
,  // measure 2
0010
0001
1000
0001
0100
1000
0010
0001
,  // measure 3
0100
0001
1000
0100
1000
0010
1000
0001
,  // measure 4
0010
0000
0000
1000
0000
0000
0001
0000
0000
0010
0000
0000
1000
0000
0001
0100
,  // measure 5
0010
0000
0000
1000
0000
0000
0001
0000
0000
1000
0000
0000
0010
0000
0100
0001
,  // measure 6
1000
0000
0000
0001
0000
0000
1000
0000
0000
0010
0000
0000
0001
0000
1000
0010
,  // measure 7
0100
0000
0000
0001
0000
0000
0100
0000
0000
0010
0000
0000
1000
0000
0100
1000
,  // measure 8
0001
0000
0000
0010
0000
0000
1000
0000
0000
0001
0000
0000
1000
0000
0100
0000
,  // measure 9
1000
0001
1000
0100
0010
1000
0001
0010
,  // measure 10
0100
0010
1000
0001
0100
0010
0100
0001
,  // measure 11
0100
0000
1000
0000
0001
0000
0000
0010
0000
0000
0001
0000
0000
0100
0000
0000
,  // measure 12
0010
0000
1000
0001
0010
0000
0000
1000
0000
0000
0100
0000
0000
0001
0000
0000
,  // measure 13
0100
0000
0001
1000
0010
0000
0100
0000
0001
0000
0100
0000
1000
0000
0010
0000
,  // measure 14
0001
1000
0010
0100
1000
0001
0010
0000
,  // measure 15
0101
0000
0100
0010
0001
1000
0010
0100
,  // measure 16
1100
0000
1000
0001
0010
1000
0001
0100
,  // measure 17
1010
0000
0100
0001
1000
0100
0010
0001
,  // measure 18
0001
0100
1000
0010
0001
1000
0100
0001
,  // measure 19
0011
0000
1000
0100
0010
0100
0001
0100
,  // measure 20
0010
0100
1000
0001
0100
0010
1000
0001
,  // measure 21
0010
0001
1000
0010
1000
0001
0100
0001
,  // measure 22
1000
0010
1000
0100
1000
0001
0010
0100
,  // measure 23
1000
0100
0001
0010
0100
0001
0100
1000
,  // measure 24
0010
0000
0100
0000
0001
0010
0100
1000
0100
0010
0001
0010
0100
0000
0000
0000
,  // measure 25
1010
0000
0010
0100
0001
0000
0001
1000
,  // measure 26
0010
0100
0100
0000
1001
0000
0001
0000
,  // measure 27
0100
0010
1000
0100
0010
1000
0001
0100
,  // measure 28
1000
0001
0100
0000
0011
0000
0001
0000
,  // measure 29
0001
1000
0100
1000
0001
0000
0110
0000
,  // measure 30
0010
0000
1100
0000
1000
0000
0001
0100
,  // measure 31
1000
0000
0010
0001
1000
0000
0100
0010
,  // measure 32
0001
0010
1000
0010
0100
0000
1000
0000
,  // measure 33
0001
0010
0100
0010
0001
0000
1100
0000
,  // measure 34
0010
0011
1000
0101
,  // measure 35
0010
1010
0100
1001
,  // measure 36
1000
0110
0100
1010
,  // measure 37
0001
0000
0011
0000
1000
0000
0010
1000
,  // measure 38
0001
0100
0001
0100
0010
0000
0000
0000
0100
0000
0001
0000
0010
0000
0000
0000
,  // measure 39
1100
0000
0001
0000
0100
0010
0001
0000
,  // measure 40
0101
0000
0001
1000
0100
0001
0000
0001
,  // measure 41
0010
0000
0110
0000
0001
0010
0100
0000
,  // measure 42
0010
0000
1001
0000
0100
0010
0001
0000
,  // measure 43
1000
0000
0010
0001
0010
0000
0100
1000
,  // measure 44
0100
0000
1000
0010
1000
0000
0010
0100
,  // measure 45
0010
0000
1000
0001
1000
0000
0100
0001
,  // measure 46
0100
0000
1010
0000
1000
0100
0010
0001
,  // measure 47
0100
0010
1000
0100
1000
0001
0010
0001
,  // measure 48
0100
0000
0011
0000
1000
0100
0010
0001
,  // measure 49
1000
0001
0100
0010
1000
0100
0010
0001
,  // measure 50
0100
0000
1100
0000
0010
1000
0010
0001
,  // measure 51
0100
1000
0100
0010
1000
0001
1000
0010
,  // measure 52
0100
0000
0101
0000
0001
1000
0001
1000
,  // measure 53
0001
0000
0110
0000
0010
0100
0010
0100
,  // measure 54
0010
0000
1001
0000
1000
0100
0010
0100
,  // measure 55
0001
0010
0001
0100
1000
0010
0001
1000
,  // measure 56
0010
0000
0110
0000
0001
0010
1000
0100
,  // measure 57
0010
0001
0100
1000
0100
0000
0001
0100
,  // measure 58
0001
0000
1000
0010
1000
0000
0010
0001
,  // measure 59
0010
0002
2003
3020
,  // measure 60
0230
0300
0000
0000
;
