#TITLE:MY FIRE;
#SUBTITLE:(X-TENDED MIX);
#ARTIST:X-TREME;
#TITLETRANSLIT:;
#SUBTITLETRANSLIT:;
#ARTISTTRANSLIT:;
#CREDIT:;
#BANNER:MY FIRE.png;
#BACKGROUND:MY FIRE-bg.png;
#JACKET:MY FIRE-jacket.png;
#LYRICSPATH:;
#CDTITLE:;
#MUSIC:MY FIRE.mp3;
#OFFSET:-0.074;
#SAMPLESTART:55.299;
#SAMPLELENGTH:16.500;
#SELECTABLE:YES;
#DISPLAYBPM:130.000;
#BPMS:0.000=130.250;
#STOPS:;
#BGCHANGES:;

//---------------dance-single - ----------------
#NOTES:
     dance-single:
     :
     Beginner:
     3:
     :
// measure 1
0000
0000
0000
0000
,  // measure 2
0000
0000
0000
0000
,  // measure 3
0000
0000
0000
0000
,  // measure 4
0000
0000
0000
0000
,  // measure 5
1000
0000
0001
1000
,  // measure 6
0001
0000
0001
0000
,  // measure 7
0100
0000
0100
0010
,  // measure 8
0200
0000
0000
0000
,  // measure 9
0020
0000
0000
0330
,  // measure 10
0001
0000
0001
0010
,  // measure 11
0100
0000
0000
0000
,  // measure 12
0010
0000
0010
0000
,  // measure 13
0100
0000
0100
0000
,  // measure 14
1000
0000
1000
0010
,  // measure 15
0100
0000
0000
0000
,  // measure 16
0002
0000
0000
0000
,  // measure 17
0000
0000
0000
0000
,  // measure 18
1003
0000
1000
0000
,  // measure 19
0100
0010
0000
0100
,  // measure 20
0000
0010
0000
0100
,  // measure 21
0000
0010
0000
0100
,  // measure 22
0001
0000
1000
0000
,  // measure 23
0001
0000
0001
0000
,  // measure 24
0100
0000
0100
0000
,  // measure 25
1000
0000
1000
0000
,  // measure 26
0010
0000
0010
0000
,  // measure 27
1000
0000
1000
0100
,  // measure 28
0010
0000
0000
0000
,  // measure 29
0100
0000
0100
0000
,  // measure 30
0010
0000
0010
0000
,  // measure 31
0001
0000
0001
0100
,  // measure 32
0010
0000
0000
0000
,  // measure 33
2000
0000
0000
0000
,  // measure 34
0000
0000
0000
0000
,  // measure 35
3001
0000
0001
0000
,  // measure 36
0010
0000
0010
1000
,  // measure 37
0001
0000
0010
0100
,  // measure 38
1000
0000
0010
0001
,  // measure 39
1000
0000
0001
0110
,  // measure 40
0100
0000
1000
0000
,  // measure 41
0010
0000
0100
0001
,  // measure 42
0010
0000
0100
0000
,  // measure 43
1000
0000
0100
0010
,  // measure 44
0001
0000
0010
0000
,  // measure 45
0001
0000
0000
0000
,  // measure 46
1000
0000
0100
0000
,  // measure 47
1000
0000
0000
0000
,  // measure 48
1000
0000
0010
0000
,  // measure 49
1000
0000
0000
0000
,  // measure 50
0001
0000
0100
0000
,  // measure 51
0002
0000
0000
0000
,  // measure 52
2000
0000
0000
3003
,  // measure 53
0010
0000
1000
0000
,  // measure 54
0001
0010
0001
0010
,  // measure 55
0100
0000
0010
0000
,  // measure 56
0100
1000
0001
1000
,  // measure 57
0100
0000
0010
0000
,  // measure 58
1000
0100
1000
0100
,  // measure 59
0220
0000
0000
0000
,  // measure 60
0000
0000
0000
0330
,  // measure 61
0001
0000
0100
0000
,  // measure 62
0001
0010
0001
0100
,  // measure 63
1000
0000
0100
0000
,  // measure 64
0010
0001
0100
0001
,  // measure 65
1000
0000
0010
0000
,  // measure 66
1000
0100
1000
0010
,  // measure 67
2002
0000
0000
0000
,  // measure 68
0000
0000
0000
3003
,  // measure 69
0010
0000
0100
0000
,  // measure 70
0220
0000
0000
0000
,  // measure 71
0330
0000
0000
0000
;

//---------------dance-single - ----------------
#NOTES:
     dance-single:
     :
     Easy:
     5:
     :
// measure 1
0000
0000
0000
0000
,  // measure 2
0000
0000
0000
0000
,  // measure 3
0000
0000
0000
0000
,  // measure 4
0000
0000
0000
0000
,  // measure 5
0100
0100
0100
0100
,  // measure 6
0200
0000
0000
0000
,  // measure 7
0310
0010
0010
0010
,  // measure 8
0020
0000
0000
0000
,  // measure 9
0200
0000
0000
0330
,  // measure 10
0000
0001
0100
1000
,  // measure 11
0200
0001
0010
0001
,  // measure 12
0300
1000
0001
0100
,  // measure 13
0002
0010
1000
0100
,  // measure 14
0003
1000
0010
0001
,  // measure 15
0020
0100
1000
0100
,  // measure 16
0032
1000
1000
1000
,  // measure 17
1000
0000
1000
0000
1000
0000
0103
0100
,  // measure 18
0000
0000
0010
0010
0000
0000
1000
0001
,  // measure 19
1000
0100
1000
0100
,  // measure 20
0001
0100
0001
0100
,  // measure 21
0010
0001
1000
0100
,  // measure 22
0001
0010
0100
1000
,  // measure 23
0010
1000
0001
0100
,  // measure 24
0001
1000
0100
0010
,  // measure 25
0001
0100
0010
1000
,  // measure 26
1000
0010
0100
0001
,  // measure 27
0000
1000
0100
0001
,  // measure 28
0020
0001
1000
0100
,  // measure 29
0030
0001
1000
0010
,  // measure 30
2000
0010
0001
0100
,  // measure 31
3000
0001
0010
1000
,  // measure 32
0200
0001
1000
0001
,  // measure 33
0320
0100
0100
0100
,  // measure 34
0100
0000
0100
0000
0100
0000
1030
1000
,  // measure 35
0000
0000
0001
0001
0000
0000
0100
0010
,  // measure 36
0100
0001
1000
0001
,  // measure 37
0100
0001
0010
0100
,  // measure 38
1000
0010
1000
0001
,  // measure 39
0100
0010
1000
1001
,  // measure 40
0010
1000
0010
0001
,  // measure 41
1000
0100
0001
0100
,  // measure 42
1000
0010
0001
0100
,  // measure 43
0001
0010
0100
1000
,  // measure 44
0100
1000
0100
1000
,  // measure 45
2200
0000
0000
3300
,  // measure 46
0001
0010
0001
0010
,  // measure 47
0022
0000
0000
0033
,  // measure 48
1000
0010
1000
0010
,  // measure 49
2020
0000
0000
3030
,  // measure 50
0001
0100
0001
0100
,  // measure 51
0202
0000
0000
0303
,  // measure 52
2002
0000
0000
3003
,  // measure 53
0000
0010
0100
1000
,  // measure 54
0100
0010
0100
1100
,  // measure 55
0000
0001
0010
1000
,  // measure 56
0100
1000
0010
0011
,  // measure 57
0000
0100
0010
1000
,  // measure 58
0001
0010
0100
1000
,  // measure 59
2000
0001
0010
0100
,  // measure 60
0010
0001
0010
0100
,  // measure 61
3000
0010
0100
0001
,  // measure 62
1000
0100
0001
0101
,  // measure 63
0000
0001
0010
1000
,  // measure 64
0001
1000
0100
1010
,  // measure 65
0000
0001
1000
0100
,  // measure 66
0010
0001
1000
0010
,  // measure 67
0200
0001
1000
0001
,  // measure 68
1000
0000
0001
0000
1000
0000
0310
0100
,  // measure 69
0000
0000
0100
0010
0000
0000
0110
0000
,  // measure 70
2002
0000
0000
0000
,  // measure 71
3003
0000
0000
0000
;

//---------------dance-single - ----------------
#NOTES:
     dance-single:
     :
     Medium:
     8:
     :
// measure 1
0000
0000
0000
0000
,  // measure 2
0000
0000
0000
0000
,  // measure 3
0000
0000
0000
0000
,  // measure 4
0000
0000
0000
0000
,  // measure 5
0100
0000
0001
0100
1000
0000
1000
0020
,  // measure 6
0000
0000
0000
0030
,  // measure 7
0100
0000
1000
0100
0001
0000
0001
0010
,  // measure 8
0000
1000
0020
0000
0100
0000
0100
0000
,  // measure 9
0100
0100
0100
0130
,  // measure 10
1001
0000
0100
0000
0001
0000
0100
1000
,  // measure 11
0000
0010
0010
0000
0100
0000
0001
0000
,  // measure 12
0010
0000
0100
0000
1000
0001
0100
0000
,  // measure 13
0010
1000
0100
0000
0001
0000
0100
0000
,  // measure 14
0110
0000
0100
0000
1000
0000
0100
0001
,  // measure 15
0000
0010
0010
0000
0100
0000
1000
0000
,  // measure 16
0010
0100
0001
0100
,  // measure 17
0010
0000
0100
0000
1000
0000
0100
0200
,  // measure 18
0000
0000
0310
0020
0000
0000
0031
0010
,  // measure 19
0100
1000
0001
0100
,  // measure 20
0010
1000
0001
0000
0100
0010
1000
0010
,  // measure 21
0100
0001
1000
0001
,  // measure 22
0010
1000
0100
0001
,  // measure 23
0100
0001
0000
0000
0100
1000
0000
0000
,  // measure 24
0010
0000
0001
0000
1000
0000
0010
0010
,  // measure 25
0000
0001
0010
0100
,  // measure 26
1000
0000
0010
0100
,  // measure 27
0101
0000
0010
0000
1000
0000
0001
0010
,  // measure 28
0000
0100
0001
0000
0010
0000
1000
0100
,  // measure 29
1000
0000
0010
0000
0001
1000
0010
0000
,  // measure 30
0100
0001
0010
0000
1000
0000
0010
0000
,  // measure 31
1010
0000
0010
0000
0001
0000
0100
0010
,  // measure 32
0000
0010
0001
0000
0100
0000
0010
0000
,  // measure 33
1000
0100
0001
0100
,  // measure 34
1000
0000
0010
0000
0001
0000
0010
0020
,  // measure 35
0000
0000
0130
0200
0000
0000
0300
0000
,  // measure 36
0010
1000
0010
0000
0100
0001
0100
0000
,  // measure 37
0001
0100
1000
0000
1000
0010
0001
0000
,  // measure 38
1000
0100
0010
0001
,  // measure 39
0100
0000
0010
0000
0100
0010
0110
0000
,  // measure 40
0010
1000
0001
0010
,  // measure 41
0100
0010
0001
0100
,  // measure 42
1000
0010
0001
0010
,  // measure 43
1000
0100
0001
0101
,  // measure 44
0100
0000
0001
0100
1000
0000
1000
0010
,  // measure 45
0000
0010
0100
0000
0001
0000
1000
0000
,  // measure 46
0100
0000
1000
0100
0001
0000
0001
0010
,  // measure 47
0000
0010
0100
0000
1000
0000
0001
0000
,  // measure 48
0010
0000
0010
1000
0001
0000
0100
0010
,  // measure 49
0000
0010
1000
0000
0001
0000
1000
0000
,  // measure 50
0010
0000
0010
0001
1000
0000
0100
0010
,  // measure 51
0000
1000
0200
0000
0010
0000
0010
0000
,  // measure 52
0010
0010
0010
0310
,  // measure 53
1100
0000
0100
0010
0001
0000
0100
0010
,  // measure 54
0000
1000
0010
0000
0100
0000
0010
0100
,  // measure 55
0001
0000
1000
0100
0010
0000
0100
0000
,  // measure 56
0010
0001
0100
0000
0010
1000
0100
0000
,  // measure 57
0101
0000
0010
0100
1000
0000
0100
0010
,  // measure 58
0000
1000
0001
0000
0001
0001
1000
2000
,  // measure 59
0000
0001
0010
0100
,  // measure 60
0001
0000
0100
0000
3010
0000
0100
0010
,  // measure 61
0011
0000
0001
1000
0010
0000
0100
1000
,  // measure 62
0000
0010
0001
0000
1000
0000
0010
1000
,  // measure 63
0010
0000
0001
1000
0100
0000
1000
0000
,  // measure 64
0100
1000
0010
0000
0100
0001
0010
0000
,  // measure 65
1010
0000
0100
0010
0001
0000
0010
0100
,  // measure 66
0000
0001
1000
0000
0100
0100
0001
0002
,  // measure 67
0000
1000
0100
0010
,  // measure 68
1000
0000
0010
0000
0103
0000
1000
2000
,  // measure 69
0000
0000
3001
0002
0000
0000
0103
0000
,  // measure 70
0220
0000
0000
0000
,  // measure 71
0330
0000
0000
0000
;

//---------------dance-single - ----------------
#NOTES:
     dance-single:
     :
     Hard:
     12:
     :
// measure 1
0000
0000
0000
0000
,  // measure 2
0000
0000
0000
0000
,  // measure 3
0000
0000
0000
0000
,  // measure 4
0000
0000
0000
0000
,  // measure 5
1000
0100
0001
0100
1000
0100
0001
0100
,  // measure 6
0000
0000
0000
0000
,  // measure 7
0001
0010
1000
0010
0001
0010
1000
0010
,  // measure 8
0000
0100
0001
0000
0011
0000
1100
0000
,  // measure 9
2002
0000
0000
0000
0000
0000
0000
3000
,  // measure 10
1003
0000
0100
0010
1000
0010
0001
0010
,  // measure 11
0000
1000
0100
0000
0110
0000
1000
0100
,  // measure 12
0001
0000
0100
0010
0001
0010
1000
0010
,  // measure 13
0000
0001
0100
0000
1100
0000
0101
0000
,  // measure 14
1000
0000
0010
0100
0001
0010
0001
1000
,  // measure 15
0000
1000
0001
0000
0010
0100
1000
0100
,  // measure 16
0001
0100
0010
0100
0001
0010
1000
0100
,  // measure 17
0001
0100
1000
0100
0010
0100
0001
0010
,  // measure 18
0000
0000
0000
0000
1000
0000
0010
0000
0000
0000
0010
0000
1000
0001
1000
0000
,  // measure 19
0100
0000
0000
0000
0000
0010
0100
0001
0100
0000
0010
0000
1000
0000
0000
0000
,  // measure 20
0001
1000
0100
1000
0010
0100
0001
0100
,  // measure 21
1000
0000
0000
0000
0000
0001
1000
0001
0010
0000
0100
0000
1000
0000
0100
0000
,  // measure 22
0001
0001
0100
0100
1000
1000
0010
0001
,  // measure 23
0100
0000
0010
0000
0000
1000
0100
1000
0001
0000
0010
0000
0001
0000
0000
0000
,  // measure 24
0100
0010
1000
0100
0001
0100
0010
1000
,  // measure 25
0100
1000
0001
0010
,  // measure 26
1000
0010
0100
0001
1000
0010
0100
0001
,  // measure 27
0010
0000
0010
0100
0001
1000
0100
1000
,  // measure 28
0000
0001
0010
0000
1001
0000
0100
0010
,  // measure 29
0001
0000
0010
1000
0100
1000
0010
0001
,  // measure 30
0000
0100
0010
0000
1010
0000
0011
0000
,  // measure 31
0001
0000
1000
0001
0100
1000
0100
0001
,  // measure 32
0000
0010
1000
0000
1000
0010
0001
0010
,  // measure 33
1000
0100
1000
0001
0100
1000
0001
0010
,  // measure 34
0100
0010
0001
0100
1000
0001
1000
0100
,  // measure 35
0000
0000
0001
0010
0000
0000
1001
0000
,  // measure 36
0100
1000
0000
1000
0000
0001
0000
0100
0000
0010
0000
0010
0000
0100
0000
0001
,  // measure 37
0100
1000
0000
0001
0000
0100
0000
0010
0100
0001
0000
0010
0000
1000
0000
0100
,  // measure 38
1000
0000
0001
0000
1000
0010
0000
0100
0000
0000
0010
0000
1000
0001
0000
0010
,  // measure 39
0000
0100
0000
1000
0000
0100
0000
0010
0000
0000
0001
0000
1001
0000
0000
0000
,  // measure 40
0100
0001
0010
0001
0100
0001
1000
0001
,  // measure 41
0100
0010
1000
0100
0010
0100
1000
0001
,  // measure 42
1000
0000
0010
0001
0100
1000
0010
0001
,  // measure 43
0100
1000
0010
0001
,  // measure 44
0100
0001
0100
1000
0100
0001
0100
0010
,  // measure 45
0000
0010
0010
0010
0010
0010
0010
0010
,  // measure 46
0001
0100
0001
1000
0001
0010
0001
0100
,  // measure 47
0000
0100
0100
0100
0100
0100
0100
0100
,  // measure 48
1000
0001
1000
0010
1000
0100
1000
0001
,  // measure 49
0000
0001
1000
0001
1000
0001
1000
0001
,  // measure 50
0010
0100
0010
1000
0010
0100
0010
0001
,  // measure 51
0000
1000
0010
0000
0101
0000
1010
0000
,  // measure 52
0220
0000
0000
0000
0000
0000
0000
0030
,  // measure 53
0310
0000
1000
0100
0010
0100
0001
0100
,  // measure 54
0000
0000
1000
0000
0100
0000
0010
0000
0001
0000
0000
0100
0000
0000
0010
1000
,  // measure 55
0100
0000
0001
0100
0001
0010
0100
0010
,  // measure 56
0100
1000
0100
1000
0001
1000
0010
0000
,  // measure 57
0100
0000
0010
0100
0001
1000
0010
1000
,  // measure 58
0000
0100
1000
0100
0010
0100
0010
0001
,  // measure 59
0100
0001
1000
0001
0010
0001
0100
0001
,  // measure 60
1000
0100
0001
0100
1000
0010
0100
0001
,  // measure 61
0010
0000
1000
0010
0100
0010
0001
0010
,  // measure 62
0000
0000
1000
0000
0100
0000
0001
0000
0010
0000
0000
0100
0000
0000
0010
1000
,  // measure 63
0001
0001
0010
0010
0100
0100
1000
1000
,  // measure 64
0010
0001
1000
0100
0001
0100
0010
0000
,  // measure 65
0100
0000
0001
1000
1000
0001
0010
0100
,  // measure 66
0000
1000
0010
1000
0100
1000
0001
0100
,  // measure 67
1000
0010
0100
0001
0010
0100
0001
1000
,  // measure 68
0100
1000
0001
1000
0010
1000
0100
1000
,  // measure 69
0000
0000
0001
0010
0000
0000
0110
0000
,  // measure 70
2002
0000
0000
0000
,  // measure 71
3003
0000
0000
0000
;
