#TITLE:MOON PRIDE;
#SUBTITLE:;
#ARTIST:Momoiro Clover Z;
#TITLETRANSLIT:;
#SUBTITLETRANSLIT:;
#ARTISTTRANSLIT:;
#GENRE:;
#CREDIT:;
#BANNER:MOON PRIDE.png;
#BACKGROUND:MOON PRIDE-bg.png;
#LYRICSPATH:;
#CDTITLE:;
#MUSIC:MOON PRIDE.mp3;
#OFFSET:-0.096000;
#SAMPLESTART:58.477001;
#SAMPLELENGTH:12.560000;
#SELECTABLE:YES;
#DISPLAYBPM:173.000000;
#BPMS:0.000000=172.649994;
#STOPS:;
#BGCHANGES:;
#KEYSOUNDS:;
#ATTACKS:;

//---------------dance-single - ----------------
#NOTES:
     dance-single:
     :
     Beginner:
     4:
     :
// measure 0
0000
0000
0000
0000
,  // measure 1
0000
0000
0000
0000
,  // measure 2
0000
0000
0000
0000
,  // measure 3
0000
0000
0000
0000
,  // measure 4
0001
0000
0010
0000
,  // measure 5
0100
0000
1000
0000
,  // measure 6
2002
0000
0000
0000
,  // measure 7
0000
0000
0000
0000
,  // measure 8
0000
0000
0000
0000
,  // measure 9
0000
0000
0000
3003
,  // measure 10
0001
0000
1000
0000
,  // measure 11
0100
0000
1000
0000
,  // measure 12
0010
0000
0100
0000
,  // measure 13
0001
0000
0010
0000
,  // measure 14
0101
0000
1100
0000
,  // measure 15
0011
0000
1010
0000
,  // measure 16
0110
0000
1001
0000
,  // measure 17
0210
0000
0000
0310
,  // measure 18
0001
0000
0100
0000
,  // measure 19
0001
0000
0000
1000
,  // measure 20
0010
0000
1000
0000
,  // measure 21
0010
0000
0000
0001
,  // measure 22
1000
0000
0100
0000
,  // measure 23
1000
0000
0000
0001
,  // measure 24
0010
0000
0001
0000
,  // measure 25
0010
0000
0000
0010
,  // measure 26
1000
0000
1000
0000
,  // measure 27
0010
0000
0010
0000
,  // measure 28
0100
0000
0100
0000
,  // measure 29
0001
0000
0001
1000
,  // measure 30
2000
0000
0000
0001
,  // measure 31
0002
0000
0000
3003
,  // measure 32
0220
0000
0000
0000
,  // measure 33
0000
0330
0100
0001
,  // measure 34
1000
0000
0001
0000
,  // measure 35
0010
0100
0001
0000
,  // measure 36
0100
0000
0001
0000
,  // measure 37
1000
0100
0000
0010
,  // measure 38
0001
0000
0100
0000
,  // measure 39
0010
0000
1000
0100
,  // measure 40
0010
0000
0100
0000
,  // measure 41
0220
0000
0000
0330
,  // measure 42
2002
0000
0000
3003
,  // measure 43
0010
0000
0001
0000
,  // measure 44
0100
0010
1000
0000
,  // measure 45
0100
0000
0010
0000
,  // measure 46
0100
1000
0001
0000
,  // measure 47
0100
0000
0001
0000
,  // measure 48
0010
0001
0100
0000
,  // measure 49
0001
0000
0010
0000
,  // measure 50
1000
0010
0001
0000
,  // measure 51
0220
0000
0000
0000
,  // measure 52
0000
0000
0000
0330
,  // measure 53
2000
0000
0001
0000
,  // measure 54
0020
0000
0000
3030
,  // measure 55
0200
0000
0010
0000
,  // measure 56
0002
0000
0000
0303
,  // measure 57
0002
0000
1000
0000
,  // measure 58
0020
0000
0000
0033
,  // measure 59
2000
0000
0001
0000
,  // measure 60
0010
0000
0100
0000
,  // measure 61
3001
0000
0100
0000
,  // measure 62
1000
0000
0100
0000
,  // measure 63
0001
0000
0010
0000
,  // measure 64
1000
0000
0010
0000
,  // measure 65
1100
0000
1001
0000
,  // measure 66
0011
0000
0110
0000
,  // measure 67
0101
0000
1010
0000
,  // measure 68
1001
0000
0110
0000
,  // measure 69
0010
0000
0001
0000
,  // measure 70
0100
0010
0001
0000
,  // measure 71
0010
0000
0100
0000
,  // measure 72
1000
0010
0001
0000
,  // measure 73
1000
0000
0010
0000
,  // measure 74
0100
0001
0010
0000
,  // measure 75
0001
0000
0010
0000
,  // measure 76
1000
0100
0010
0100
,  // measure 77
1000
0000
1000
0000
,  // measure 78
0001
0010
1000
0000
,  // measure 79
0001
0000
0001
0000
,  // measure 80
1000
0010
0001
0000
,  // measure 81
0100
0000
0010
0000
,  // measure 82
0100
0001
1000
0000
,  // measure 83
0010
0000
0100
0000
,  // measure 84
0010
1000
0001
0100
,  // measure 85
0120
0000
0000
0000
,  // measure 86
0200
0000
0330
1001
,  // measure 87
2002
0000
0000
0000
,  // measure 88
0000
0000
0000
3003
,  // measure 89
0010
0000
0100
0000
,  // measure 90
0010
0000
1000
0000
,  // measure 91
0100
0000
0001
0000
,  // measure 92
0100
0000
1000
0000
,  // measure 93
0101
0000
1100
0000
,  // measure 94
0011
0000
1010
0000
,  // measure 95
0110
0000
1001
0000
,  // measure 96
0220
0000
0000
0000
,  // measure 97
0330
0000
0000
0000
;

//---------------dance-single - ----------------
#NOTES:
     dance-single:
     :
     Easy:
     6:
     :
// measure 0
0000
0000
0000
0000
,  // measure 1
0000
0000
0000
0000
,  // measure 2
0000
0000
0000
0000
,  // measure 3
0000
0000
0000
0000
,  // measure 4
1100
0000
0101
0000
,  // measure 5
1010
0000
0011
0000
,  // measure 6
0220
0000
0000
0000
,  // measure 7
0000
0000
0000
0000
,  // measure 8
0000
0000
0000
0000
,  // measure 9
0000
0000
0000
0330
,  // measure 10
0010
0000
0001
0000
,  // measure 11
1000
0000
0100
0000
,  // measure 12
0100
0001
0100
1000
,  // measure 13
1200
0000
0310
0001
,  // measure 14
1000
0000
0100
0000
,  // measure 15
0010
0000
0001
0000
,  // measure 16
0001
0010
1000
0010
,  // measure 17
0022
0000
0030
1003
,  // measure 18
0010
0000
0100
0001
,  // measure 19
0010
0001
0000
0100
,  // measure 20
0001
0000
0100
0010
,  // measure 21
1000
0010
0000
0100
,  // measure 22
1000
0000
0010
1000
,  // measure 23
0001
1000
0000
0010
,  // measure 24
0001
0000
1001
0000
,  // measure 25
0010
1000
0000
1000
,  // measure 26
0001
0001
1000
0000
,  // measure 27
0010
0001
0100
0000
,  // measure 28
0010
0000
0100
0000
,  // measure 29
1000
0100
0010
0100
,  // measure 30
2000
0000
0000
0010
,  // measure 31
0002
0000
0000
3003
,  // measure 32
0220
0030
0000
0020
0030
0000
0020
0030
,  // measure 33
0000
0020
0330
0000
0100
0000
0001
0000
,  // measure 34
1000
0000
0100
0001
,  // measure 35
0010
1000
0001
1000
,  // measure 36
0100
0001
0010
1000
,  // measure 37
0010
0100
0000
0010
,  // measure 38
0001
0001
1000
1000
,  // measure 39
0100
0001
1000
0001
,  // measure 40
0101
0000
1010
0000
,  // measure 41
1000
0001
0100
0010
,  // measure 42
2002
0000
0000
3003
,  // measure 43
0010
0001
1000
0010
,  // measure 44
1000
0100
0001
0010
,  // measure 45
0100
1000
0001
0100
,  // measure 46
0001
0010
1000
0100
,  // measure 47
0010
0001
1000
0001
,  // measure 48
0100
0010
0001
0010
,  // measure 49
0100
1000
0010
0001
,  // measure 50
1000
0100
0001
0000
,  // measure 51
0220
0000
0000
0000
,  // measure 52
0000
0000
0000
0330
,  // measure 53
0100
0010
0010
0100
,  // measure 54
2000
0000
0000
3100
,  // measure 55
0020
0000
0031
1000
,  // measure 56
0010
0002
0000
0000
,  // measure 57
0013
1000
0100
1000
,  // measure 58
0001
0001
0010
0010
,  // measure 59
0100
0100
1000
1000
,  // measure 60
1010
1100
0011
0101
,  // measure 61
0001
0010
0100
1000
,  // measure 62
0001
0100
1000
0100
,  // measure 63
0001
0010
1000
0010
,  // measure 64
0001
0100
0010
1000
,  // measure 65
1010
0100
0101
1000
,  // measure 66
0011
0100
1100
1000
,  // measure 67
0011
1100
1010
0101
,  // measure 68
2002
0000
3003
0110
,  // measure 69
0010
0000
0100
0000
,  // measure 70
0100
0001
1000
0100
,  // measure 71
1000
0000
0001
0000
,  // measure 72
0100
0010
1000
0001
,  // measure 73
0001
1000
0010
1000
,  // measure 74
0100
0010
0100
0001
,  // measure 75
0100
0010
1000
0010
,  // measure 76
0001
0100
0001
0010
,  // measure 77
1010
0001
0100
0010
,  // measure 78
0001
1000
0001
0100
,  // measure 79
0101
0001
1000
0100
,  // measure 80
0010
0001
0010
1000
,  // measure 81
0011
0100
0001
1000
,  // measure 82
0100
1000
0010
0100
,  // measure 83
1100
1000
0100
0010
,  // measure 84
0001
0010
0100
1000
,  // measure 85
0102
0100
0100
0103
,  // measure 86
2100
0100
0100
3100
,  // measure 87
0220
0000
0000
0330
,  // measure 88
0011
2020
0000
3030
,  // measure 89
0010
0010
0001
0001
,  // measure 90
1000
1000
0100
0100
,  // measure 91
0001
1000
0010
1000
,  // measure 92
0200
0000
0310
0001
,  // measure 93
0010
0010
1000
1000
,  // measure 94
0001
0001
0100
0100
,  // measure 95
1000
0010
0100
0001
,  // measure 96
2002
0000
0000
0000
,  // measure 97
3003
0000
0000
0000
;

//---------------dance-single - ----------------
#NOTES:
     dance-single:
     :
     Medium:
     9:
     :
// measure 0
0000
0000
0000
0000
,  // measure 1
0000
0000
0000
0000
,  // measure 2
0000
0000
0000
0000
,  // measure 3
0000
0000
0000
0000
,  // measure 4
1000
0010
0001
0010
,  // measure 5
0100
1000
0100
0001
,  // measure 6
0010
0000
0000
0010
1000
0000
0000
1000
,  // measure 7
0001
0000
0000
0001
0100
0000
0000
0100
,  // measure 8
0010
0001
1000
0100
,  // measure 9
0022
0000
0000
0000
0000
0000
0000
0033
,  // measure 10
1000
0000
1000
0100
0001
0000
0001
0100
,  // measure 11
0010
0000
0010
1000
0100
0000
0110
0000
,  // measure 12
0010
0000
0001
0100
0010
1000
0010
0000
,  // measure 13
2200
0000
0000
3300
0010
0001
1000
0010
,  // measure 14
0100
0000
0100
0010
0001
0000
0001
1000
,  // measure 15
0010
0000
0010
0100
1000
0000
0110
0000
,  // measure 16
0010
1000
0001
0000
0100
1000
0001
0000
,  // measure 17
0022
0000
0000
0000
0033
1000
0100
0010
,  // measure 18
0002
0000
0000
1000
0000
0000
0010
0000
,  // measure 19
0103
0000
1100
0000
0000
0001
0100
0010
,  // measure 20
2000
0000
0000
0010
0000
0000
0001
0000
,  // measure 21
3100
0000
0101
0000
0000
0010
0001
1000
,  // measure 22
0020
0000
0000
1000
0000
0000
0100
0000
,  // measure 23
1030
0000
1010
0000
0000
0010
0001
1000
,  // measure 24
0200
0000
0000
0001
0000
0000
1000
0000
,  // measure 25
0301
0000
0011
0000
0000
0001
0010
1000
,  // measure 26
0010
0100
0001
1000
,  // measure 27
0010
0000
1000
0100
0000
0001
0010
0100
,  // measure 28
1000
0000
0010
0100
0000
0100
0001
0000
,  // measure 29
1000
0000
0010
1000
0000
1000
0001
0000
,  // measure 30
0110
0000
0010
0200
0000
0000
0301
0000
,  // measure 31
1001
0000
1000
0002
0000
0000
0013
0000
,  // measure 32
1200
0000
0300
2010
0000
3000
0102
0000
,  // measure 33
0003
0021
0000
0030
0100
0000
0001
0000
,  // measure 34
0010
0000
0001
0100
0000
1000
0001
0000
,  // measure 35
0010
0000
0001
1000
0000
0001
0000
0100
,  // measure 36
0010
0000
1000
0010
0000
0010
0100
0000
,  // measure 37
0011
0000
1010
0000
0000
0010
0100
0000
,  // measure 38
0001
0000
0100
0010
0000
1000
0100
0000
,  // measure 39
1100
1001
0101
0110
,  // measure 40
1000
0000
0100
0001
0000
0100
0010
1000
,  // measure 41
0011
0101
1100
1010
,  // measure 42
2002
0000
0000
3003
,  // measure 43
0010
0000
0100
0020
0000
1000
0000
0100
,  // measure 44
0000
1030
0010
0000
0001
0000
0010
0000
,  // measure 45
1000
0000
0100
0010
0001
0000
0100
0010
,  // measure 46
0000
1000
0001
0000
0100
0000
0010
1000
,  // measure 47
0001
0000
0100
0020
0000
0001
0000
1000
,  // measure 48
0000
0130
0010
0000
0100
0000
0001
0000
,  // measure 49
1000
0000
0001
0010
0100
0000
0100
0010
,  // measure 50
0000
0001
1000
0000
2002
0000
0000
3003
,  // measure 51
0011
0000
0000
1010
0000
0000
0101
0000
,  // measure 52
0000
1100
0000
0000
0100
0000
0010
0000
,  // measure 53
0001
1000
0010
1000
,  // measure 54
0002
0000
0000
0000
0000
0000
0103
0010
,  // measure 55
2000
0000
0000
3010
0100
0000
0001
0000
,  // measure 56
1000
0000
0010
2000
0000
0000
0000
0000
,  // measure 57
3100
0010
0001
0010
,  // measure 58
0100
1000
0001
0100
,  // measure 59
0001
1000
0100
1000
,  // measure 60
0011
1010
0101
1100
,  // measure 61
0010
1000
0100
0000
0001
0010
0001
0000
,  // measure 62
0010
0100
0001
0000
1000
0100
1000
0000
,  // measure 63
0010
0001
1000
0000
0100
0010
0001
0000
,  // measure 64
0010
1000
0100
0000
0001
0010
0100
0000
,  // measure 65
0011
0010
0010
0000
0101
0001
0001
0000
,  // measure 66
1010
1000
1000
0000
1100
0100
0100
0000
,  // measure 67
0001
1000
0010
0100
,  // measure 68
0010
0100
0001
1000
0100
0000
0110
0000
,  // measure 69
0010
0000
0001
0010
0000
0001
0000
0100
,  // measure 70
0000
0010
0100
0000
0001
0000
1000
0000
,  // measure 71
0010
0000
0100
1000
0010
0000
0001
0100
,  // measure 72
0000
0100
0010
0000
1000
0000
0100
0001
,  // measure 73
1000
0000
0100
0001
0000
0001
0000
1000
,  // measure 74
0000
1000
0010
0000
0100
0000
1000
0000
,  // measure 75
0010
0000
0100
0010
1000
0000
0001
0100
,  // measure 76
0000
0010
0100
0000
0100
1000
0001
1000
,  // measure 77
0010
0000
0100
0010
0000
0101
0000
1100
,  // measure 78
0000
0100
0010
0000
0001
0000
0100
0000
,  // measure 79
0001
0000
1000
0010
0100
0000
0010
0100
,  // measure 80
0000
0001
1000
0000
0010
0000
1000
0010
,  // measure 81
0100
0000
0100
0010
0000
0011
0000
1010
,  // measure 82
0000
1000
0010
0000
0001
0000
1000
0000
,  // measure 83
0100
0000
0001
0100
0001
0010
0000
1001
,  // measure 84
0000
0001
0100
0000
0010
0000
0100
1000
,  // measure 85
0011
0101
0011
0101
,  // measure 86
1010
1100
1010
1100
,  // measure 87
0220
0000
0000
0000
,  // measure 88
0000
0000
0000
0000
0000
0000
0000
0330
,  // measure 89
0001
0000
1000
0010
0100
0000
1000
0100
,  // measure 90
0001
0000
0010
0001
0100
0000
0110
0000
,  // measure 91
0001
0000
0100
0010
0001
1000
0010
0000
,  // measure 92
0202
0000
0000
0303
1000
0010
0100
0010
,  // measure 93
0001
0000
0010
0100
1000
0000
0010
0100
,  // measure 94
0001
0000
1000
0010
0100
0000
1001
0000
,  // measure 95
0100
1000
0001
0010
,  // measure 96
2020
0000
0000
0000
,  // measure 97
3030
0000
0000
0000
;

//---------------dance-single - ----------------
#NOTES:
     dance-single:
     :
     Hard:
     15:
     :
// measure 0
0000
0000
0000
0000
,  // measure 1
0000
0000
0000
0000
,  // measure 2
0000
0000
0000
0000
,  // measure 3
0000
0000
0000
0000
,  // measure 4
1001
0010
0110
0100
,  // measure 5
0101
1010
1100
0011
,  // measure 6
0010
1000
0000
0001
0200
0000
0000
0310
,  // measure 7
0001
1000
0000
1000
0200
0000
0000
0310
,  // measure 8
0100
0000
0001
0010
0001
0100
2000
0002
,  // measure 9
0000
0000
0000
0000
0000
0000
0000
3003
,  // measure 10
0010
0000
1000
0100
1000
0000
0001
0000
0010
0000
0001
0100
0001
0000
1000
0000
,  // measure 11
0001
0000
1000
0010
1000
0000
0010
0000
0100
0000
0001
0010
0001
0000
0000
0000
,  // measure 12
1000
0000
0100
0000
0001
0000
0010
0000
0100
0010
0100
0000
0001
0000
1000
0000
,  // measure 13
0220
0000
0000
0330
0100
0001
1000
0010
,  // measure 14
1000
0000
0100
0010
0001
0000
0010
0000
0100
0000
1000
0010
0100
0000
0010
0000
,  // measure 15
0001
0000
1000
0010
0001
0000
0100
0000
0010
0000
0100
1000
0001
0000
0000
0000
,  // measure 16
1000
0000
0010
0000
0100
0000
0001
0000
1000
0100
0010
0000
0100
0000
1000
0000
,  // measure 17
0022
0000
0000
0000
0033
0100
1000
0001
,  // measure 18
0010
0001
1000
0001
0000
0010
0100
0001
,  // measure 19
1000
0001
0100
0000
0101
1000
0010
0100
,  // measure 20
0010
1000
0010
0001
0000
1000
0001
0100
,  // measure 21
0001
0010
1000
0000
1100
0001
0010
0001
,  // measure 22
1000
0100
0001
0100
0000
0010
1000
0100
,  // measure 23
1000
0001
0010
0000
1010
1000
0100
0001
,  // measure 24
0100
1000
0001
0010
0000
1000
0001
0100
,  // measure 25
0001
0010
1000
0000
1001
0100
0010
1000
,  // measure 26
0010
1000
0100
0000
0110
0000
0010
1000
,  // measure 27
0001
0010
0100
1000
0000
0100
0010
0001
,  // measure 28
1000
0000
0100
0010
0000
0010
0001
1000
,  // measure 29
0001
0000
0010
1000
0000
1000
0001
0100
,  // measure 30
0001
1000
0100
0010
0000
0001
1000
0000
,  // measure 31
0010
1000
0100
0001
0000
0100
0010
0001
,  // measure 32
0010
0000
1000
0100
0000
0001
0100
0000
,  // measure 33
0010
1000
0000
0100
0101
0000
1010
0000
,  // measure 34
0100
1000
0100
0001
0000
0010
1000
0100
,  // measure 35
0010
0100
1000
0100
0000
0001
0010
0001
,  // measure 36
1000
0001
0100
1000
0000
1000
0100
0001
,  // measure 37
0011
0000
1010
0000
0000
0100
0001
1000
,  // measure 38
0100
0010
1000
0001
0000
0001
0100
0010
,  // measure 39
0000
0010
0001
1000
0010
0100
1000
0000
,  // measure 40
0001
0100
0001
1000
0000
0100
0010
0100
,  // measure 41
0010
0001
0000
0000
0001
0100
0000
0000
0100
1000
0000
0000
1000
0010
0000
0000
,  // measure 42
2002
0000
0000
3003
,  // measure 43
0010
1000
0100
0011
0000
0101
0000
1001
,  // measure 44
0000
0100
0010
1000
0010
0001
0010
0000
,  // measure 45
0110
0000
1000
0001
1000
0100
0010
0100
,  // measure 46
0000
0001
0010
0000
0110
0000
0100
1000
,  // measure 47
0010
0000
0001
1100
0000
1010
0000
1001
,  // measure 48
0000
0100
0001
1000
0001
0010
0001
0000
,  // measure 49
0110
0000
0010
1000
0001
0010
0100
0010
,  // measure 50
0000
0001
0100
0000
0220
0000
0000
0330
,  // measure 51
0001
0001
0001
0010
0010
0010
1000
1000
,  // measure 52
1000
0100
0100
0100
0110
0000
1001
0000
,  // measure 53
0100
0000
1000
0000
0001
0000
0010
0000
0001
0000
0100
0000
,  // measure 54
2020
0000
0000
0000
3030
0100
0001
1000
,  // measure 55
0022
0000
0000
0000
0000
0000
0033
0000
0000
0100
0000
0000
1000
0000
0010
0000
0100
0000
0001
0000
0010
0000
0100
0000
,  // measure 56
1000
0000
0100
0000
0010
0000
0001
0000
0000
2002
0000
0000
0000
0000
0000
0000
0000
0000
0000
0000
0000
3003
0000
0000
,  // measure 57
0100
0010
0100
0000
1000
0001
1000
0000
0001
0010
0001
0100
0010
1000
0100
1000
,  // measure 58
0100
0010
0001
0010
0100
0001
0100
0010
1000
0100
0010
0001
1000
0010
0100
0001
,  // measure 59
0010
0100
0001
0100
1000
0100
0010
0001
0100
0000
0010
0000
1000
0000
0001
0000
,  // measure 60
0011
1010
0101
1100
,  // measure 61
1000
0100
1000
0000
0001
0010
0001
0000
0001
0100
0001
0000
1000
0010
1000
0000
,  // measure 62
0010
0100
0010
0000
1000
0001
1000
0000
0100
0010
0100
0000
0001
1000
0001
0000
,  // measure 63
0100
0010
0100
0010
0100
0001
0100
0001
1000
0010
1000
0010
0100
0010
0100
0010
,  // measure 64
1000
0100
1000
0100
1000
0001
1000
0001
0010
0001
0010
0001
1000
0001
1000
0001
,  // measure 65
1000
0100
0010
0100
1100
0000
0000
0000
0001
0010
0100
0010
0011
0000
0000
0000
,  // measure 66
0001
0100
0010
1000
1001
0000
0000
0000
0010
1000
0001
1000
0010
0100
0001
0010
,  // measure 67
1100
0000
0000
0000
0101
0000
0000
0000
0001
0010
0001
0100
0010
0000
0000
0000
,  // measure 68
0001
0010
0001
0100
0010
1000
0100
1000
0110
0000
0000
0000
1001
0000
0000
0000
,  // measure 69
0001
1000
0001
0100
0000
0010
0000
1000
,  // measure 70
0000
0001
0100
0010
1000
0100
1000
0000
,  // measure 71
0010
0000
0100
0010
1000
0001
0100
1000
,  // measure 72
0000
1000
0100
0000
0001
0000
0100
0010
,  // measure 73
1000
0000
0010
0100
0000
0001
0010
1000
,  // measure 74
0000
1000
0001
0100
0010
0100
1000
0000
,  // measure 75
0010
0000
1000
0001
1000
0010
0001
0100
,  // measure 76
0000
0010
1000
0000
0100
1000
0001
0010
,  // measure 77
0001
0100
0010
1000
0100
0010
0001
0100
,  // measure 78
0001
0010
1000
0100
0010
0100
0001
0010
,  // measure 79
0100
1000
0100
0010
0001
1000
0010
1000
,  // measure 80
0100
0001
0010
0100
1000
0001
0100
0001
,  // measure 81
0010
0100
0001
1000
0010
0001
0100
0010
,  // measure 82
0001
1000
0001
0100
0010
0001
0100
1000
,  // measure 83
0100
0001
0010
0001
1000
0010
0100
0010
,  // measure 84
0001
0010
1000
0100
0010
0001
0100
0010
,  // measure 85
0101
1001
1010
0110
,  // measure 86
1001
1100
0011
0110
,  // measure 87
2002
0000
0000
0000
0000
0000
0000
3003
,  // measure 88
1010
0000
0202
0000
0000
0000
0000
0303
,  // measure 89
1000
0000
0010
0100
0001
0000
0010
0000
0100
0000
0100
0010
0001
0000
1000
0000
,  // measure 90
0100
0000
1000
0001
0010
0000
0001
0000
0100
0000
0010
0001
1000
0000
0000
0000
,  // measure 91
1000
0000
0010
0000
0100
0000
0010
0000
1000
0100
0010
0000
0001
0000
1000
0000
,  // measure 92
2200
0000
0000
3300
0010
0001
0100
0010
,  // measure 93
1000
0000
0001
1000
0100
0000
0001
0000
0010
0000
0100
0010
0001
0000
1000
0000
,  // measure 94
0001
0000
0100
0010
1000
0000
0100
0000
0010
0000
1000
0100
0001
0000
0000
0000
,  // measure 95
0100
0000
0010
0000
0100
0000
0001
0000
1000
0100
1000
0000
0001
0000
0010
0000
,  // measure 96
0100
1000
0001
0100
0010
1000
0001
0010
,  // measure 97
0011
0000
0000
0000
;
