#TITLE:MAKE IT BETTER;
#SUBTITLE:(So-REAL Mix);
#ARTIST:mitsu-O! SUMMER;
#TITLETRANSLIT:;
#SUBTITLETRANSLIT:;
#ARTISTTRANSLIT:;
#CREDIT:;
#BANNER:MAKE IT BETTER (So-REAL Mix).png;
#BACKGROUND:MAKE IT BETTER (So-REAL Mix)-bg.png;
#JACKET:MAKE IT BETTER (So-REAL Mix)-jacket.png;
#LYRICSPATH:;
#CDTITLE:;
#MUSIC:MAKE IT BETTER (So-REAL Mix).ogg;
#OFFSET:0.000;
#SAMPLESTART:56.979;
#SAMPLELENGTH:16.000;
#SELECTABLE:YES;
#DISPLAYBPM:118.000;
#BPMS:0.000=117.648,16.000=118.014;
#STOPS:;
#BGCHANGES:;

//---------------dance-single - ----------------
#NOTES:
     dance-single:
     :
     Beginner:
     3:
     :
0000
0000
0000
0000
,
0000
0000
0000
0000
,
0000
0000
0000
0000
,
0000
0000
0000
0000
,
0001
0000
0000
0000
,
0100
0000
0000
0000
,
0010
0000
0000
0000
,
2000
0000
0000
3000
,
1000
0000
0000
0000
,
0100
0000
0000
0000
,
0010
0000
0000
0000
,
0002
0000
0000
0003
,
0100
0010
0000
0010
,
0000
0100
0000
0100
,
0000
1000
0000
0001
,
0000
1000
0000
0001
,
0000
0100
0000
0010
,
0000
0010
0000
0100
,
0000
0001
0000
1000
,
2002
0000
0000
0000
,
3003
0010
0100
0010
,
0000
1000
0000
1000
,
0000
0100
0010
0100
,
0000
0001
0000
0001
,
0000
1000
0010
0100
,
0000
0010
0000
0010
,
0000
0001
1000
0010
,
0000
0000
0000
0000
,
0001
0000
0100
0010
,
2000
0000
0000
3000
,
0001
0000
0001
0000
,
1000
0010
0100
0000
,
1000
0000
0100
0010
,
0002
0000
0000
0003
,
1000
0000
1000
0000
,
0220
0000
0000
0000
,
0330
0001
0100
1000
,
0000
0100
0000
0001
,
0000
1000
0001
0010
,
0000
0001
0000
1000
,
0000
0100
0010
0001
,
0000
0100
0000
0010
,
0000
1000
0010
0100
,
2002
0000
0000
0000
,
3003
0000
0000
0000
;

//---------------dance-single - ----------------
#NOTES:
     dance-single:
     :
     Easy:
     5:
     :
// measure 1
0000
0000
0000
0000
,  // measure 2
0000
0000
0000
0000
,  // measure 3
0000
0000
0000
0000
,  // measure 4
0000
0000
0000
0000
,  // measure 5
0100
0001
1000
0001
,  // measure 6
0020
0000
0000
0000
,  // measure 7
0031
1000
0001
1000
,  // measure 8
0100
0010
0001
1001
,  // measure 9
1000
0010
0100
0001
,  // measure 10
0200
0000
0000
0000
,  // measure 11
0310
1000
0001
0100
,  // measure 12
0220
0000
0000
0330
,  // measure 13
1000
0100
0010
0000
0100
0000
0001
0000
,  // measure 14
2100
0100
0100
3100
,  // measure 15
0102
0100
0100
0103
,  // measure 16
0011
1010
1001
0000
,  // measure 17
0001
0100
0010
0000
1000
0000
0001
0000
,  // measure 18
0012
0010
0010
0013
,  // measure 19
2010
0010
0010
3010
,  // measure 20
0220
0000
0000
0000
,  // measure 21
0000
0330
0101
1100
,  // measure 22
0001
0100
0010
1000
,  // measure 23
2002
3003
1100
0101
,  // measure 24
0020
0000
0000
0000
,  // measure 25
2000
3030
0110
0101
,  // measure 26
0001
0010
0100
1000
,  // measure 27
0022
0033
0110
1100
,  // measure 28
0000
0000
0000
0000
,  // measure 29
0010
0001
0100
0000
0010
1000
0001
0000
,  // measure 30
1000
0100
0001
0100
,  // measure 31
1000
0010
0001
0010
,  // measure 32
1100
0011
1001
0000
,  // measure 33
1000
0100
0010
0000
0001
0010
0100
0000
,  // measure 34
1000
0100
0001
0010
,  // measure 35
0001
0100
0010
1000
,  // measure 36
2002
0000
0000
0000
,  // measure 37
0000
3003
0011
0101
,  // measure 38
0100
0010
1000
0010
,  // measure 39
0220
0330
1100
1010
,  // measure 40
2000
0000
0000
0000
,  // measure 41
0200
3300
1001
0011
,  // measure 42
1000
0010
1000
0100
,  // measure 43
0202
0303
1010
0101
,  // measure 44
0220
0000
0000
0000
,  // measure 45
0330
0000
0000
0000
;

//---------------dance-single - ----------------
#NOTES:
     dance-single:
     :
     Medium:
     8:
     :
0000
0000
0000
0000
,
0000
0000
0000
0000
,
0000
0000
0000
0000
,
0000
0000
0000
0000
,
0100
0010
1000
0000
0001
0100
0001
0010
,
0100
1000
0001
0100
,
0010
0001
1000
0000
0010
1000
0100
0000
,
0010
0001
1000
0100
1000
0000
1001
0000
,
1000
0010
0100
0000
0001
1000
0100
1000
,
0001
0100
0010
1000
,
0010
0100
0001
0100
,
0220
0000
0000
0330
1000
1000
0001
0001
,
0100
0010
1000
0000
1000
0001
0010
0001
,
0100
0010
0100
0010
,
1000
0100
0010
0000
0001
0100
0010
0000
,
0100
0010
1000
0001
0010
0000
0110
0000
,
0100
0001
1000
0000
0100
0001
0010
0010
,
0001
0010
1000
0100
,
1000
0010
0001
0100
,
2002
0000
0000
0000
0000
0000
0000
3003
,
0000
1010
0000
0000
1000
0001
0100
0001
,
0000
0010
0000
0100
0000
1000
0000
0001
,
0100
0000
0011
0000
0001
0100
0010
1000
,
0220
0000
0000
0000
,
0330
0000
0101
0000
0100
0010
1000
0010
,
0000
1000
0000
0001
0000
0100
0000
0010
,
1000
0000
1100
0000
0001
0100
0010
1000
,
2002
0000
0000
0000
0000
0000
0000
3003
,
0010
1000
0100
0000
0001
1000
0001
0100
,
0010
0000
0000
1000
0000
0000
0001
0000
0000
0100
0001
0000
0010
0000
0100
0000
,
1000
0010
0100
0000
0010
1000
0001
0000
,
0100
1000
0100
0001
0100
0000
0110
0000
,
1000
0001
0010
0000
0100
0001
1000
0100
,
0001
0000
0000
0100
0000
0000
0010
0000
0000
1000
0100
0000
0010
0000
0001
0000
,
1000
0001
1000
0000
0010
0100
0010
0000
,
2002
0000
0000
0000
0000
0000
0000
3003
,
0000
0011
0000
0000
0100
0001
1000
0100
,
0000
0001
0000
0100
0000
1000
0000
0010
,
0100
0000
1010
0000
0001
1000
0010
1000
,
0220
0000
0000
0000
,
0330
0000
0101
0000
0100
0001
1000
0100
,
0000
0001
0000
0100
0000
0010
0000
1000
,
0100
0000
1100
0000
1000
0001
0100
0001
,
1000
0010
0000
0100
0000
0001
0000
0100
0000
0010
0000
1000
0001
1000
0000
0000
;

//---------------dance-single - ----------------
#NOTES:
     dance-single:
     :
     Hard:
     13:
     :
0000
0000
0000
0000
,
0000
0000
0000
0000
,
0000
0000
0000
0000
,
0000
0000
0000
0000
,
0001
0000
0010
0000
0001
1000
0000
1000
0010
0000
0010
0000
0100
0000
0010
0000
,
1000
0000
0000
0001
0000
0000
0010
0000
0000
0100
1000
0000
0001
0000
1000
0000
,
0010
0000
0001
0000
1000
0010
0000
0100
0000
0010
1000
0000
0001
0000
1000
0000
,
0010
0100
0000
0001
0000
0010
0000
0001
1000
0000
0010
0000
0100
0000
0010
0000
,
1000
0000
0001
0000
0100
0001
0000
0001
0010
0000
0100
0000
1000
0000
0010
0000
,
0001
0000
0000
0100
0000
0000
0010
0000
0000
1000
0010
0000
1000
0000
0001
0000
,
0100
0000
0010
0000
0001
0010
0000
0001
0000
1000
0100
0000
1000
0000
0001
0000
,
0010
0100
0000
1100
0000
0101
0000
0010
1000
0000
0001
0000
1000
0000
0010
0000
,
0100
0000
0001
0000
0001
1000
0000
0010
0100
0000
1000
0000
0001
0000
0010
0000
,
1000
0000
0000
0001
0000
0000
0100
0000
0000
0010
1000
0000
0001
0000
0010
0000
,
0001
0000
1000
0000
0100
1000
0000
0001
0000
1000
0010
0000
0001
0000
0010
0000
,
1000
0010
0000
0100
0000
0010
0000
0001
0100
0000
1000
0000
0100
0000
0001
0000
,
1000
0000
0010
0000
0001
0010
0000
0010
1000
0000
0100
0000
0010
0000
0001
0000
,
1000
0000
0000
0010
0000
0000
0100
0000
0000
0001
1000
0000
0010
0000
1000
0000
,
0001
0000
0010
0000
0100
0010
0000
0001
0000
0100
0001
0000
1000
0000
0001
0000
,
0100
0010
0000
0101
0000
0110
0000
1010
0000
1000
0100
1000
0001
1000
0000
0000
,
0000
0000
0011
0000
0000
0000
0000
0000
0001
0010
0001
1000
0010
1000
0000
0000
,
0000
0100
0000
0100
0000
0100
0000
0100
,
0010
0000
0000
0000
0101
0000
0000
0000
0100
0001
0010
0001
1000
0100
0000
0000
,
0010
0001
0000
1000
0000
0010
0000
1000
0000
0100
0000
0010
0001
1000
0010
0100
,
0000
0000
0000
0000
1100
0000
0000
0000
1000
0001
0100
0001
0010
0100
0000
0000
,
0000
1000
0000
0001
0000
1000
0000
0001
,
0100
0000
0000
0000
1010
0000
0000
0000
1000
0010
0100
0001
0100
0010
0000
0000
,
0220
0000
0000
0000
0000
0000
0000
0330
,
0010
0000
0100
0000
0010
1000
0000
0100
0001
0000
0100
0000
0010
0000
0100
0000
,
0001
0000
0000
0010
0000
0000
1000
0000
0000
0010
0001
0000
0100
0000
0010
0000
,
0100
0000
1000
0000
0100
1000
0000
0010
0000
0001
0100
0000
0010
0000
0100
0000
,
0001
0010
0000
1000
0000
0001
0000
0100
0010
0000
1000
0000
0001
0000
0010
0000
,
1000
0000
0100
0000
1000
0001
0000
0100
0001
0000
0010
0000
1000
0000
0001
0000
,
0100
0000
0000
0001
0000
0000
1000
0000
0000
0001
0010
0000
0100
0000
1000
0000
,
0001
0000
0010
0000
1000
0010
0000
1000
0000
0001
1000
0000
0010
0000
0001
0000
,
0100
0010
0000
1001
0000
1100
0000
0011
0000
0010
0100
1000
0001
0100
0000
0000
,
0000
0000
1010
0000
0000
0000
0000
0000
0001
0100
0010
1000
0010
0100
0000
0000
,
0000
0100
0000
0010
0000
0100
0000
0010
,
1000
0000
0000
0000
0101
0000
0000
0000
0100
0001
1000
0001
0010
0100
0000
0000
,
0010
1000
0000
0010
0000
0100
0000
0010
0000
0001
0000
0100
0001
1000
0100
0010
,
0000
0000
0000
0000
0011
0000
0000
0000
1000
0010
1000
0001
0010
0100
0000
0000
,
0000
0100
0000
0001
0000
1000
0000
0010
,
1000
0000
0000
0000
1100
0000
0000
0000
0010
0001
0100
0001
1000
0001
0000
0000
,
0100
0101
0000
1010
0000
1001
0000
0011
0000
1100
0000
0100
0010
0100
0000
0000
;
