#TITLE:LOVE ♥ SHINE 2025;
#SUBTITLE:;
#ARTIST:小坂りゆ;
#TITLETRANSLIT:;
#SUBTITLETRANSLIT:;
#ARTISTTRANSLIT:RIYU KOSAKA;
#GENRE:;
#CREDIT:;
#BANNER:LOVE SHINE 2025.png;
#BACKGROUND:LOVE SHINE 2025-bg.png;
#LYRICSPATH:;
#CDTITLE:;
#MUSIC:LOVE SHINE 2025.mp3;
#OFFSET:-0.030000;
#SAMPLESTART:108.166000;
#SAMPLELENGTH:14.600000;
#SELECTABLE:YES;
#DISPLAYBPM:88.000000:177.000000;
#BPMS:0.000000=176.990005
,256.000000=88.495003
,280.000000=176.990005;
#STOPS:;
#BGCHANGES:;
#KEYSOUNDS:;
#ATTACKS:;

//---------------dance-single - ----------------
#NOTES:
     dance-single:
     :
     Beginner:
     3:
     :
// measure 0
0000
0000
0000
0000
,  // measure 1
0000
0000
0000
0000
,  // measure 2
0000
0000
0000
0000
,  // measure 3
0000
0000
0000
0000
,  // measure 4
2000
0000
0000
0000
,  // measure 5
3002
0000
0000
0000
,  // measure 6
0203
0000
0000
0000
,  // measure 7
0320
0000
0000
0000
,  // measure 8
0130
0100
0000
0001
,  // measure 9
0000
0100
0000
0010
,  // measure 10
0000
1000
0000
0001
,  // measure 11
0000
0100
0000
0001
,  // measure 12
2000
0000
0000
3000
,  // measure 13
0020
0000
0000
0030
,  // measure 14
0200
0000
0000
0300
,  // measure 15
0002
0000
0000
0003
,  // measure 16
0010
0000
1000
0000
,  // measure 17
0000
0001
0000
1000
,  // measure 18
0100
0000
0010
0000
,  // measure 19
0000
0100
0000
0001
,  // measure 20
1000
0000
0001
0000
,  // measure 21
0000
1000
0000
0100
,  // measure 22
0010
0000
0001
0000
,  // measure 23
0000
0010
0000
0100
,  // measure 24
0010
0000
1000
0000
,  // measure 25
0000
0001
0000
1000
,  // measure 26
0010
0000
1000
0000
,  // measure 27
0000
0010
0000
0001
,  // measure 28
0100
0000
0010
0000
,  // measure 29
0000
0010
0000
1000
,  // measure 30
0010
0000
0100
0000
,  // measure 31
2002
0000
0000
3003
,  // measure 32
0010
0000
1000
0000
,  // measure 33
0001
0000
1000
0000
,  // measure 34
0100
0010
0001
0000
,  // measure 35
0010
0100
1000
0000
,  // measure 36
0001
0000
0100
0000
,  // measure 37
0010
0000
0100
0000
,  // measure 38
0002
0000
0000
0000
,  // measure 39
0000
1000
0000
1003
,  // measure 40
0100
0000
0001
0000
,  // measure 41
0100
0000
1000
0000
,  // measure 42
0010
1000
0100
0000
,  // measure 43
0010
1000
0001
0000
,  // measure 44
0010
0000
0100
0000
,  // measure 45
1000
0000
0100
0000
,  // measure 46
0022
0000
0000
0000
,  // measure 47
0000
0000
0000
0033
,  // measure 48
0100
0000
0001
0000
,  // measure 49
1000
0000
1000
0000
,  // measure 50
0010
0000
0100
0000
,  // measure 51
0001
0000
0001
0000
,  // measure 52
1000
0000
0001
0000
,  // measure 53
0100
0000
0010
0000
,  // measure 54
2002
0000
0000
0000
,  // measure 55
0003
0020
0000
3030
,  // measure 56
0002
0000
0000
0000
,  // measure 57
0000
0000
0000
0000
,  // measure 58
2003
0000
0000
0000
,  // measure 59
0000
0000
0000
0000
,  // measure 60
3020
0000
0000
0000
,  // measure 61
0000
0000
0000
0000
,  // measure 62
0230
0000
0000
0000
,  // measure 63
0000
0000
0000
0000
,  // measure 64
0310
0000
1000
0000
,  // measure 65
0001
0000
0100
0000
,  // measure 66
0010
0000
0100
0000
,  // measure 67
0001
0000
1000
0000
,  // measure 68
0010
0000
0100
0000
,  // measure 69
0010
0000
0110
0000
,  // measure 70
1000
0000
0100
0000
,  // measure 71
0010
0000
0001
0000
,  // measure 72
2001
0000
0000
0000
,  // measure 73
0000
0010
0010
3010
,  // measure 74
0100
0000
1000
0000
,  // measure 75
0001
1000
0010
0000
,  // measure 76
0100
0000
0010
0000
,  // measure 77
0100
0001
1000
0000
,  // measure 78
1000
0000
0100
0000
,  // measure 79
0010
0000
0100
0000
,  // measure 80
2002
0000
0000
0000
,  // measure 81
0000
0000
0000
3003
,  // measure 82
1000
0000
0100
0000
,  // measure 83
0001
0000
0100
0000
,  // measure 84
1000
0000
0001
0000
,  // measure 85
0100
0010
0100
0000
,  // measure 86
0020
0000
0000
0000
,  // measure 87
0200
0000
0330
1001
;

//---------------dance-single - ----------------
#NOTES:
     dance-single:
     :
     Easy:
     5:
     :
// measure 0
0000
0000
0000
0000
,  // measure 1
0000
0000
0000
0000
,  // measure 2
0000
0000
0000
0000
,  // measure 3
0000
0000
0000
0000
,  // measure 4
2200
0000
0000
3300
,  // measure 5
0202
0000
0000
0303
,  // measure 6
2020
0000
0000
3030
,  // measure 7
0022
0000
0000
0033
,  // measure 8
1000
0001
0000
0100
,  // measure 9
0000
0001
0000
0010
,  // measure 10
0000
1000
0000
0010
,  // measure 11
0000
0001
1000
0010
,  // measure 12
0200
0000
0000
0001
,  // measure 13
0002
0000
0000
0303
0000
0000
0000
0000
,  // measure 14
1000
0000
0001
0000
,  // measure 15
0100
0001
0010
0100
,  // measure 16
1000
0000
2200
0000
,  // measure 17
3300
0001
1000
0010
,  // measure 18
0100
0000
0220
0000
,  // measure 19
0330
0100
0001
0010
,  // measure 20
0001
0000
0022
0000
,  // measure 21
0033
0001
1000
0010
,  // measure 22
1000
0000
0010
0000
,  // measure 23
0100
0001
1000
0000
,  // measure 24
0010
0000
2020
0000
,  // measure 25
3030
0100
0001
1000
,  // measure 26
0001
0000
2002
0000
,  // measure 27
3003
0100
1000
0001
,  // measure 28
0010
0000
0202
0000
,  // measure 29
0303
0100
0010
0001
,  // measure 30
2000
0000
0000
0100
0000
0000
0010
0000
,  // measure 31
0000
0001
0100
3010
,  // measure 32
0100
0000
0010
0000
,  // measure 33
0100
0000
0001
0000
,  // measure 34
0001
0010
0100
1000
,  // measure 35
0010
0100
0001
1000
,  // measure 36
0100
0000
1000
0000
,  // measure 37
0010
0000
1000
0000
,  // measure 38
0202
0000
0000
0000
,  // measure 39
0300
1000
0100
1003
,  // measure 40
0010
0000
0100
0000
,  // measure 41
0001
0000
0010
0000
,  // measure 42
1000
0100
0010
0100
,  // measure 43
1000
0001
0100
0001
,  // measure 44
0010
0000
0100
0000
,  // measure 45
1000
0000
0001
0000
,  // measure 46
2002
0000
0000
0000
,  // measure 47
3000
0100
1000
0013
,  // measure 48
0010
0000
1000
0000
,  // measure 49
0001
1000
0100
1001
,  // measure 50
0010
0000
0100
0000
,  // measure 51
0010
0001
1000
0001
,  // measure 52
0100
0000
1000
0000
,  // measure 53
0010
0100
0010
0000
,  // measure 54
0200
0000
0000
0000
,  // measure 55
0000
0020
0000
0000
0000
0000
0330
0000
,  // measure 56
0100
0000
0010
0000
,  // measure 57
1000
0100
0001
0100
,  // measure 58
1000
0000
0001
0000
,  // measure 59
0010
0100
0001
1000
,  // measure 60
0100
0000
0001
0000
,  // measure 61
0100
0001
0010
0100
,  // measure 62
0010
0000
0001
0000
,  // measure 63
1000
0010
1000
0001
,  // measure 64
0010
0100
0010
0001
,  // measure 65
0100
1000
0100
0010
,  // measure 66
0001
0010
0100
1000
,  // measure 67
0010
1000
0001
0100
,  // measure 68
0010
0100
0001
1000
,  // measure 69
0100
1000
2001
3010
,  // measure 70
0100
0000
0010
0000
,  // measure 71
0001
0000
1000
0001
,  // measure 72
0220
0000
0000
0000
,  // measure 73
0030
0010
0010
0310
,  // measure 74
0001
0000
1000
0000
,  // measure 75
0100
0010
0001
0000
,  // measure 76
0100
0001
1000
0001
,  // measure 77
0010
0100
1000
0001
,  // measure 78
0100
0000
1000
0000
,  // measure 79
0100
0001
0010
0001
,  // measure 80
2200
0000
0000
0000
,  // measure 81
0300
0100
0010
3001
,  // measure 82
0010
0000
0100
0000
,  // measure 83
0001
0100
0010
1000
,  // measure 84
1100
0000
0101
0000
,  // measure 85
0011
1010
1001
0000
,  // measure 86
0020
0000
0000
0000
,  // measure 87
0200
0000
0330
1001
;

//---------------dance-single - ----------------
#NOTES:
     dance-single:
     :
     Medium:
     10:
     :
// measure 0
0000
0000
0000
0000
,  // measure 1
0000
0000
0000
0000
,  // measure 2
0000
0000
0000
0000
,  // measure 3
0000
0000
0000
0000
,  // measure 4
1000
0000
0100
1000
0000
0001
0100
0000
,  // measure 5
0010
0000
0001
0100
0000
0010
1000
0000
,  // measure 6
0100
0000
0010
0100
0000
0001
0010
0000
,  // measure 7
0001
0000
0100
0010
0000
1000
0010
0000
,  // measure 8
0100
0000
0100
0010
0000
1000
0010
1000
,  // measure 9
0000
0001
0100
0000
0011
0000
1010
0000
,  // measure 10
0000
1000
1000
1000
0000
0001
0001
0001
,  // measure 11
0020
0032
2003
3200
,  // measure 12
0300
0001
0100
0001
0000
1000
0001
1000
,  // measure 13
0000
0100
0010
0000
1100
0000
0101
0000
,  // measure 14
0000
0100
0010
0000
1000
0000
0100
0000
,  // measure 15
0001
0000
0100
0010
0000
1000
0100
0000
,  // measure 16
0002
0000
0000
1000
2000
0000
0000
3003
,  // measure 17
0000
0010
0100
0000
0001
0000
0010
0000
,  // measure 18
2000
0000
0000
0100
0200
0000
0000
0000
,  // measure 19
3300
0000
0001
0000
1000
0000
0001
0010
,  // measure 20
0020
0000
0000
0100
0200
0000
0000
0000
,  // measure 21
0330
1000
0010
0001
,  // measure 22
0100
0010
1000
0100
,  // measure 23
1000
0000
1000
0010
0000
0100
0010
1000
,  // measure 24
0010
0000
0100
0001
1000
0000
0100
0000
,  // measure 25
0001
1000
0001
0000
0100
0000
0010
0000
,  // measure 26
1000
0000
0001
0010
0100
0000
0010
0000
,  // measure 27
0001
0000
0100
0000
0010
0000
1000
0100
,  // measure 28
0010
0000
0001
1000
0010
0000
1000
0000
,  // measure 29
0001
1000
0100
0000
0010
0000
0100
0000
,  // measure 30
0010
0000
2000
0200
0000
0000
0000
3300
,  // measure 31
0000
0001
0100
0010
1000
0000
0010
0000
,  // measure 32
1000
0000
0000
0100
1000
0000
0000
0010
,  // measure 33
1000
0000
0000
0001
1000
0000
0000
0010
,  // measure 34
0100
0001
0010
0001
,  // measure 35
1000
0000
0100
1000
0000
0001
0100
0100
,  // measure 36
0010
0000
0000
1000
0001
0000
0000
0001
,  // measure 37
0010
0001
1000
0001
,  // measure 38
0010
0100
0000
0100
0000
0100
0000
0100
,  // measure 39
0000
0100
1000
0000
0010
0000
0100
0000
,  // measure 40
0001
0000
0000
0010
0001
0000
0000
0100
,  // measure 41
0001
0000
0000
1000
0001
0000
0000
0100
,  // measure 42
0010
1000
0100
1000
,  // measure 43
0001
0000
0010
0100
0000
0100
1000
1000
,  // measure 44
0100
0000
0000
0100
0010
0000
0000
0010
,  // measure 45
0001
0100
1000
0001
,  // measure 46
0100
0010
0000
0010
0000
0010
0000
0010
,  // measure 47
0000
0010
0100
0000
1000
0000
0001
0000
,  // measure 48
0100
0000
0001
0010
0000
1000
0010
0000
,  // measure 49
1000
0001
0100
0011
,  // measure 50
0010
0000
1000
0100
0000
0001
0100
0000
,  // measure 51
0010
0100
0001
1010
,  // measure 52
0100
0000
0001
1000
0000
0100
1000
0000
,  // measure 53
0010
1000
0001
1001
,  // measure 54
0210
0000
0000
0000
0000
1000
0000
0310
,  // measure 55
0000
0001
1000
0100
0010
0000
0110
0000
,  // measure 56
0001
0000
0100
0010
0000
0010
0000
1000
,  // measure 57
0000
0001
0010
0001
0000
0100
0100
0010
,  // measure 58
1000
0000
0010
0100
0000
0100
0000
0001
,  // measure 59
0000
1000
0100
0001
0100
0010
0100
0000
,  // measure 60
1000
0000
0001
1000
0000
0100
0000
0001
,  // measure 61
0000
0010
0001
0100
0000
0010
1000
0100
,  // measure 62
1000
0000
0100
0010
0000
1000
0000
0001
,  // measure 63
0000
0100
0001
0010
0000
0001
0100
1000
,  // measure 64
0010
0000
0000
0010
1000
0000
0000
0000
0001
0000
0000
1000
0100
0000
0000
0010
,  // measure 65
1000
0000
0100
0000
1000
0000
0001
0000
2020
0000
0000
0000
0000
3030
0000
0001
,  // measure 66
0010
0000
0000
1000
0010
0000
0000
0100
0010
0000
0001
0000
1000
0000
0001
0000
,  // measure 67
0202
0000
0000
0000
0303
0010
0100
0010
,  // measure 68
0100
0000
0000
1000
0100
0000
0000
0001
0100
0010
0000
0010
1000
0000
0000
1000
,  // measure 69
0100
0010
0001
0100
0220
0000
0330
0010
,  // measure 70
1000
0000
0000
0001
1000
0000
0000
0100
,  // measure 71
0010
0000
1000
0100
1000
0000
0010
0000
,  // measure 72
0001
1000
0000
0001
0000
0100
0000
0010
,  // measure 73
0000
0100
0001
0000
1000
0000
0100
0000
,  // measure 74
0010
0000
0000
0001
0100
0000
0000
0010
,  // measure 75
1000
0000
0000
0100
0000
0000
0010
0000
0001
0000
0000
0000
0100
0000
0000
0000
,  // measure 76
0010
0000
0100
0000
0001
0000
1000
0001
,  // measure 77
0010
0000
1000
0010
0000
0100
0010
0000
,  // measure 78
0001
0000
0000
0001
1000
0000
0000
0100
,  // measure 79
0010
0000
0001
1000
0100
0000
1000
0000
,  // measure 80
0010
0001
0000
0100
0000
0001
0000
1000
,  // measure 81
0000
0100
0010
0100
1000
0010
0100
0001
,  // measure 82
0010
0000
0000
0001
0100
0000
0000
1000
,  // measure 83
0100
0001
1000
0100
,  // measure 84
1000
1000
0000
0000
0001
0001
0000
0000
,  // measure 85
0010
0001
1000
0010
1000
0100
0000
0000
,  // measure 86
0110
0000
0010
0000
0100
1000
0001
0000
,  // measure 87
0001
1000
0001
0100
0000
0010
0110
0000
;

//---------------dance-single - ----------------
#NOTES:
     dance-single:
     :
     Hard:
     13:
     :
// measure 0
0000
0000
0000
0000
,  // measure 1
0000
0000
0000
0000
,  // measure 2
0000
0000
0000
0000
,  // measure 3
0000
0000
0000
0000
,  // measure 4
0010
1000
0010
0100
0001
1000
0001
1000
,  // measure 5
0100
0010
0100
0001
0100
1000
0100
1000
,  // measure 6
0100
0001
1000
0001
0100
0010
0100
0010
,  // measure 7
1000
0100
1000
0010
0100
0001
0100
0001
,  // measure 8
0010
0001
0100
0010
0000
1000
0100
0001
,  // measure 9
0000
0010
1000
0001
0010
0000
0100
1000
,  // measure 10
0000
0001
0100
0010
0000
1000
0100
0010
,  // measure 11
0011
1010
0101
1100
,  // measure 12
0001
0010
0001
1000
0000
0001
0100
1000
,  // measure 13
0000
1000
0100
0001
0010
0001
0100
0010
,  // measure 14
0000
0100
1000
0001
1000
0010
0100
0001
,  // measure 15
0010
0100
0010
0001
0000
1000
0010
0100
,  // measure 16
0010
0010
0000
1000
0002
0000
0100
0000
,  // measure 17
1003
0100
0010
0100
0001
0010
1000
0010
,  // measure 18
0100
0100
0000
0010
2000
0000
0001
0000
,  // measure 19
0100
0000
0010
0000
3001
0000
0100
0010
,  // measure 20
0100
0001
0000
1000
0100
0000
1000
0000
,  // measure 21
0001
1010
0011
1001
,  // measure 22
0100
0000
0010
0000
1000
0010
1000
0100
,  // measure 23
0001
1000
0001
1000
0000
0100
0010
0001
,  // measure 24
1000
0001
0000
1000
0010
0000
0102
0000
,  // measure 25
0103
0010
0100
1000
0100
0010
0001
0010
,  // measure 26
1000
0001
0000
0001
0100
0000
2010
0000
,  // measure 27
0001
0000
0100
0000
3001
0000
0010
1000
,  // measure 28
0100
0001
0000
0100
1000
0000
0001
0000
,  // measure 29
0100
0010
0100
0001
1000
0001
0100
0001
,  // measure 30
0010
1000
0100
1000
0000
0100
0010
0001
,  // measure 31
0000
1000
0100
1000
1100
0000
1001
0000
,  // measure 32
1000
0100
0000
0100
1000
0010
0000
0010
,  // measure 33
1000
0001
0000
0001
1000
0100
0000
0010
,  // measure 34
0100
0001
0010
0001
1000
0010
0100
0010
,  // measure 35
1000
0001
1000
0100
0000
0010
0001
0100
,  // measure 36
0010
0100
0000
0001
1000
0100
0000
0001
,  // measure 37
0010
0001
1000
0001
0100
0001
0010
0100
,  // measure 38
0010
0011
0000
1010
0000
0011
0000
1010
,  // measure 39
0000
0100
0001
1000
0100
1000
0001
0010
,  // measure 40
0001
0100
0000
1000
0100
0001
0000
0010
,  // measure 41
0100
0001
0000
1000
0001
0010
0000
0001
,  // measure 42
0100
1000
0010
1000
0001
0010
0100
0010
,  // measure 43
0001
1000
0010
0100
0000
1000
0010
1000
,  // measure 44
0001
1000
0000
0010
1000
0100
0000
0010
,  // measure 45
0001
0100
0010
0100
1000
0001
1000
0010
,  // measure 46
1000
1100
0000
0101
0000
1100
0000
0101
,  // measure 47
0000
0100
0001
1000
0010
0100
0001
0010
,  // measure 48
1000
0100
1000
0001
0000
0010
0100
1000
,  // measure 49
0000
0001
1000
0100
1000
0000
0101
0000
,  // measure 50
0001
0100
1000
0010
0000
0100
0010
0001
,  // measure 51
0000
1000
0010
1000
0001
0000
1100
0000
,  // measure 52
0010
1000
0100
0001
0000
0001
0010
1000
,  // measure 53
0000
1000
0001
0010
0001
0000
1010
0000
,  // measure 54
0010
0100
0010
1000
0001
0100
0001
0010
,  // measure 55
0000
0001
0010
0001
0011
0000
0110
0000
,  // measure 56
0100
1000
0001
0100
0000
1001
0000
0011
,  // measure 57
0000
0100
1000
0100
0000
0001
0010
0001
,  // measure 58
1000
0100
0010
0001
0000
0110
0000
1100
,  // measure 59
0000
0100
0001
1000
0010
1000
0100
0001
,  // measure 60
0100
0010
1000
0010
0000
1010
0000
0101
,  // measure 61
0000
0001
1000
0100
0000
0001
0010
1000
,  // measure 62
0001
0100
0010
0100
0000
0110
0000
1001
,  // measure 63
0000
1000
0001
0010
0000
0100
1000
0001
,  // measure 64
0100
0010
0000
0100
0000
0010
0000
0001
1000
0100
0000
0010
0000
0010
0000
0001
,  // measure 65
0100
1000
0000
0010
0000
0001
0000
0100
0000
0010
0000
1000
0000
0001
0100
0001
,  // measure 66
0010
1000
0000
0100
0000
1000
0000
0001
0010
0010
0000
1000
0000
0010
0000
0100
,  // measure 67
0010
0001
0000
1000
0000
0001
0000
0100
0010
0010
1000
1000
0001
0001
0100
0100
,  // measure 68
0001
1000
0000
0010
0000
1000
0000
0100
0001
0100
0000
0010
0000
0001
1000
1000
,  // measure 69
0010
0100
0000
0001
0000
0100
0000
0010
0220
0000
0000
0000
0330
1000
0010
0001
,  // measure 70
0100
0001
1000
0001
1000
0100
0010
0100
,  // measure 71
1000
0001
0100
0001
0010
0100
0010
0001
,  // measure 72
1000
1010
0000
0011
0000
0101
0000
1100
,  // measure 73
0000
0100
1000
0001
0010
0001
1000
0100
,  // measure 74
0010
0100
0000
0100
0001
0010
0000
1000
,  // measure 75
0101
0000
0000
1001
0000
0000
1100
0000
0001
0000
0010
0000
0100
0000
1000
0000
,  // measure 76
0001
0010
0001
1000
0010
0100
0010
1000
,  // measure 77
0100
0001
0100
1000
0000
0010
1000
0100
,  // measure 78
0001
0010
0001
0100
0001
1000
0010
0100
,  // measure 79
0010
0001
0010
0100
1000
0100
0010
0001
,  // measure 80
0100
1100
0000
0101
0000
0011
0000
1010
,  // measure 81
0000
0001
0100
0010
1000
0001
1000
0100
,  // measure 82
0010
0100
0000
1000
0001
1000
0000
0010
,  // measure 83
0100
0001
0100
0010
1000
0100
1000
0001
,  // measure 84
0010
0100
0001
0000
1000
0010
0100
0000
,  // measure 85
0001
0010
0100
1000
0010
0100
0001
0100
,  // measure 86
0010
0000
1010
0000
0001
0010
0011
0000
,  // measure 87
1000
1100
0001
0101
0000
0110
1001
0000
;
