#TITLE:LET'S GET DOWN;
#SUBTITLE:(MO-FUNK MIX);
#ARTIST:JT PLAYAZ;
#TITLETRANSLIT:;
#SUBTITLETRANSLIT:;
#ARTISTTRANSLIT:;
#CREDIT:;
#BANNER:LET'S GET DOWN (MO-FUNK MIX).png;
#BACKGROUND:LET'S GET DOWN (MO-FUNK MIX)-bg.png;
#JACKET:LET'S GET DOWN (MO-FUNK MIX)-jacket.png;
#LYRICSPATH:;
#CDTITLE:;
#MUSIC:LET'S GET DOWN (MO-FUNK MIX).mp3;
#OFFSET:-5.500;
#SAMPLESTART:46.653;
#SAMPLELENGTH:15.000;
#SELECTABLE:YES;
#DISPLAYBPM:146.000;
#BPMS:0.000=145.770;
#STOPS:;
#BGCHANGES:;

//---------------dance-single - ----------------
#NOTES:
     dance-single:
     :
     Beginner:
     3:
     :
// measure 1
0000
0000
0000
0000
,  // measure 2
0000
0000
0000
0000
,  // measure 3
0000
0000
0000
0000
,  // measure 4
0000
0100
0000
0010
,  // measure 5
0000
0100
0000
0010
,  // measure 6
1000
0002
0000
0003
,  // measure 7
0100
0000
0010
0000
,  // measure 8
1000
0000
0100
0000
,  // measure 9
0010
0000
0001
0000
,  // measure 10
0100
0020
0000
0030
,  // measure 11
0100
0000
0010
0000
,  // measure 12
1000
0000
0001
0000
,  // measure 13
1000
0000
0001
0000
,  // measure 14
1000
0000
0100
0000
,  // measure 15
1000
0000
0010
0100
,  // measure 16
0001
0000
0100
0000
,  // measure 17
1000
0000
0100
0010
,  // measure 18
0001
0000
1000
0000
,  // measure 19
0010
0000
0100
0010
,  // measure 20
1000
0000
0100
0000
,  // measure 21
0010
0000
0100
1000
,  // measure 22
0100
0000
1000
0000
,  // measure 23
0001
0000
0100
0010
,  // measure 24
0100
0000
0010
0000
,  // measure 25
0220
0000
0000
0330
,  // measure 26
1000
2000
0000
3001
,  // measure 27
0100
0000
0010
0000
,  // measure 28
1000
0000
0001
0000
,  // measure 29
1000
0000
0100
0000
,  // measure 30
0001
0002
0000
0013
,  // measure 31
0100
0000
1000
0000
,  // measure 32
0100
0000
0001
0000
,  // measure 33
0220
0000
0000
0330
,  // measure 34
0001
0000
0010
0000
,  // measure 35
0001
0000
0100
0010
,  // measure 36
1000
0000
0010
0000
,  // measure 37
0001
0000
0010
0100
,  // measure 38
1000
0000
0001
0000
,  // measure 39
0100
0000
0010
0100
,  // measure 40
0001
0000
0010
0000
,  // measure 41
0100
0000
0010
0001
,  // measure 42
0010
0000
0001
0000
,  // measure 43
1000
0000
0001
1000
,  // measure 44
0001
0000
1000
0000
,  // measure 45
2002
0000
0000
3003
,  // measure 46
0010
0020
0000
1030
,  // measure 47
0100
0000
0001
0000
,  // measure 48
1000
0000
0001
0000
,  // measure 49
0100
0010
0001
0000
,  // measure 50
0100
0200
0000
0301
,  // measure 51
0100
0000
1000
0000
,  // measure 52
0010
0000
1000
0000
,  // measure 53
0001
0000
1000
0001
,  // measure 54
1001
0000
0000
0000
;

//---------------dance-single - ----------------
#NOTES:
     dance-single:
     :
     Easy:
     5:
     :
// measure 1
0000
0000
0000
0000
,  // measure 2
0000
0000
0000
0000
,  // measure 3
0000
0000
0000
0000
,  // measure 4
0000
1100
0000
0101
,  // measure 5
0000
1010
0000
0011
,  // measure 6
0001
0020
0000
0031
,  // measure 7
0100
0010
1000
0100
,  // measure 8
0001
0100
1000
0001
,  // measure 9
1000
0100
0010
0001
,  // measure 10
1000
0020
0000
1030
,  // measure 11
0100
0010
0100
1000
,  // measure 12
0001
0100
0010
0001
,  // measure 13
0010
0100
0001
1000
,  // measure 14
0001
0000
0100
0010
,  // measure 15
1000
0000
0100
0010
,  // measure 16
0001
1000
0100
1000
,  // measure 17
0010
0100
0001
1000
,  // measure 18
0100
0000
0001
0010
,  // measure 19
0100
0000
1000
0010
,  // measure 20
0100
0001
0010
0001
,  // measure 21
0100
1000
0100
0001
,  // measure 22
0010
1000
0010
0001
,  // measure 23
0100
0010
1000
0100
,  // measure 24
0010
0100
1000
0001
,  // measure 25
2002
0000
0000
3003
,  // measure 26
0010
0002
0000
1003
,  // measure 27
0100
0001
0100
0010
,  // measure 28
1000
0010
0001
1000
,  // measure 29
0100
1000
0001
0100
,  // measure 30
0010
2000
0000
3010
,  // measure 31
0100
0001
0100
1000
,  // measure 32
0100
0001
0000
0001
,  // measure 33
0000
0001
0010
0001
,  // measure 34
1000
0100
0001
1000
,  // measure 35
0001
0010
0100
1000
,  // measure 36
0010
0100
0010
0100
,  // measure 37
0001
1000
0001
1000
,  // measure 38
0100
0001
0001
1000
,  // measure 39
1000
0010
0010
0100
,  // measure 40
1000
0100
0010
0001
,  // measure 41
0001
0010
0100
1000
,  // measure 42
1100
0000
0100
1000
,  // measure 43
0101
0000
0100
0001
,  // measure 44
0010
0001
0100
0010
,  // measure 45
0220
0000
0000
0330
,  // measure 46
0001
0010
0001
1000
,  // measure 47
0010
1000
0001
0100
,  // measure 48
0001
1000
0010
1000
,  // measure 49
0001
1000
0100
1000
,  // measure 50
0001
0001
1000
1000
,  // measure 51
0100
0001
0010
0001
,  // measure 52
1000
0100
1000
0010
,  // measure 53
0100
0001
0010
0100
,  // measure 54
1001
0000
0000
0000
;

//---------------dance-single - ----------------
#NOTES:
     dance-single:
     :
     Medium:
     9:
     :
// measure 1
0000
0000
0000
0000
,  // measure 2
0000
0000
0000
0000
,  // measure 3
0000
0000
0000
0000
,  // measure 4
0100
0000
0001
0010
0100
0000
1000
0100
,  // measure 5
0010
0000
0001
0010
0001
0000
1000
0010
,  // measure 6
1000
1100
0001
0101
,  // measure 7
0001
0100
0010
1000
0100
0000
0001
0010
,  // measure 8
0000
0010
0100
0010
0100
0000
0001
0000
,  // measure 9
1000
0010
0100
0000
,  // measure 10
0001
0011
1000
1010
,  // measure 11
1000
0010
1000
0001
1000
0000
0001
0100
,  // measure 12
0000
1000
0001
1000
0001
0000
0100
0000
,  // measure 13
0010
1000
0100
1000
,  // measure 14
0011
0000
1000
0010
,  // measure 15
0100
0010
1000
0001
,  // measure 16
0100
1000
0100
0000
0010
1000
0010
0000
,  // measure 17
0100
0001
0100
0000
0010
0001
0010
0000
,  // measure 18
0100
0100
0010
0010
,  // measure 19
1000
0100
0001
0000
0010
0100
1000
0000
,  // measure 20
0001
0000
0100
0001
0010
0000
1000
0010
,  // measure 21
0100
0000
1000
0010
0001
0000
0100
0000
,  // measure 22
0001
0000
0010
0000
0001
1000
0100
0000
,  // measure 23
0010
0000
0100
0000
0010
0001
1000
0000
,  // measure 24
0001
0000
1000
0000
0010
0100
0010
0000
,  // measure 25
2002
0000
0000
0000
0000
0000
0000
3003
,  // measure 26
0001
0011
1000
1010
,  // measure 27
1000
0010
0100
0001
0010
0000
1000
0100
,  // measure 28
0000
0010
0001
1000
0010
0000
0001
0000
,  // measure 29
0010
0000
0000
0100
0000
0000
1000
0000
0000
0000
0010
0000
0100
0000
0000
0000
,  // measure 30
1000
1100
0001
0101
,  // measure 31
0010
0100
0010
1000
0100
0000
1000
0010
,  // measure 32
0000
0001
1000
0100
1000
0000
0010
0000
,  // measure 33
1000
0000
0000
0001
0000
0000
0100
0000
0000
0000
0000
0000
0001
0000
0000
0000
,  // measure 34
0100
0000
1000
0000
0010
0100
0010
0000
,  // measure 35
0001
0000
0100
0000
0010
1000
0001
0000
,  // measure 36
0010
1000
0100
0000
0010
0001
1000
0000
,  // measure 37
0001
1000
0010
0001
,  // measure 38
0010
1000
0010
0100
,  // measure 39
0001
0100
0010
0000
0100
0010
1000
0000
,  // measure 40
0001
0001
0010
0010
0100
0100
1000
1000
,  // measure 41
0010
0000
0100
0000
0001
0100
1000
0100
,  // measure 42
0010
0000
0100
0000
0001
0100
0010
0000
,  // measure 43
0100
0000
0010
0000
0100
1000
0001
0000
,  // measure 44
1000
1000
1000
0000
0001
0001
0001
0000
,  // measure 45
0220
0000
0000
0000
0000
0000
0000
0330
,  // measure 46
1000
1010
1000
1100
,  // measure 47
0010
0100
0001
1000
0010
0000
0100
0001
,  // measure 48
0000
1000
0001
0010
0001
0000
0100
0000
,  // measure 49
1000
0000
0000
0001
0000
0000
0100
0000
0000
0000
0001
0000
0010
0000
0000
0000
,  // measure 50
0001
0011
0001
0101
,  // measure 51
0100
0010
0001
0100
0010
0000
1000
0010
,  // measure 52
0000
0100
0010
1000
0010
0000
0001
0000
,  // measure 53
0010
0000
0000
0001
0000
0000
0100
0000
0000
0000
0010
0000
1000
0000
0010
0000
,  // measure 54
0110
0000
0000
0000
;

//---------------dance-single - ----------------
#NOTES:
     dance-single:
     :
     Hard:
     13:
     :
// measure 1
0000
0000
0000
0000
,  // measure 2
0000
0000
0000
0000
,  // measure 3
0000
0000
0000
0000
,  // measure 4
0100
0000
0000
0001
0100
0000
0010
0000
0100
0000
0000
0010
1000
0000
0100
0000
,  // measure 5
1000
0000
0000
0100
0010
0000
1000
0000
0010
0000
0000
1000
0001
0000
0100
0000
,  // measure 6
0001
0000
0010
1000
0010
0100
0010
0001
,  // measure 7
0100
0001
1000
0001
0010
0000
1000
0010
,  // measure 8
0000
0100
0001
1000
0010
0000
0100
0001
,  // measure 9
0011
0000
0000
1001
0000
0000
1100
0000
0000
0000
0100
0000
1000
0000
0001
0010
,  // measure 10
0001
0000
0100
0010
0100
0001
0010
0001
,  // measure 11
0001
1000
1000
0100
0010
0000
0001
1000
,  // measure 12
0000
0001
0010
0100
0010
0000
0001
0100
,  // measure 13
1010
0000
0000
0110
0000
0000
0101
0000
0000
0000
0100
0000
0001
0000
1000
0010
,  // measure 14
0100
0000
0000
0000
0000
0000
0100
0010
0001
0000
1000
0000
0001
0000
0100
0000
,  // measure 15
0001
0010
0001
0100
1000
0010
0001
0010
,  // measure 16
1000
0010
0100
0001
0010
0100
1000
0100
,  // measure 17
0001
0100
1000
0001
1000
0100
0010
0001
,  // measure 18
0100
0001
0001
0100
0100
0010
1000
0100
,  // measure 19
0010
0100
1000
0010
0001
0010
1000
0100
,  // measure 20
0001
0100
1000
0100
0010
0001
0100
0010
,  // measure 21
0010
0100
0001
0100
0010
1000
0100
1000
,  // measure 22
0001
0100
0010
0100
0001
0010
0001
1000
,  // measure 23
0100
0001
0001
0010
0010
0100
0100
1000
,  // measure 24
1000
0100
0100
0010
0010
0001
0001
0100
,  // measure 25
0010
0000
0100
0000
0001
0010
0001
0000
0100
1000
0001
1000
0100
0000
0010
0000
,  // measure 26
0110
0000
1000
0100
0010
0100
0001
1000
,  // measure 27
0010
0001
0100
0001
0010
0000
1000
0001
,  // measure 28
0000
0000
0010
0000
0001
0000
0100
0000
1000
0000
0000
0100
0010
0000
0001
0000
,  // measure 29
1000
0001
0000
0001
0100
0000
0110
0000
0000
0000
0010
0000
0100
0000
0001
1000
,  // measure 30
0010
0000
0001
0100
0010
0100
0001
0010
,  // measure 31
0001
1000
0100
0010
0001
0000
0001
1000
,  // measure 32
0000
0000
0001
0000
1000
0000
0100
0000
1000
0000
0000
0010
0001
0000
0100
0000
,  // measure 33
1000
0010
0000
0010
0100
0000
1001
0000
0000
0000
0010
0000
0001
0000
0100
0000
,  // measure 34
0010
0000
1000
0000
0100
0000
0000
0000
0001
0100
0000
1000
0010
0000
0000
0000
,  // measure 35
0001
0010
1000
0100
1000
0001
0010
0100
,  // measure 36
0010
0001
0100
0010
1000
0100
0010
0001
,  // measure 37
1000
0001
0100
0010
1000
0100
1000
0010
,  // measure 38
1000
0001
0100
0010
0001
0010
0100
1000
,  // measure 39
0100
0001
0010
1000
0100
0001
0010
0001
,  // measure 40
0100
0001
0010
0100
0010
1000
0100
0010
,  // measure 41
0100
0001
1000
0100
1000
0001
0010
0100
,  // measure 42
1000
0100
0010
0001
0100
0001
1000
0010
,  // measure 43
0001
0010
1000
0100
0001
0100
1000
0001
,  // measure 44
0010
0100
0010
0001
0010
0100
1000
0001
,  // measure 45
1000
0000
0010
0000
0100
0001
1000
0000
0100
0010
0100
0010
0000
0000
1000
0000
,  // measure 46
1001
0000
1000
0001
0010
0001
0100
0001
,  // measure 47
0010
1000
0010
0001
0010
0000
0001
1000
,  // measure 48
0000
0000
1000
0000
1000
0000
0001
0000
0001
0000
0000
0100
0010
0000
0100
0000
,  // measure 49
1000
0100
0000
0010
0001
0000
0110
0000
0000
0000
0001
0000
0100
0000
1000
0100
,  // measure 50
0001
0000
1000
0100
1000
0010
0100
0001
,  // measure 51
0010
0001
1000
0010
1000
0000
0100
0010
,  // measure 52
0000
0000
1000
0000
0001
0000
1000
0000
0100
0000
0000
1000
0100
0000
0010
0000
,  // measure 53
0001
0010
0000
0100
1000
0000
1001
0000
0000
0000
1100
0000
0101
0000
0010
0010
;
