#TITLE:Koi no Mahou;
#SUBTITLE:(from MABURAHO);
#ARTIST:ICHIKO;
#TITLETRANSLIT:;
#SUBTITLETRANSLIT:;
#ARTISTTRANSLIT:;
#GENRE:;
#CREDIT:;
#BANNER:Koi no Mahou.png;
#BACKGROUND:Koi no Mahou-bg.png;
#LYRICSPATH:;
#CDTITLE:;
#MUSIC:Koi no Mahou.mp3;
#OFFSET:1.340000;
#SAMPLESTART:56.439999;
#SAMPLELENGTH:30.000000;
#LASTBEATHINT:0.801000;
#SELECTABLE:YES;
#DISPLAYBPM:152.000000;
#BPMS:0.000000=152.000000;
#STOPS:;
#BGCHANGES:;
#KEYSOUNDS:;
#ATTACKS:;

//---------------dance-single - ----------------
#NOTES:
     dance-single:
     :
     Beginner:
     3:
     :
// measure 0
0000
0000
0000
0000
,  // measure 1
2000
0000
0000
0000
,  // measure 2
0002
0000
3000
0013
,  // measure 3
0020
0000
0030
0100
,  // measure 4
0200
0000
0300
0001
,  // measure 5
0002
0000
0003
1000
,  // measure 6
2000
0000
0000
0000
,  // measure 7
3200
0000
0300
0010
,  // measure 8
0020
0000
0030
0001
,  // measure 9
0002
0000
0003
0100
,  // measure 10
0200
0000
0300
0010
,  // measure 11
0020
0000
0000
0000
,  // measure 12
2000
0000
0000
3030
,  // measure 13
0220
0000
0000
0330
,  // measure 14
2002
0000
0000
3003
,  // measure 15
1000
0000
0010
0000
,  // measure 16
0001
0000
0010
0000
,  // measure 17
0000
1100
0000
0101
,  // measure 18
0000
1010
0000
0011
,  // measure 19
0100
0000
0001
0000
,  // measure 20
2000
0000
0000
3000
,  // measure 21
0100
0010
0001
0000
,  // measure 22
0010
0000
0100
1000
,  // measure 23
0010
0000
0001
0000
,  // measure 24
0200
0000
0000
0300
,  // measure 25
0001
0010
0001
0000
,  // measure 26
0100
0000
1000
0100
,  // measure 27
0010
0000
0010
0000
,  // measure 28
0001
0000
0001
0000
,  // measure 29
1000
0000
1000
0000
,  // measure 30
0100
0000
0100
0000
,  // measure 31
0010
0000
1000
0000
,  // measure 32
0100
0000
1000
0000
,  // measure 33
0001
0000
0100
0000
,  // measure 34
0001
0000
0010
0000
,  // measure 35
0200
0000
0000
0000
,  // measure 36
0020
0000
0000
0330
0000
0000
1000
0000
,  // measure 37
0020
0000
0030
0100
,  // measure 38
0001
1000
0000
0100
,  // measure 39
0020
0000
0030
0001
,  // measure 40
1000
0000
0100
0001
,  // measure 41
0020
0000
0030
0100
,  // measure 42
0020
0000
0030
0001
,  // measure 43
0020
0000
0030
0100
,  // measure 44
1000
0000
0001
1000
,  // measure 45
0020
0000
0030
0100
,  // measure 46
0001
1000
0000
1000
,  // measure 47
0020
0000
0030
1000
,  // measure 48
0100
0000
0001
0100
,  // measure 49
0020
0000
0030
1000
,  // measure 50
0020
0000
0030
0001
,  // measure 51
0020
0000
0030
0001
,  // measure 52
1000
0000
0100
0001
,  // measure 53
0020
0000
0000
0000
,  // measure 54
0030
0100
0010
0100
,  // measure 55
2002
0000
0000
0000
,  // measure 56
3003
0000
0000
0000
;

//---------------dance-single - ----------------
#NOTES:
     dance-single:
     :
     Easy:
     6:
     :
// measure 0
0000
0000
0000
0000
,  // measure 1
1000
0100
0010
0001
,  // measure 2
0100
0010
1000
0001
,  // measure 3
2010
0010
0010
3010
,  // measure 4
0201
0001
0001
0301
,  // measure 5
0012
0100
1000
0103
,  // measure 6
2010
0001
0100
3010
,  // measure 7
1100
0010
0100
0001
,  // measure 8
0100
0010
1000
0100
,  // measure 9
0001
0100
1000
0101
,  // measure 10
1000
1010
0001
0011
,  // measure 11
1001
0010
0100
1000
,  // measure 12
0100
0010
0001
1000
,  // measure 13
0220
0000
0000
0330
,  // measure 14
2002
0000
0000
3003
,  // measure 15
0001
0010
0001
1000
,  // measure 16
0100
0001
0010
0001
,  // measure 17
0100
1010
1000
0011
,  // measure 18
0001
1100
0001
1000
,  // measure 19
0101
0001
0100
1000
,  // measure 20
0010
0100
0001
0000
,  // measure 21
0001
0010
0001
0100
,  // measure 22
0010
1000
0000
0100
,  // measure 23
0010
0001
1000
0010
,  // measure 24
1000
0100
0001
0000
,  // measure 25
0001
1000
0010
0010
,  // measure 26
1000
0001
0001
0100
,  // measure 27
0020
0000
0000
0130
,  // measure 28
0001
0100
1000
0100
,  // measure 29
0020
0000
0000
0000
,  // measure 30
0130
0100
0010
0010
,  // measure 31
2000
0000
0000
3001
,  // measure 32
0100
0010
0100
0010
,  // measure 33
0001
1000
0001
1000
,  // measure 34
0100
1000
0001
0010
,  // measure 35
0002
0000
0000
1003
,  // measure 36
0010
0100
0010
0100
0000
0000
0100
0000
,  // measure 37
0011
0010
1000
0100
,  // measure 38
0001
0100
1000
0010
,  // measure 39
0001
0100
0001
0010
,  // measure 40
1000
0010
0100
0001
,  // measure 41
0101
1000
0010
0100
,  // measure 42
0001
0010
0100
0010
,  // measure 43
0001
0100
1000
0010
,  // measure 44
1000
0100
0001
0010
,  // measure 45
1100
0100
0010
0100
,  // measure 46
0001
0100
1000
0100
,  // measure 47
0001
0010
0100
1000
,  // measure 48
0010
0001
0100
0001
,  // measure 49
1010
0001
1000
0100
,  // measure 50
1000
0010
0010
1000
,  // measure 51
0001
0101
0100
1100
,  // measure 52
1000
1010
0010
0011
,  // measure 53
0110
0100
1000
0100
,  // measure 54
0010
0001
0100
0010
,  // measure 55
0220
0000
0000
0000
,  // measure 56
0330
0000
0000
0000
;

//---------------dance-single - ----------------
#NOTES:
     dance-single:
     :
     Medium:
     9:
     :
// measure 0
0000
0000
0000
0000
,  // measure 1
0100
0010
0001
1000
,  // measure 2
1100
0000
0110
0000
0011
0100
0010
0002
,  // measure 3
0000
1003
0100
0000
1000
0010
0000
0001
,  // measure 4
0000
0010
0100
0000
0000
1000
0100
0020
,  // measure 5
0000
0031
0100
0000
0100
0010
0000
0010
,  // measure 6
0000
0001
0100
0001
0010
1000
0100
2000
,  // measure 7
0000
3100
0010
0000
0100
0010
0010
0020
,  // measure 8
0000
1030
0001
0000
0001
0100
0100
0200
,  // measure 9
0000
0310
1000
0000
0010
1000
0010
0001
,  // measure 10
0000
0001
0100
1000
0010
1000
0100
0002
,  // measure 11
0010
1000
0100
1000
,  // measure 12
0013
0001
0100
0010
1000
0100
0010
0001
,  // measure 13
0101
0000
0000
0110
0000
0000
1010
0000
,  // measure 14
0220
0000
0030
0310
,  // measure 15
0100
0000
0001
2000
0000
3020
0000
0230
,  // measure 16
0000
0310
1000
0002
0000
0203
0000
0302
,  // measure 17
0000
0023
0000
0230
0000
2300
0000
3020
,  // measure 18
0000
0130
0010
1000
0000
0100
0001
0100
,  // measure 19
0010
1000
0001
0010
,  // measure 20
0100
0000
0000
0201
0000
0000
0000
0310
,  // measure 21
0001
0010
0100
0000
0001
1000
0000
0011
,  // measure 22
0000
0010
0100
0000
0000
0001
0000
1000
,  // measure 23
0100
0010
1000
0100
,  // measure 24
0010
0000
0000
1020
0000
0000
0000
1030
,  // measure 25
0001
0100
0001
0000
0100
0010
0000
1100
,  // measure 26
0000
0001
0010
0001
0100
0000
0010
0000
,  // measure 27
0220
0000
0300
0100
,  // measure 28
1000
0001
1000
0130
,  // measure 29
2002
0000
0000
0003
,  // measure 30
0001
0010
0010
3001
,  // measure 31
0220
0000
0030
0301
,  // measure 32
0100
0001
1000
0010
,  // measure 33
1010
0011
1010
0011
,  // measure 34
1100
0101
1100
0101
,  // measure 35
2002
0000
0000
0000
3003
0200
0300
0020
,  // measure 36
0130
0110
0010
0110
0000
0100
0010
1000
,  // measure 37
0000
0010
0100
0001
0000
0001
0100
1000
,  // measure 38
0000
1000
0010
0000
0000
0100
0010
0001
,  // measure 39
0000
0001
0100
0010
0000
0100
0001
1000
,  // measure 40
0000
0010
0001
0100
0001
1000
0001
0010
,  // measure 41
0001
0000
0010
0100
0000
0001
1000
0010
,  // measure 42
0000
0100
0010
0001
0000
0010
0100
1000
,  // measure 43
0000
0010
1000
0001
0000
0010
0001
0100
,  // measure 44
0000
0100
0010
0001
0010
0100
0010
0001
,  // measure 45
0010
0000
0001
1000
0000
1000
0001
0010
,  // measure 46
0000
0010
0100
0000
0000
1000
0010
0001
,  // measure 47
0000
0010
0100
0001
0000
0110
0000
1001
,  // measure 48
0000
0000
0010
1000
0000
0010
0100
0001
,  // measure 49
1000
0000
0100
0010
0000
0010
0100
1000
,  // measure 50
0000
0100
0010
0000
0001
0010
0100
0010
,  // measure 51
0000
0100
0001
1000
0000
1000
0100
0010
,  // measure 52
0000
0001
1000
0001
0100
0010
0001
0020
,  // measure 53
0000
0000
0000
0000
,  // measure 54
0130
1000
0001
0100
0001
1000
0100
0010
,  // measure 55
0002
0000
0000
0000
,  // measure 56
0003
0000
0000
0000
;

//---------------dance-single - ----------------
#NOTES:
     dance-single:
     :
     Hard:
     12:
     :
// measure 0
0000
0000
0000
0000
,  // measure 1
0010
1000
0100
1000
0001
0010
0100
0010
,  // measure 2
0011
0010
1001
0001
1100
1000
0010
0002
,  // measure 3
0000
1000
0010
0010
0103
0001
0100
0010
,  // measure 4
0000
0010
1000
0000
1000
0100
1000
0020
,  // measure 5
0000
0001
1000
1000
0130
0001
0100
0010
,  // measure 6
0000
1000
0010
0100
0001
0010
0100
2000
,  // measure 7
0000
0001
0010
0010
3100
0010
0001
0010
,  // measure 8
0000
0100
0001
1000
0010
0001
0100
0010
,  // measure 9
0000
0100
0010
0001
1000
0100
0001
0100
,  // measure 10
0000
1000
0010
0001
0010
0100
0010
0002
,  // measure 11
1000
1000
1000
1000
,  // measure 12
1003
0100
0001
0010
0100
0010
1000
0100
,  // measure 13
0110
0000
1000
1010
0000
0001
0101
0000
,  // measure 14
0220
0000
0000
0000
0000
0000
0330
0000
0100
0010
1000
0010
0100
0000
0001
0000
,  // measure 15
0100
0010
0100
0001
0000
0101
0000
1100
,  // measure 16
0000
0010
0001
1000
0000
1100
0000
0101
,  // measure 17
0000
1010
0000
0011
0000
0110
0000
1001
,  // measure 18
0000
0001
0100
0010
0000
0001
1000
0001
,  // measure 19
0010
0000
0011
0000
0010
0100
0001
0000
,  // measure 20
1000
0010
0001
0010
0000
1000
0100
0001
,  // measure 21
0100
0010
0100
1000
0100
0001
0000
0010
,  // measure 22
0000
0100
0001
0100
1000
0010
0100
0010
,  // measure 23
0001
0000
1010
0000
0100
0001
1000
0001
,  // measure 24
0010
0001
0100
0001
0000
0100
0010
1000
,  // measure 25
0001
0001
0100
0100
0010
0001
1000
0100
,  // measure 26
0000
0010
0100
0001
0100
0010
1000
0010
,  // measure 27
1000
0100
1000
0000
0001
0000
0100
0010
,  // measure 28
0000
0001
0100
0000
1000
0100
0001
0000
,  // measure 29
0001
1000
0100
0000
0001
0010
0000
0100
,  // measure 30
0000
0010
1000
0000
0100
0001
0000
1000
,  // measure 31
0010
0100
0001
0000
0100
0000
1000
0100
,  // measure 32
0000
0001
0010
0000
0100
0000
0010
0000
,  // measure 33
0100
0001
0010
0001
1000
0100
0010
0100
,  // measure 34
0001
1000
0001
0100
1000
0100
0010
0100
,  // measure 35
0001
0010
0100
1000
0100
0010
0001
1000
,  // measure 36
0011
1010
0011
1010
0000
0100
1000
0001
,  // measure 37
0000
0100
0010
0100
0001
0010
0100
1000
,  // measure 38
0010
0100
0010
0001
0010
1000
0001
0010
,  // measure 39
0100
1000
0001
0100
0010
0100
1000
0010
,  // measure 40
0001
0000
0010
0000
0100
0000
0010
0000
1000
0000
0010
0000
0100
0000
1000
0010
,  // measure 41
0100
0001
0010
0000
0001
0100
0010
0000
,  // measure 42
1000
0001
0010
0000
0100
0010
1000
0000
,  // measure 43
0001
0100
1000
0000
0010
0001
0100
0000
,  // measure 44
1000
0000
0001
0000
0100
0000
0001
0000
0010
0001
0100
0001
1000
0000
0100
0010
,  // measure 45
0100
0001
1000
0100
0010
0100
0001
1000
,  // measure 46
0100
0001
0100
0010
1000
0100
0010
0001
,  // measure 47
0100
0100
0010
0010
1000
0100
0001
0010
,  // measure 48
0000
0000
0100
0000
0010
0000
0001
0000
1000
0000
0100
0000
0001
0000
0100
0010
,  // measure 49
0001
1000
0001
0010
0100
0010
1000
0100
,  // measure 50
0001
0010
0001
0100
1000
0001
0100
0001
,  // measure 51
1000
0010
0101
0000
0001
0010
1100
0000
,  // measure 52
1000
0010
1010
0100
0010
0001
0011
0100
,  // measure 53
1001
0001
0010
0100
1000
0010
0100
0001
,  // measure 54
1000
0001
0010
0001
1000
0010
0100
0001
,  // measure 55
0022
0000
0000
0000
,  // measure 56
0033
0000
0000
0000
;
