#TITLE:Kirihirake! Gracie Star;
#SUBTITLE:(from HYPERDIMENSION NEPTUNIA MK2);
#ARTIST:NAO;
#TITLETRANSLIT:;
#SUBTITLETRANSLIT:;
#ARTISTTRANSLIT:;
#GENRE:;
#CREDIT:;
#BANNER:Kirihirake! Gracie Star.png;
#BACKGROUND:Kirihirake! Gracie Star-bg.jpg;
#LYRICSPATH:;
#CDTITLE:;
#MUSIC:Kirihirake! Gracie Star.mp3;
#OFFSET:-0.030000;
#SAMPLESTART:10.823000;
#SAMPLELENGTH:21.580000;
#SELECTABLE:YES;
#DISPLAYBPM:89.000000:178.000000;
#BPMS:0.000000=89.000000
,16.000000=178.000000
,144.000000=89.000000
,156.000000=178.000000;
#STOPS:;
#BGCHANGES:;
#KEYSOUNDS:;
#ATTACKS:;

//---------------dance-single - ----------------
#NOTES:
     dance-single:
     :
     Beginner:
     3:
     :
// measure 0
0000
0000
0000
0000
,  // measure 1
0000
0000
0000
0000
,  // measure 2
2000
0000
3002
0000
,  // measure 3
0023
0000
0130
0000
,  // measure 4
0001
0000
1000
0000
,  // measure 5
1000
0100
0010
0000
,  // measure 6
0002
0000
0000
0100
,  // measure 7
0013
0000
0100
0000
,  // measure 8
0001
0000
0100
1000
,  // measure 9
0100
0000
0001
0100
,  // measure 10
0002
0000
2003
0000
,  // measure 11
3200
0000
0302
0000
,  // measure 12
0023
0000
0000
0000
,  // measure 13
0030
1000
0100
0000
,  // measure 14
0020
0002
0000
0000
,  // measure 15
0000
0000
0000
0033
,  // measure 16
1000
0001
1000
0000
,  // measure 17
0001
0000
0010
0000
,  // measure 18
0100
0001
1000
0000
,  // measure 19
0010
0000
0100
0000
,  // measure 20
0002
0000
0000
0000
,  // measure 21
0203
0000
0000
0000
,  // measure 22
0310
0000
0100
0000
,  // measure 23
1000
0000
0100
0000
,  // measure 24
0020
0000
0000
0100
,  // measure 25
0002
0000
0000
0033
,  // measure 26
2000
0000
0000
0100
,  // measure 27
0020
0000
0000
3030
,  // measure 28
0020
0000
0000
0000
,  // measure 29
2030
0000
0000
0000
,  // measure 30
3010
0000
1000
0000
,  // measure 31
0100
0000
0010
0000
,  // measure 32
0002
0000
0000
0100
,  // measure 33
0020
0000
0000
0033
,  // measure 34
2000
0000
0000
0010
,  // measure 35
0200
0000
0000
3300
,  // measure 36
0001
1000
0100
1000
,  // measure 37
0010
0000
0100
0000
,  // measure 38
0010
0001
1000
0010
,  // measure 39
0200
0000
0000
0000
,  // measure 40
0320
0000
0000
0000
,  // measure 41
0032
0000
0000
0000
,  // measure 42
1003
0000
0000
0000
,  // measure 43
0010
0000
1000
0000
,  // measure 44
0010
0100
0001
0100
,  // measure 45
0010
0000
0000
0100
,  // measure 46
0100
0000
0001
0000
,  // measure 47
1000
0000
0100
0001
,  // measure 48
0010
0000
1000
0000
,  // measure 49
0100
0000
0010
0000
,  // measure 50
0001
0000
1000
0000
,  // measure 51
0001
0000
0100
0000
,  // measure 52
0010
1000
0100
1000
,  // measure 53
0001
0000
0000
0010
,  // measure 54
0010
0000
0001
0000
,  // measure 55
0100
0000
0010
1000
,  // measure 56
0100
0000
0100
0010
,  // measure 57
2000
0000
3002
0000
,  // measure 58
0203
0000
0320
0000
,  // measure 59
0032
0000
0000
0000
,  // measure 60
0003
1000
0100
0000
,  // measure 61
0020
0002
0000
0000
,  // measure 62
0000
0000
0000
0033
,  // measure 63
2000
0000
0000
0000
0000
0200
0000
0000
,  // measure 64
0000
3300
0000
0000
0000
0000
0000
0000
;

//---------------dance-single - ----------------
#NOTES:
     dance-single:
     :
     Easy:
     5:
     :
// measure 0
0000
0000
0000
0000
,  // measure 1
0000
0000
0000
0000
,  // measure 2
0200
0310
2000
3001
,  // measure 3
0002
0103
1010
0000
,  // measure 4
1000
0001
0100
0000
,  // measure 5
0010
0001
1000
0010
,  // measure 6
0002
0010
0100
1003
,  // measure 7
0100
1000
0001
0100
,  // measure 8
0010
0001
0010
1000
,  // measure 9
0011
0000
0100
0010
,  // measure 10
0002
0100
1000
0100
,  // measure 11
0010
1000
0100
1003
,  // measure 12
0220
0000
0000
0330
,  // measure 13
0100
0001
0100
1000
,  // measure 14
0001
2002
0000
0000
,  // measure 15
0000
0000
0000
3003
,  // measure 16
0010
1000
0001
0100
,  // measure 17
0010
0100
0010
1000
,  // measure 18
0100
0001
0100
1000
,  // measure 19
0010
0001
0010
0100
,  // measure 20
1002
0100
0100
1003
,  // measure 21
2010
0001
0100
3100
,  // measure 22
1000
0001
0010
0001
,  // measure 23
0100
0001
0100
1000
,  // measure 24
2100
0010
0100
0001
,  // measure 25
0020
0000
0000
3030
,  // measure 26
0102
0010
1000
0010
,  // measure 27
0200
0000
0000
0303
,  // measure 28
0120
0100
0001
1030
,  // measure 29
0012
0100
0010
1003
,  // measure 30
0001
0100
0010
1000
,  // measure 31
0010
0100
0100
0010
,  // measure 32
1020
1000
0100
0001
,  // measure 33
2000
0000
0000
3030
,  // measure 34
0021
0100
1000
0100
,  // measure 35
0002
0000
0000
0033
,  // measure 36
1001
0010
0001
1000
,  // measure 37
2100
3010
0102
0013
,  // measure 38
1000
0010
0100
0010
,  // measure 39
0002
0010
0013
1001
,  // measure 40
2000
0100
0001
0100
,  // measure 41
0010
0100
0100
3001
,  // measure 42
0011
0000
0000
0000
,  // measure 43
0100
0001
1000
0000
,  // measure 44
0010
0001
0100
1000
,  // measure 45
0200
0010
0001
0010
,  // measure 46
1000
0010
0001
0310
,  // measure 47
1000
0001
1000
0100
,  // measure 48
0110
0000
0100
0010
,  // measure 49
2000
3100
0002
0013
,  // measure 50
0200
1000
0001
1300
,  // measure 51
1000
0010
0001
0010
,  // measure 52
1000
0001
1000
0100
,  // measure 53
0001
0100
1000
0010
,  // measure 54
0100
0010
1000
0010
,  // measure 55
0001
0100
0010
0001
,  // measure 56
2010
0000
0100
3010
,  // measure 57
0012
0003
0201
0300
,  // measure 58
2100
3000
1020
0030
,  // measure 59
0210
0010
0010
0310
,  // measure 60
0001
0010
0001
1000
,  // measure 61
2002
0000
0000
0000
,  // measure 62
0000
0000
0000
3003
,  // measure 63
1000
0010
0100
0001
,  // measure 64
0100
0010
0000
0000
0000
0000
0000
0000
;

//---------------dance-single - ----------------
#NOTES:
     dance-single:
     :
     Medium:
     8:
     :
// measure 0
0000
0000
0000
0000
,  // measure 1
0000
0000
0000
0000
,  // measure 2
2100
0000
0000
3001
0102
0000
0000
0013
,  // measure 3
2010
0000
0000
3001
0011
0000
1001
0000
,  // measure 4
1000
0100
0000
0001
0100
0000
0010
0000
,  // measure 5
1000
0001
0010
0000
0100
0000
0010
0002
,  // measure 6
0010
0000
0100
0000
1000
0000
0103
0001
,  // measure 7
0010
0000
0001
1000
0000
0100
0001
0000
,  // measure 8
1010
0000
0010
1001
0000
1100
0000
1020
,  // measure 9
0000
0000
0100
1030
,  // measure 10
0100
0001
1000
0000
0010
0100
0001
0000
,  // measure 11
0100
0010
0100
0000
0001
1000
0000
1000
,  // measure 12
0202
0000
0000
0000
,  // measure 13
0303
0010
1000
0000
0010
0001
0000
0110
,  // measure 14
0000
0002
2000
0000
0000
0000
0000
0000
,  // measure 15
0000
0000
0000
0000
0000
0000
0000
3003
,  // measure 16
0010
0000
0001
0000
1000
0000
0100
0001
,  // measure 17
0000
1000
0000
0010
0000
0001
0010
0000
,  // measure 18
1000
0000
0100
0000
0010
0000
0100
0001
,  // measure 19
0000
0100
0000
1000
0000
0001
0100
0000
,  // measure 20
0010
0000
0100
0000
1000
0001
0100
0000
,  // measure 21
0001
0000
1000
0000
0010
1000
0001
0000
,  // measure 22
0010
0000
1000
0100
0000
0010
0000
0100
,  // measure 23
0000
1000
0000
0010
0000
1000
0000
0022
,  // measure 24
0000
0000
0000
0000
0000
0030
0100
0000
,  // measure 25
1003
0000
0010
0000
0001
1000
0000
2020
,  // measure 26
0000
0000
0000
0000
0000
0030
0001
0000
,  // measure 27
3100
0000
1000
0000
0010
1000
0001
0000
,  // measure 28
0100
0000
0010
0000
0001
1000
0010
0000
,  // measure 29
1000
0000
0001
0000
0010
0100
1000
0000
,  // measure 30
0010
0000
1000
0100
0000
1000
0000
0010
,  // measure 31
0000
1000
0000
0001
0000
0010
0000
0202
,  // measure 32
0000
0000
0000
0000
0000
0300
1000
0000
,  // measure 33
0103
0000
0001
0000
1000
0100
0000
2200
,  // measure 34
0000
0000
0000
0000
0000
0300
0010
0000
,  // measure 35
3001
0000
0100
0000
0010
1000
0001
0100
,  // measure 36
0010
1000
0100
0000
0001
1000
0010
0000
,  // measure 37
0001
1000
0100
0000
1000
0100
0001
0000
,  // measure 38
0010
0001
1000
0000
0010
0100
0001
0000
,  // measure 39
0001
0000
1000
0000
0010
0001
0100
0010
,  // measure 40
0100
0000
0010
0000
1000
0100
0010
0001
,  // measure 41
0010
0000
0001
0000
1000
0010
0100
0010
,  // measure 42
0001
0010
0000
1000
0001
0100
0010
0000
,  // measure 43
0100
1000
0000
0010
0100
0000
1001
0000
,  // measure 44
0001
0100
0001
0000
0010
0000
1000
0020
,  // measure 45
0100
0000
1000
0000
0001
0000
0130
0010
,  // measure 46
0001
0000
0001
1000
0000
0001
0100
0000
,  // measure 47
0011
0000
0100
1001
0000
0101
0000
0021
,  // measure 48
0000
0000
0001
0130
,  // measure 49
1000
0001
0100
0000
0100
1000
0000
0001
,  // measure 50
0100
0010
0000
0001
0000
1000
0001
0000
,  // measure 51
0010
1000
0000
1000
0100
0000
0001
0000
,  // measure 52
0100
0010
0001
0000
1000
0000
0010
0200
,  // measure 53
0010
0000
0001
0000
1000
0000
0310
0100
,  // measure 54
0001
0000
1000
0100
0000
0001
1000
0000
,  // measure 55
1001
0000
0010
1100
0000
0101
0000
0120
,  // measure 56
0000
0100
1000
0000
0100
0000
0031
0000
,  // measure 57
1000
0001
0100
0000
0001
1000
0010
0000
,  // measure 58
0100
0001
1000
0000
0001
0010
0000
0100
,  // measure 59
0022
0000
0000
0000
,  // measure 60
0033
0100
1000
0000
0001
1000
0000
1010
,  // measure 61
0000
0002
0020
0000
0000
0000
0000
0000
,  // measure 62
0000
0000
0000
0000
0000
0000
0000
0033
,  // measure 63
0100
0000
1000
0010
0000
0001
0100
0000
,  // measure 64
0100
0110
0000
0000
0000
0000
0000
0000
;

//---------------dance-single - ----------------
#NOTES:
     dance-single:
     :
     Hard:
     14:
     :
// measure 0
0000
0000
0000
0000
,  // measure 1
0000
0000
0000
0000
,  // measure 2
0001
0100
0010
0100
0000
0001
1000
0100
1000
0010
0100
0001
0000
0100
0010
0100
,  // measure 3
0001
0010
0100
1000
0000
0010
0100
0010
1000
0001
0000
1000
0100
1000
0010
0000
,  // measure 4
0100
0001
1000
0100
1000
0000
0010
0100
,  // measure 5
0001
0010
0100
1000
0001
0010
0100
1000
,  // measure 6
0101
0000
1100
0000
1001
0000
0010
0001
,  // measure 7
1000
0010
1000
0100
0001
0100
1000
0001
,  // measure 8
0010
0001
1000
1010
0000
0011
0000
0110
,  // measure 9
0000
0100
0010
0001
0100
0010
1000
0001
,  // measure 10
0100
0001
0100
0000
0010
1000
0010
0000
,  // measure 11
0001
0010
0001
0000
1000
0100
1000
0010
,  // measure 12
0001
1000
0010
1000
0100
0010
1000
0010
,  // measure 13
0100
0001
1000
0100
0001
0100
0010
0001
,  // measure 14
0010
1000
0100
0010
0100
0001
1000
0010
,  // measure 15
1000
0001
0010
0100
0010
0001
0010
1000
,  // measure 16
0100
0010
0001
0000
1010
0000
0100
0010
,  // measure 17
0000
1100
0000
1001
0000
0001
0100
1000
,  // measure 18
0001
0010
1000
0000
0011
0000
0100
0010
,  // measure 19
0000
1001
0000
0101
0000
0001
0100
0000
,  // measure 20
0010
0001
0010
1000
0010
0100
0010
0000
,  // measure 21
0100
0001
0100
0010
0100
1000
0100
0001
,  // measure 22
0010
0100
0010
0001
0000
0001
1000
0100
,  // measure 23
0000
0001
0010
1000
0000
0010
0001
0100
,  // measure 24
0001
1000
0010
0001
0010
1000
0100
0010
,  // measure 25
0000
0001
0010
0100
0000
0010
1000
0010
,  // measure 26
0100
1000
0100
0001
0000
1000
0001
0010
,  // measure 27
0000
1000
0010
0100
0000
0001
1000
0100
,  // measure 28
0001
0010
0001
1000
0001
0100
0010
0000
,  // measure 29
1000
0010
1000
0100
1000
0001
0010
0100
,  // measure 30
1000
0010
0100
0001
0000
1000
0010
0001
,  // measure 31
0000
0010
1000
0100
0000
0010
0001
1000
,  // measure 32
0001
0010
0100
1000
0100
0010
0001
0100
,  // measure 33
0000
0001
1000
0010
0000
0100
0010
1000
,  // measure 34
0100
1000
0010
0001
0000
1000
0001
0100
,  // measure 35
1000
0100
0010
0001
1000
0100
0010
0001
,  // measure 36
1001
0000
0100
1000
0000
0001
0000
0100
0000
0001
0000
1000
0000
0010
0000
0001
,  // measure 37
0100
0000
1000
0100
0000
0100
0000
0001
0100
0000
0100
0001
0000
1000
0000
0100
,  // measure 38
0010
0000
0100
0010
0000
0001
0000
0010
0000
1000
0000
0010
0000
0100
0000
0001
,  // measure 39
1000
0100
0010
0100
1000
0010
0100
0010
,  // measure 40
0100
0001
0010
0100
1000
0100
0010
0001
,  // measure 41
0100
0001
0100
0010
0100
1000
0100
0001
,  // measure 42
0010
0000
1000
0100
1000
0000
0001
0100
0001
0000
0100
0010
0100
0000
1000
0000
,  // measure 43
0010
1000
0001
0010
0001
0000
0100
0010
,  // measure 44
1000
0100
0010
0001
1000
0100
0010
0001
,  // measure 45
1010
0000
0011
0000
0110
0000
0100
1000
,  // measure 46
0001
0100
0001
0010
1000
0010
0001
1000
,  // measure 47
0100
0010
1000
0101
0000
1100
0000
0110
,  // measure 48
0000
0010
0100
1000
0010
0100
0001
1000
,  // measure 49
0010
0001
0010
1000
0100
0010
0100
1000
,  // measure 50
0001
0010
1000
0100
0000
0100
0001
0010
,  // measure 51
1000
0010
0001
1000
0001
0000
0100
1000
,  // measure 52
0100
0010
1000
0001
0100
0001
1000
0010
,  // measure 53
1100
0000
0110
0000
0011
0000
0100
0010
,  // measure 54
0001
0100
0001
1000
0010
1000
0001
0010
,  // measure 55
0100
1000
0010
0101
0000
1010
0000
1001
,  // measure 56
0000
1000
0100
0010
1000
0100
0001
0010
,  // measure 57
1000
0001
1000
0000
0100
0010
0100
0000
,  // measure 58
0010
1000
0001
0000
1000
0100
0001
1000
,  // measure 59
0010
0001
0100
0001
1000
0100
0001
0100
,  // measure 60
1000
0010
0001
1000
0010
1000
0100
0010
,  // measure 61
0100
0001
1000
0100
1000
0010
0001
0100
,  // measure 62
0010
1000
0100
1000
0010
0001
1000
0001
,  // measure 63
0100
0010
0100
0001
0000
1000
0100
1000
,  // measure 64
0001
2002
0000
3003
0000
0000
0000
0000
;
