#TITLE:KUNG FU FIGHTING;
#SUBTITLE:(MIAMI BOOTY MIX);
#ARTIST:BUSā˜…STOP feat. CARL DOUGLAS;
#TITLETRANSLIT:;
#SUBTITLETRANSLIT:;
#ARTISTTRANSLIT:;
#CREDIT:;
#BANNER:KUNG FU FIGHTING (MIAMI BOOTY MIX).png;
#BACKGROUND:KUNG FU FIGHTING (MIAMI BOOTY MIX)-bg.png;
#JACKET:KUNG FU FIGHTING (MIAMI BOOTY MIX)-jacket.png;
#LYRICSPATH:;
#CDTITLE:;
#MUSIC:KUNG FU FIGHTING (MIAMI BOOTY MIX).ogg;
#OFFSET:0.000;
#SAMPLESTART:16.539;
#SAMPLELENGTH:16.000;
#SELECTABLE:YES;
#DISPLAYBPM:116.000;
#BPMS:0.000=116.090;
#STOPS:;
#BGCHANGES:;

//---------------dance-single - ----------------
#NOTES:
     dance-single:
     :
     Beginner:
     3:
     :
// measure 1
0000
0000
0000
0000
,  // measure 2
0000
0000
0000
0000
,  // measure 3
0000
0000
0000
0000
,  // measure 4
0000
0000
0000
0000
,  // measure 5
0000
1000
0000
0001
,  // measure 6
0000
1000
0000
0001
,  // measure 7
0000
1000
0000
0001
,  // measure 8
1001
0000
0000
0000
,  // measure 9
0101
0000
0000
0000
,  // measure 10
0001
0010
0001
0010
,  // measure 11
0001
0000
0000
0000
,  // measure 12
0100
0000
0010
0000
,  // measure 13
1010
0000
0000
0000
,  // measure 14
1000
0100
1000
0100
,  // measure 15
1000
0000
0000
0000
,  // measure 16
0010
0000
0100
0000
,  // measure 17
0010
0000
0001
0000
,  // measure 18
0010
0000
1000
0000
,  // measure 19
0010
0000
0001
0000
,  // measure 20
0010
0000
1000
0000
,  // measure 21
0100
0000
0001
0000
,  // measure 22
0100
0000
1000
0000
,  // measure 23
0100
0000
0001
0000
,  // measure 24
0100
0000
1000
0001
,  // measure 25
0002
0000
0000
0000
,  // measure 26
0000
0000
0003
1000
,  // measure 27
2000
0000
0000
0000
,  // measure 28
0000
0000
3000
0001
,  // measure 29
0002
0000
0000
0000
,  // measure 30
0000
0000
0003
1000
,  // measure 31
2000
0000
0000
0000
,  // measure 32
0000
0000
3000
0010
,  // measure 33
1010
0000
0000
0000
,  // measure 34
0100
1000
0001
1000
,  // measure 35
0100
0000
0000
0000
,  // measure 36
0010
0010
0010
0010
,  // measure 37
0101
0000
0000
0000
,  // measure 38
0010
0001
1000
0001
,  // measure 39
0010
0000
0000
0000
,  // measure 40
0100
0100
0100
0100
,  // measure 41
0220
0000
0000
0000
,  // measure 42
0000
0000
0330
0010
,  // measure 43
0220
0000
0000
0000
,  // measure 44
0000
0000
0330
0000
;

//---------------dance-single - ----------------
#NOTES:
     dance-single:
     :
     Easy:
     5:
     :
// measure 1
0000
0000
0000
0000
,  // measure 2
0000
0000
0000
0000
,  // measure 3
0000
0000
0000
0000
,  // measure 4
0000
0000
0000
0000
,  // measure 5
1000
1010
0001
0101
,  // measure 6
0010
0011
0100
1100
,  // measure 7
0100
0110
0001
1001
,  // measure 8
0220
0000
0000
0000
0000
0000
0000
0330
,  // measure 9
0010
0100
0010
0100
,  // measure 10
1000
0001
1000
0001
,  // measure 11
0010
0100
0010
0100
,  // measure 12
1000
0001
1000
0001
,  // measure 13
0010
0010
0100
0100
,  // measure 14
0001
0001
1000
1000
,  // measure 15
0010
0010
0100
0100
,  // measure 16
0001
0001
1000
1000
,  // measure 17
0010
0010
0001
0010
,  // measure 18
1000
1000
0100
1000
,  // measure 19
0010
1000
0100
1000
,  // measure 20
0010
0001
0100
0001
,  // measure 21
1000
0010
0001
0001
,  // measure 22
0001
1000
0001
1000
,  // measure 23
0001
0010
1000
1000
,  // measure 24
0100
0010
0100
0010
,  // measure 25
0010
1000
0100
0001
,  // measure 26
0001
0100
1000
0010
,  // measure 27
0010
0100
0001
1000
,  // measure 28
1000
0001
0100
0010
,  // measure 29
0010
0001
0100
1000
,  // measure 30
1000
0100
0001
0010
,  // measure 31
0010
0100
1000
0001
,  // measure 32
0001
1000
0100
0010
,  // measure 33
0001
1000
0001
1000
,  // measure 34
0001
0010
0001
0010
,  // measure 35
0100
1000
0100
1000
,  // measure 36
0010
0010
0100
0100
,  // measure 37
0010
0100
0010
0100
,  // measure 38
1000
0100
0100
1000
,  // measure 39
0001
0010
0100
1000
,  // measure 40
0001
0100
0100
0001
,  // measure 41
0010
0011
0100
1100
,  // measure 42
1000
1001
0001
0110
,  // measure 43
0100
0101
0010
1010
,  // measure 44
2002
0000
3003
0000
;

//---------------dance-single - ----------------
#NOTES:
     dance-single:
     :
     Medium:
     9:
     :
// measure 1
0000
0000
0000
0000
,  // measure 2
0000
0000
0000
0000
,  // measure 3
0000
0000
0000
0000
,  // measure 4
0000
0000
0000
0000
,  // measure 5
0100
0100
0101
0000
0100
0100
1100
0000
,  // measure 6
0100
0100
0101
0000
0100
0100
1100
0000
,  // measure 7
0100
0100
0101
0000
0100
0100
1100
0000
,  // measure 8
0220
0000
0000
0000
0000
0000
0000
0330
,  // measure 9
1000
0000
0010
1000
0000
0001
0010
0000
,  // measure 10
1000
0100
0001
0000
0001
0100
1000
0000
,  // measure 11
0001
0000
0010
0001
0000
1000
0010
0000
,  // measure 12
0001
0001
1000
1000
,  // measure 13
0100
0000
1000
0010
0000
0010
1000
0000
,  // measure 14
1000
0001
0100
0000
0001
1000
0100
0000
,  // measure 15
0100
0000
0001
0010
0000
0100
0001
0000
,  // measure 16
0100
0100
0010
0010
,  // measure 17
0100
0010
1000
0001
0100
0001
0010
0000
,  // measure 18
0100
1000
0010
1000
0100
1000
0010
0000
,  // measure 19
0100
0001
1000
0001
0100
0010
0100
0000
,  // measure 20
0010
1000
0001
1000
0010
0100
0010
0000
,  // measure 21
1000
0100
1000
0001
1000
0100
0010
0000
,  // measure 22
1000
0001
0100
0001
1000
0010
0100
0000
,  // measure 23
0010
0100
0010
1000
0010
0100
0010
0000
,  // measure 24
0010
0100
0001
1000
0100
1000
0001
0000
,  // measure 25
0010
0001
0100
0000
1000
0100
1000
0000
,  // measure 26
1000
0100
0001
0000
0001
0100
0001
0000
,  // measure 27
0010
0001
1000
0000
0001
0010
0001
0000
,  // measure 28
0001
0100
1000
0000
1000
0010
1000
0000
,  // measure 29
0010
1000
0100
0000
1000
0010
0100
0000
,  // measure 30
0001
0100
1000
0000
1000
0100
0010
0000
,  // measure 31
0010
0001
0100
0000
1000
0001
0010
0000
,  // measure 32
1000
0001
1000
0010
0100
0001
1000
0000
,  // measure 33
0010
0000
0100
0001
0000
1000
0010
0000
,  // measure 34
1000
0001
1000
0010
0100
0001
0100
0000
,  // measure 35
0010
0000
0001
0100
0000
0100
0010
0000
,  // measure 36
1000
0010
1000
0100
0001
0010
0001
0000
,  // measure 37
0100
0000
1000
0001
0000
0010
0100
0000
,  // measure 38
1000
0100
1000
0100
1000
0100
1000
0000
,  // measure 39
0010
0000
0100
1000
0000
0001
0100
0000
,  // measure 40
0001
0100
0001
0100
0001
0100
0001
0000
,  // measure 41
1000
0000
0010
0000
0100
0001
1000
0000
,  // measure 42
0100
0000
0010
0000
0001
0010
0100
0000
,  // measure 43
1000
0000
0001
0000
0001
0100
1000
0000
,  // measure 44
0100
0010
0110
0000
;

//---------------dance-single - ----------------
#NOTES:
     dance-single:
     :
     Hard:
     12:
     :
// measure 1
0000
0000
0000
0000
,  // measure 2
0000
0000
0000
0000
,  // measure 3
0000
0000
0000
0000
,  // measure 4
0000
0000
0000
0000
,  // measure 5
0001
0000
1000
0000
0010
0000
0000
0100
0001
0000
0010
0000
0001
0000
0000
0010
,  // measure 6
0100
0000
1000
0000
0010
0000
0000
1000
0001
0000
1000
0000
0100
0000
0000
1000
,  // measure 7
0001
0000
1000
0000
0100
0000
0000
0001
0010
0000
0001
0000
0100
0000
0000
0000
,  // measure 8
0120
0000
0100
0000
0100
0000
0100
0030
,  // measure 9
1000
0000
0000
0101
0000
0000
0010
0000
0000
0000
0100
0000
0001
0000
0000
0000
,  // measure 10
0100
0010
0100
0010
0100
0000
0001
0000
1000
0000
1000
0000
0001
0000
0000
0000
,  // measure 11
0100
0000
0000
1100
0000
0000
0010
0000
0000
0000
0010
0000
0001
0000
1000
0100
,  // measure 12
1000
0000
0010
0100
0010
0000
0100
0001
0100
0000
0001
0010
0001
0000
0000
0000
,  // measure 13
0010
0000
0000
1010
0000
0000
0001
0000
0000
0000
0100
0000
0010
0000
0000
0000
,  // measure 14
1000
0001
1000
0001
1000
0000
0010
0000
0100
0000
0010
0000
0100
0000
0000
0000
,  // measure 15
0010
0000
0000
0011
0000
0000
1000
0000
0000
0000
1000
0000
0001
0000
0010
0001
,  // measure 16
0010
0000
0100
0010
0100
0000
1000
0100
1000
0000
0110
0000
0000
0000
0000
0000
,  // measure 17
0010
0001
0010
0001
0010
0000
0001
0000
0100
0000
1000
0000
0010
0000
0000
0000
,  // measure 18
0010
1000
0010
1000
0010
0000
0100
0000
0001
0000
1000
0000
0100
0000
0000
0000
,  // measure 19
0100
1000
0100
1000
0100
0000
0010
0000
0100
0000
0001
0000
0010
0000
0000
0000
,  // measure 20
0100
0001
0100
0001
0100
0000
1000
0000
0100
0000
0001
0000
0100
0000
0000
0000
,  // measure 21
0010
0001
0010
0001
0010
0000
1000
0000
0001
0000
0001
0000
1000
0000
0000
0000
,  // measure 22
0010
1000
0010
1000
0010
0000
0001
0000
1000
0000
0100
0000
1000
0000
0000
0000
,  // measure 23
0100
1000
0100
1000
0100
0000
0001
0000
0010
0000
0001
0000
1000
0000
0000
0000
,  // measure 24
0100
0001
0100
0001
0100
0000
0010
0000
0001
0000
1000
0000
0010
0000
0000
0000
,  // measure 25
0100
0010
0001
1000
0100
0010
0001
1000
,  // measure 26
0100
0010
0001
1000
0100
0010
0001
1000
,  // measure 27
0010
0100
0001
1000
0010
0100
0001
1000
,  // measure 28
0010
0100
0001
1000
0010
0100
0001
0010
,  // measure 29
0100
1000
0010
1000
0100
1000
0010
1000
,  // measure 30
0001
0100
0001
0010
0001
0100
0001
0010
,  // measure 31
0001
0010
0100
1000
0001
0010
0100
1000
,  // measure 32
0001
0010
0100
1000
0001
0010
0100
1000
,  // measure 33
0010
0000
0000
1010
0000
0000
0011
0000
0000
0000
0001
0000
0100
0000
0000
0000
,  // measure 34
0010
0100
0010
0100
0010
0000
0100
0000
0001
0000
1000
0000
0001
0000
0000
0000
,  // measure 35
1000
0000
0000
1100
0000
0000
0101
0000
0000
0000
0001
0000
0010
0000
0100
1000
,  // measure 36
0100
0000
1000
0100
0010
0000
0100
0010
0001
0000
0001
0010
0001
0000
0000
0000
,  // measure 37
1000
0000
0000
1010
0000
0000
0101
0000
0000
0000
0001
0000
0010
0000
0000
0000
,  // measure 38
0001
1000
0001
1000
0001
0000
1000
0000
0010
0000
0100
0000
0010
0000
0000
0000
,  // measure 39
0001
0000
0000
0011
0000
0000
1100
0000
0000
0000
0001
0000
1000
0000
0001
0010
,  // measure 40
0001
0000
0010
0100
0010
0000
0100
1000
0100
0000
1001
0000
0110
0000
0000
0000
,  // measure 41
0100
0000
0010
0000
1000
0000
0000
0001
0100
0000
0100
0000
0001
0000
0000
0000
,  // measure 42
0010
0000
1000
0000
0001
0000
1000
0100
0000
0010
0001
0000
0001
0100
0000
0010
,  // measure 43
1000
0000
0100
0000
1000
0000
0000
0100
0001
0000
0001
0000
0010
0000
0000
0000
,  // measure 44
0000
0010
0100
0000
1000
0001
1000
0001
1000
0000
0000
0000
0000
0000
0000
0000
;
