#TITLE:Journey Like a Thousand Years;
#SUBTITLE:;
#ARTIST:HoloMyth;
#TITLETRANSLIT:;
#SUBTITLETRANSLIT:;
#ARTISTTRANSLIT:;
#CREDIT:;
#BANNER:Journey Like a Thousand Years.png;
#BACKGROUND:Journey Like a Thousand Years-bg.png;
#JACKET:Journey Like a Thousand Years-jacket.png;
#LYRICSPATH:;
#CDTITLE:;
#MUSIC:Journey Like a Thousand Years.mp3;
#OFFSET:-0.765;
#SAMPLESTART:62.450;
#SAMPLELENGTH:15.000;
#SELECTABLE:YES;
#DISPLAYBPM:35.000:138.000;
#BPMS:0.000=69.185,16.000=138.370,48.000=69.185,86.000=138.370,176.000=34.593,178.000=69.185,194.000=138.370;
#STOPS:86.000=0.870;
#BGCHANGES:;

//---------------dance-single - ----------------
#NOTES:
     dance-single:
     :
     Beginner:
     3:
     :
// measure 1
0000
0000
0000
0000
,  // measure 2
0000
0000
0000
0000
,  // measure 3
0000
0000
0000
0000
,  // measure 4
0000
0000
0000
0000
,  // measure 5
0001
0000
0000
0000
,  // measure 6
0010
0000
0000
0000
,  // measure 7
0100
0000
0000
1000
,  // measure 8
0000
0000
0010
0000
,  // measure 9
0000
0100
0000
0000
,  // measure 10
0010
0000
0000
0000
,  // measure 11
0001
0000
0000
1000
,  // measure 12
0000
0000
0000
0000
,  // measure 13
0010
0000
0000
0000
,  // measure 14
1000
0000
0000
0000
,  // measure 15
0001
0000
0000
0000
,  // measure 16
0100
0000
0000
0000
,  // measure 17
0000
0100
0000
0010
,  // measure 18
0000
1000
0000
0001
,  // measure 19
0000
0100
0000
0001
,  // measure 20
0000
1000
0000
0010
,  // measure 21
2002
0000
0000
0000
,  // measure 22
0000
0000
3003
0100
,  // measure 23
0010
0000
0001
1000
,  // measure 24
0001
0000
0100
0000
,  // measure 25
0010
0000
1000
0000
,  // measure 26
0010
0000
0100
0000
,  // measure 27
0001
0000
1000
0100
,  // measure 28
1000
0000
0001
0000
,  // measure 29
0010
0000
0100
0000
,  // measure 30
2002
0000
0000
3003
,  // measure 31
0100
0000
0010
0001
,  // measure 32
1000
0000
1100
0000
,  // measure 33
1000
0000
0100
0010
,  // measure 34
0001
0000
0011
0000
,  // measure 35
0001
0000
1000
0010
,  // measure 36
0100
0000
0101
0000
,  // measure 37
0010
0000
1000
0001
,  // measure 38
0100
0000
1010
0000
,  // measure 39
0001
0000
1100
0000
,  // measure 40
0100
0000
1010
0000
,  // measure 41
0010
0000
0101
0000
,  // measure 42
1000
0000
0011
0000
,  // measure 43
0001
0000
0010
0000
,  // measure 44
0100
0000
1000
0000
,  // measure 45
0010
0100
0001
0000
,  // measure 46
1000
0000
0010
0000
,  // measure 47
0100
0000
0010
0000
,  // measure 48
0001
0000
1000
0000
,  // measure 49
0220
0330
0010
0000
,  // measure 50
1000
0001
0010
0000
,  // measure 51
0100
0001
1000
0000
,  // measure 52
0100
0000
0001
0100
,  // measure 53
0010
0000
0020
0000
,  // measure 54
1030
0100
0010
0000
,  // measure 55
0001
0100
0010
0000
,  // measure 56
1000
0000
0001
0000
,  // measure 57
1000
0000
0100
0000
,  // measure 58
0010
0000
0001
0001
,  // measure 59
0001
0000
1000
1000
,  // measure 60
1000
0001
0001
0001
,  // measure 61
0010
0100
0000
0100
,  // measure 62
0010
0000
1000
0010
,  // measure 63
1000
0000
0001
0010
,  // measure 64
0001
0000
0100
0010
,  // measure 65
0100
0000
2002
0000
,  // measure 66
3003
0000
0000
0000
;

//---------------dance-single - ----------------
#NOTES:
     dance-single:
     :
     Easy:
     5:
     :
// measure 1
0000
0000
0000
0000
,  // measure 2
0000
0000
0000
0000
,  // measure 3
2000
0000
0000
0000
,  // measure 4
0002
0000
0000
3003
,  // measure 5
0100
0010
0001
0010
,  // measure 6
0100
1000
0001
0100
,  // measure 7
0001
0010
0001
0001
,  // measure 8
1000
0001
0010
0100
,  // measure 9
0000
1000
1000
0010
,  // measure 10
0001
0010
1000
0010
,  // measure 11
0100
0001
1000
0100
,  // measure 12
0001
1000
0000
0000
,  // measure 13
0010
1000
0010
0100
,  // measure 14
0001
0100
1000
0100
,  // measure 15
0001
0010
0001
0100
,  // measure 16
0010
0100
1000
0000
,  // measure 17
0010
0000
0001
0000
0100
0010
0001
0000
,  // measure 18
1000
0000
0010
0000
1000
0100
0010
0000
,  // measure 19
0001
0000
0100
0000
0010
0100
1000
0000
,  // measure 20
0010
0000
1000
0000
0001
0010
0100
0000
,  // measure 21
0220
0000
0000
0000
,  // measure 22
0000
0000
0330
0001
,  // measure 23
1001
0000
0100
0001
,  // measure 24
1000
0000
0010
0001
,  // measure 25
0010
0100
0010
0001
,  // measure 26
0100
1000
0100
0000
,  // measure 27
0110
0000
0010
1000
,  // measure 28
0001
0000
0100
1000
,  // measure 29
0010
1000
0001
0010
,  // measure 30
0220
0000
0330
0000
,  // measure 31
1001
1000
0010
0100
,  // measure 32
0020
0000
0000
0130
,  // measure 33
0001
1000
0002
0000
,  // measure 34
0000
0000
0000
1003
,  // measure 35
0001
0010
0001
0100
,  // measure 36
0010
0100
0010
1000
,  // measure 37
2000
0000
3200
0000
,  // measure 38
0320
0000
0032
0000
,  // measure 39
0103
0010
1000
0010
,  // measure 40
0100
0010
0001
0100
,  // measure 41
1000
0100
0020
0000
,  // measure 42
0000
0000
0031
0100
,  // measure 43
1000
0001
1000
0001
,  // measure 44
1000
0001
0010
1000
,  // measure 45
0002
2003
3010
0100
,  // measure 46
0001
0100
1000
0100
,  // measure 47
0010
0100
1000
0010
,  // measure 48
0100
0001
1000
0100
,  // measure 49
0220
0330
1001
0001
,  // measure 50
1000
0100
0001
0001
,  // measure 51
1000
0100
0010
0100
,  // measure 52
1000
0001
0100
0001
,  // measure 53
1000
0110
0010
0010
,  // measure 54
1000
0100
0010
0010
,  // measure 55
0100
0001
0010
0010
,  // measure 56
0100
0100
0001
0010
,  // measure 57
0100
1000
0001
0010
,  // measure 58
0001
0000
1000
0000
0010
1000
0010
0000
,  // measure 59
0100
0000
1000
0000
0001
0100
0001
0000
,  // measure 60
0001
0000
1000
0100
1000
0000
1000
0000
,  // measure 61
0010
0000
0100
0000
0000
0000
0010
0100
,  // measure 62
0001
0000
1000
0000
0001
0010
0100
0000
,  // measure 63
0100
0000
0001
0000
1000
0010
1000
0000
,  // measure 64
1000
0000
0001
0010
0001
0000
0001
0000
,  // measure 65
0100
0010
2002
0000
,  // measure 66
3003
0000
0000
0000
;

//---------------dance-single - ----------------
#NOTES:
     dance-single:
     :
     Medium:
     7:
     :
// measure 1
0000
0000
0000
0000
,  // measure 2
0000
0000
0000
0000
,  // measure 3
0100
0010
1000
0001
,  // measure 4
1000
0000
0100
0000
0010
0001
0110
0000
,  // measure 5
0100
1000
0001
0100
,  // measure 6
0010
1000
0001
0000
0011
0000
1100
0000
,  // measure 7
0010
0100
0010
0000
0101
0000
0100
0010
,  // measure 8
0100
1010
0001
1000
,  // measure 9
0000
0000
0100
0010
0001
0000
1000
0000
,  // measure 10
0010
0100
0001
0100
,  // measure 11
0010
0001
0100
0000
0110
0000
0010
1000
,  // measure 12
0100
0110
1000
0001
,  // measure 13
0100
0000
0010
0000
0100
0010
0001
0000
,  // measure 14
1000
0000
0001
0000
0100
0010
1000
0000
,  // measure 15
0001
0000
0100
0000
1000
0100
0001
0000
,  // measure 16
0010
1000
0101
1100
,  // measure 17
0100
0000
1000
0000
0001
0010
0100
0000
,  // measure 18
0010
0001
1000
0000
0100
0001
0010
0000
,  // measure 19
1000
0010
1000
0000
0001
0010
0001
0000
,  // measure 20
0010
0100
0000
0100
0010
1000
0100
0000
,  // measure 21
0001
0100
0010
1000
,  // measure 22
2002
0000
0000
0000
3003
0100
0010
0100
,  // measure 23
0010
1000
0100
0001
,  // measure 24
0100
1000
0010
0100
,  // measure 25
0010
1000
0001
0100
,  // measure 26
0001
0010
0001
0010
,  // measure 27
0100
1000
0100
0010
,  // measure 28
0001
0100
0010
1000
,  // measure 29
0100
1000
0010
1000
,  // measure 30
0001
0100
0010
0100
,  // measure 31
0001
0000
0000
0000
0100
0000
0000
0000
1000
0000
0000
0010
0000
0000
0100
0000
,  // measure 32
0002
0000
0000
0000
0000
0000
0013
0100
,  // measure 33
1000
0100
0020
0000
,  // measure 34
0000
0000
0000
0000
0000
0000
0000
0000
0030
0000
1000
0000
0000
0001
0000
0000
,  // measure 35
0100
0000
0000
0001
0000
0000
0100
0000
0010
0000
0000
1000
0000
0000
0010
0000
,  // measure 36
1000
0000
0000
0100
0000
0000
1000
0000
0001
0000
0000
0010
0000
0000
0001
0000
,  // measure 37
1200
1300
0102
0103
,  // measure 38
2010
3010
0021
0031
,  // measure 39
1000
0000
0010
1000
0000
0100
0010
0000
,  // measure 40
0001
0100
0000
0010
1000
0000
0001
0000
,  // measure 41
0100
0000
0010
0020
0000
0000
0000
0000
,  // measure 42
0000
0000
1030
0100
,  // measure 43
0001
0001
0001
0001
,  // measure 44
1000
1000
1000
1000
,  // measure 45
0020
0000
0000
0000
0000
0000
0000
0100
0230
0000
0000
0000
0000
0000
0000
0000
0310
0000
0000
0000
0000
0000
0000
0000
0001
0000
0000
0000
0000
0000
0000
0000
,  // measure 46
1000
0100
1000
0010
,  // measure 47
1000
0100
0001
0100
,  // measure 48
1000
0001
0100
1000
,  // measure 49
0100
0010
0001
0000
1001
0000
0000
0010
,  // measure 50
1000
0000
1000
0001
0000
0000
0000
0100
,  // measure 51
0001
0000
0001
0010
0000
0000
1000
0000
,  // measure 52
0100
0000
0001
0010
0000
0001
0000
1000
,  // measure 53
0000
0100
0001
0000
0110
0000
0000
0100
,  // measure 54
0010
0000
1000
0100
0000
0000
0000
0010
,  // measure 55
1000
0100
0010
0001
0000
0000
0010
0100
,  // measure 56
0000
0000
0200
0020
0000
0000
0000
0000
,  // measure 57
0330
0001
0100
0010
1100
0000
0101
0000
,  // measure 58
0011
0000
1010
0000
0010
1000
0001
1000
,  // measure 59
0100
0000
1000
0000
0001
0010
0001
0010
,  // measure 60
0001
0000
1000
0100
1000
0100
1000
0000
,  // measure 61
0101
0000
1100
0000
0000
0000
0100
0010
,  // measure 62
0001
0000
1000
0000
0010
0100
0001
0010
,  // measure 63
0001
0000
0100
0000
0010
1000
0010
1000
,  // measure 64
0010
0000
0100
0001
0100
0001
0100
0000
,  // measure 65
1010
0011
2002
0000
,  // measure 66
3003
0000
0000
0000
;

//---------------dance-single - ----------------
#NOTES:
     dance-single:
     :
     Hard:
     12:
     :
// measure 1
0000
0000
0000
0000
,  // measure 2
0000
0000
0000
0000
,  // measure 3
0110
0000
0000
0010
1000
0000
0001
2000
0000
0000
0000
3001
0010
0001
1000
0020
,  // measure 4
0000
0000
0000
0030
0000
0000
0010
0000
0000
0200
0000
0000
0000
0000
0000
0300
0000
0000
0100
0000
0000
0010
0000
0000
0001
0000
1000
0000
0001
0000
1000
0000
0001
0000
1000
0000
0001
0000
0000
0000
0000
0000
0000
0000
0000
0000
0000
0000
,  // measure 5
1100
0101
1010
0011
,  // measure 6
0010
0001
0010
1000
0010
0000
0100
0000
,  // measure 7
0010
0001
1000
0001
0010
0000
0100
1000
,  // measure 8
0010
1000
0001
0000
0110
0000
1001
0000
,  // measure 9
0220
0000
0000
0330
0001
0000
0100
0000
1000
0000
0000
0000
0100
0000
0000
0000
,  // measure 10
0010
0001
0100
0010
0100
0000
1000
0000
,  // measure 11
0001
1000
0010
0010
1000
0000
0100
0010
,  // measure 12
1000
0001
0010
0000
2002
0000
0000
3003
,  // measure 13
0100
0000
0001
1000
0000
0000
0100
0010
0000
0010
0100
2000
0000
0000
0000
3000
,  // measure 14
0001
0100
0000
0010
0000
0010
0000
0100
0000
0010
1000
0002
0000
0000
0003
1000
,  // measure 15
0100
0000
0100
0010
0000
0000
0010
0001
0000
1000
0000
0200
0000
0000
0300
0010
,  // measure 16
0001
0000
0000
1000
0000
0000
0100
0000
0010
0000
0000
0001
0000
0000
0200
0000
0020
0000
0000
0000
0000
0000
0000
0000
0000
0000
0000
0000
0330
0000
0000
0000
,  // measure 17
0100
0000
0010
1000
0000
0001
0100
0010
0000
0010
1000
0001
0000
1000
0000
0001
,  // measure 18
0100
0010
0100
0001
0000
1000
0000
0001
0000
0010
0100
1000
0000
0100
0000
0001
,  // measure 19
0010
0000
0000
0100
0000
0000
0100
0000
0010
0000
0000
0000
0000
0000
1000
0000
0100
0000
0000
1000
0000
0000
0001
0000
0200
0000
0000
0000
0000
0000
0000
0000
,  // measure 20
0300
0010
1000
0001
0010
0001
1000
0010
0000
0100
0010
1000
0000
0100
0000
0001
,  // measure 21
1000
0100
0010
0001
0001
0010
0100
1000
,  // measure 22
0100
0010
0001
0010
0100
1000
0001
1000
0110
0000
0100
0000
0010
0000
0001
0000
,  // measure 23
0011
0000
0001
0010
0100
0010
1000
0100
,  // measure 24
0000
1100
0000
0100
0001
1000
0001
0010
,  // measure 25
0010
0100
0100
0000
1000
0000
0001
1000
,  // measure 26
0000
0001
0010
0100
0000
1000
0100
0010
,  // measure 27
2020
0000
3030
0001
1000
0001
0100
0010
,  // measure 28
0000
0101
0000
0100
0001
1000
0001
0020
,  // measure 29
0000
0000
0130
2000
0000
0000
3001
0200
,  // measure 30
0010
0010
0010
0310
1000
0100
0010
0100
,  // measure 31
1000
0000
0001
0000
0000
0000
0010
0000
0100
0000
0000
1000
0000
0000
0001
0000
,  // measure 32
0100
0000
0010
0000
1001
0000
0001
0010
,  // measure 33
1000
0000
0010
0001
0000
0011
0000
0101
,  // measure 34
0000
0000
1100
0000
0000
0000
1010
0000
0110
0000
0100
0000
0000
0010
0000
0000
,  // measure 35
1000
0000
0000
0001
0000
0000
0010
0000
0001
0000
0000
0100
0000
0000
1000
0000
,  // measure 36
0010
0000
0000
0001
0000
0000
0100
0000
0010
0000
0000
1000
0000
0000
0100
0000
,  // measure 37
1000
0100
1000
0000
0010
1000
0010
0000
,  // measure 38
0100
0001
0100
0000
0001
0010
0001
0100
,  // measure 39
0010
0000
0010
1000
0000
1000
0100
0001
,  // measure 40
0000
1001
0000
0010
0100
0001
0100
1000
,  // measure 41
0010
0000
0010
0001
0000
0011
0000
0101
,  // measure 42
0000
1100
0000
1010
0010
1000
0001
0100
,  // measure 43
0001
0001
0100
0100
0010
0010
1000
1000
,  // measure 44
0001
0010
0001
0010
0001
0100
0001
0100
0010
1000
0010
1000
0100
1000
0100
1000
,  // measure 45
0010
0000
0000
0000
0000
0000
0000
0100
0100
0000
0000
0000
0000
2000
0000
0000
3010
0000
0000
0000
0000
0000
0001
0000
0010
0000
0000
0000
0100
0000
0002
0000
,  // measure 46
0000
0000
0000
0103
0010
1000
0100
0020
0000
0000
0031
0000
1000
0000
0100
1000
,  // measure 47
0000
0010
0000
0100
0000
0001
0000
0100
0020
0000
0000
0130
0001
0000
1000
0200
,  // measure 48
0000
0000
0000
0310
1000
0001
1000
0200
0000
0300
0100
0020
0000
0030
0010
0000
,  // measure 49
0101
1100
1001
1010
0011
0000
0001
0100
,  // measure 50
0010
1000
0100
0010
0000
0110
0000
0001
,  // measure 51
1000
0100
1000
0002
0000
0000
0100
0100
,  // measure 52
0010
0013
1000
0100
0000
0001
0100
1000
,  // measure 53
0000
0100
0000
0010
2002
0000
3003
0010
,  // measure 54
0100
1000
0010
0100
0000
0110
0000
0010
,  // measure 55
1000
0001
1000
0010
0010
0010
0010
0100
,  // measure 56
0100
0100
0100
0220
0000
0000
0000
0000
,  // measure 57
0330
0001
0010
0100
1000
1000
0001
0001
,  // measure 58
0100
0100
0010
0010
0001
1000
0001
0100
,  // measure 59
0001
0010
0001
0000
0100
0010
0001
0010
,  // measure 60
0100
1000
0100
0010
0001
0100
1000
0100
,  // measure 61
0011
0000
0000
0000
1010
0000
0000
0000
0220
0000
0000
0330
0001
0000
0100
0000
,  // measure 62
1000
1000
0010
0010
1000
0100
0001
0010
,  // measure 63
0001
0100
1000
0000
0100
0001
1000
0010
,  // measure 64
1100
0000
0010
0100
0001
1000
0101
0000
,  // measure 65
0010
0001
0100
1000
2002
0000
0000
0000
,  // measure 66
3003
0000
0000
0000
;

//---------------dance-single - ----------------
#NOTES:
     dance-single:
     :
     Challenge:
     14:
     :
// measure 1
0000
0000
0000
0000
,  // measure 2
0000
0000
0000
0000
,  // measure 3
1001
0000
0000
0000
0000
0000
0100
0010
1000
0000
0100
0000
1000
0000
0001
0000
0000
0000
0001
0000
0100
0000
0010
0000
1000
0000
0100
0000
0010
0000
0001
0000
,  // measure 4
0001
0000
0000
0001
0000
0000
1000
0000
0000
0001
0000
0000
0001
0000
0000
0001
0000
0000
0100
0000
0000
0010
0000
0000
0100
0000
0010
0000
1000
0000
0010
0000
0100
0000
0001
0000
0110
0000
0000
0000
0000
0000
0000
0000
0000
0000
0000
0000
,  // measure 5
1010
0000
0000
0100
1000
0000
0000
1000
0001
0000
0000
0001
0010
0000
0000
0100
,  // measure 6
0010
0001
1000
0100
1000
0010
0101
0000
,  // measure 7
1000
0010
0100
0000
0001
0000
0100
0000
1000
0000
0100
0000
0010
0100
0001
0000
,  // measure 8
1000
0100
0001
1000
1010
0000
0011
0000
,  // measure 9
0010
0100
0010
0100
0010
0100
0010
0100
0001
0000
0000
0000
0100
0000
0000
0000
0010
0000
0000
0000
0000
0000
1000
0000
0010
0000
0000
0000
0000
0000
0001
0000
,  // measure 10
0010
0100
1000
0001
0100
0010
1001
0000
,  // measure 11
1000
0100
1000
0000
0010
0000
1000
0000
0001
0000
0000
0000
0100
0001
0100
0000
,  // measure 12
0010
0100
0010
0000
1001
0000
0110
0001
,  // measure 13
0001
0000
0100
0001
0000
0100
0010
1000
0000
0001
0100
0001
0000
1000
1000
0000
,  // measure 14
0100
0010
0001
0010
0000
1000
0000
0100
0000
1000
0010
0100
0000
0001
0001
1000
,  // measure 15
0010
0000
0010
1000
0000
0000
1000
0100
0000
0001
0010
0001
0000
0100
0010
1000
,  // measure 16
0100
0000
0000
0001
0000
0000
0010
0000
1000
0000
0000
0100
0000
0000
0010
0000
0011
0000
0000
0000
0000
0000
0000
0000
1010
0000
0000
0000
0000
0000
0001
0000
,  // measure 17
0010
0000
0000
0000
0010
0000
0100
0000
0000
0000
0100
0000
0010
0000
0001
0000
0000
0000
0100
0000
0010
0000
1000
0000
0000
0000
0001
0010
0001
0000
0100
0000
,  // measure 18
0010
0000
1000
0000
0010
0000
0001
0000
0000
0000
0010
0000
0000
0000
0100
0000
0000
0000
0010
0000
0001
0000
1000
0000
0000
0000
0010
0100
1000
0000
0100
0010
,  // measure 19
0001
0000
0000
1000
0000
0000
0010
0000
1000
0000
0000
0000
0100
0000
0001
0100
1000
0000
0000
0100
0000
0000
0001
0000
0100
0000
0000
0000
0010
0000
1000
0000
,  // measure 20
0001
1000
0010
0100
1000
0100
0001
0010
0000
0100
0010
0001
0000
1000
0010
0100
,  // measure 21
0001
0001
0010
0010
1000
1000
0100
0100
0001
0001
0010
0010
0100
0100
1000
1000
,  // measure 22
0010
1000
0100
1000
0010
0100
0001
0010
1001
0000
0100
0000
1000
0000
0001
0000
,  // measure 23
0010
0000
0001
0100
0010
0000
1000
0000
0100
0000
1000
0000
0001
0000
0100
0000
,  // measure 24
0100
0000
0010
1000
0100
0000
0001
0000
0010
0000
0001
0000
0100
0000
2000
0000
,  // measure 25
0001
3200
0010
1300
0010
0001
0010
1000
,  // measure 26
1000
0000
0010
0001
0100
0000
0001
0000
0010
0000
0001
0100
1000
0000
1000
0100
,  // measure 27
0001
0000
0010
0000
0001
0000
1000
0100
0010
0000
0100
0000
1000
0000
0001
0000
,  // measure 28
0100
0000
0001
1000
0100
0000
0010
0000
0100
0000
0001
0000
0100
0000
1000
0000
,  // measure 29
1000
1000
0010
0001
0001
0001
0100
0010
,  // measure 30
1000
0001
1000
0100
0001
0010
0100
0010
,  // measure 31
0001
0000
0010
0000
0000
0000
1000
0000
0010
0000
0000
0100
0000
0000
0010
0000
,  // measure 32
0001
1000
0100
1000
0110
0000
0100
0010
,  // measure 33
0001
0100
1000
0100
0000
0101
0000
1100
,  // measure 34
0000
0000
1010
0000
0000
0000
0011
0000
1001
0000
0100
0000
0000
1000
0000
0000
,  // measure 35
0001
0000
0000
0100
0000
0000
1000
0000
0010
0000
0000
0100
0000
0000
0001
0000
,  // measure 36
1000
0000
0000
0100
0000
0000
0001
0000
0100
0000
0000
0010
0000
0000
1000
0000
,  // measure 37
0100
1000
0100
1000
0001
0100
0001
0100
,  // measure 38
0010
1000
0010
1000
0001
0010
0001
0010
,  // measure 39
1000
0100
0100
1000
0000
0001
0010
0100
,  // measure 40
0010
0001
0000
1000
1000
0100
0001
0010
,  // measure 41
0010
0000
1000
0001
0000
0101
0000
1100
,  // measure 42
0000
0011
0000
0101
0001
0001
0100
0010
,  // measure 43
1000
0100
0010
0001
0001
0100
0010
1000
,  // measure 44
0100
1000
0010
1000
0001
0100
0010
0100
1000
0100
0001
0010
1000
0001
0010
0001
,  // measure 45
0100
0000
0000
0000
0000
0000
0000
0100
1000
0000
0000
0000
0000
1000
0100
0001
0020
0000
0000
0000
0000
0000
0130
0000
1000
0000
0001
0000
1000
0000
0200
0000
,  // measure 46
0000
0000
0000
0310
0001
1000
0010
2000
0000
0000
3100
0000
0001
0010
0010
0002
,  // measure 47
0000
1003
0100
0010
0000
0001
0010
0100
2000
0000
0000
3100
0001
0100
0010
0002
,  // measure 48
0000
0000
0000
0103
1000
0100
0001
0020
0000
0030
0010
0200
0000
0300
0100
1000
,  // measure 49
1000
0100
0010
0001
0010
0100
1000
0000
0000
0101
0000
0000
0011
0000
0000
0001
0000
0000
0100
0000
0000
0010
0000
0000
,  // measure 50
1000
1000
0010
1000
0100
0001
0100
1000
,  // measure 51
0001
0010
0001
0100
0100
0100
0010
0010
,  // measure 52
1000
1000
0001
0010
0010
0100
0010
0001
,  // measure 53
1000
0100
1000
0010
0001
0100
0010
1000
,  // measure 54
0010
0001
0100
0010
0001
1000
0010
1000
,  // measure 55
0100
0010
1000
0010
0010
0010
1000
0001
,  // measure 56
0001
0001
0100
0010
0010
0010
0001
0010
,  // measure 57
0100
0000
0001
0000
0100
0000
1000
0000
0010
0000
0000
0010
0100
0000
0000
0100
,  // measure 58
1000
0000
0000
1000
0001
0000
0000
0001
0010
0000
1000
0000
0100
0000
0010
0000
,  // measure 59
0100
0000
1000
0000
1000
0000
0001
0000
0100
0010
1000
0000
0100
0000
1000
0000
,  // measure 60
0100
0000
0001
0000
0010
0001
1000
0000
0010
0000
0100
0000
0001
0000
0100
0000
,  // measure 61
0010
0000
0000
0000
0010
0000
0000
0000
0100
0000
0000
0000
0100
0000
0000
0000
0001
1000
0001
1000
0001
1000
0001
1000
0100
0000
0000
0000
0010
0000
0000
0000
,  // measure 62
0001
0000
0000
0100
0001
0000
0000
1000
0001
0000
0010
0000
0100
0000
1000
0000
,  // measure 63
0100
0000
0010
0000
0001
0000
0100
0000
0010
1000
0100
0000
0001
0000
0100
0000
,  // measure 64
0001
0000
0001
0000
1000
0100
0010
0000
0001
0000
0010
0000
0001
0000
1000
0000
,  // measure 65
1000
0100
0010
0001
2002
0000
0000
0000
,  // measure 66
3003
0000
0000
0000
;
