#TITLE:I Want You;
#SUBTITLE:;
#ARTIST:Savage Garden;
#TITLETRANSLIT:;
#SUBTITLETRANSLIT:;
#ARTISTTRANSLIT:;
#GENRE:;
#CREDIT:;
#BANNER:I Want You.png;
#BACKGROUND:I Want You-bg.png;
#LYRICSPATH:;
#CDTITLE:;
#MUSIC:I Want You.mp3;
#OFFSET:-0.051000;
#SAMPLESTART:9.097000;
#SAMPLELENGTH:15.000000;
#SELECTABLE:YES;
#DISPLAYBPM:106.000000;
#BPMS:0.000000=106.127998;
#STOPS:;
#BGCHANGES:;
#KEYSOUNDS:;
#ATTACKS:;

//---------------dance-single - ----------------
#NOTES:
     dance-single:
     :
     Beginner:
     2:
     :
// measure 0
0000
0000
0000
0000
,  // measure 1
0000
0000
0000
0000
,  // measure 2
0000
0000
0000
0000
,  // measure 3
0000
0000
0000
0000
,  // measure 4
0100
0000
0100
1000
,  // measure 5
0010
0000
0010
0001
,  // measure 6
1000
0000
0001
0100
,  // measure 7
0001
0000
1000
0100
,  // measure 8
0001
0000
0010
0001
,  // measure 9
0100
0000
1000
0010
,  // measure 10
0100
0000
0010
1000
,  // measure 11
0001
0000
1000
0100
,  // measure 12
2000
0000
0000
0000
,  // measure 13
3200
0000
0000
0000
,  // measure 14
0320
0000
0000
0000
,  // measure 15
0032
0000
0000
0000
,  // measure 16
1003
0000
0010
0000
,  // measure 17
1000
0001
0100
0000
,  // measure 18
0100
0000
0010
1000
,  // measure 19
0002
0000
0000
0000
,  // measure 20
0103
0000
0010
0000
,  // measure 21
0100
0001
0010
0000
,  // measure 22
0100
0000
0010
0001
,  // measure 23
2000
0000
0000
0000
,  // measure 24
3020
0000
0000
0000
,  // measure 25
0030
0001
0000
0010
,  // measure 26
0000
0100
0000
1000
,  // measure 27
0000
0100
0000
0010
,  // measure 28
0000
0001
0100
0010
,  // measure 29
0000
1000
0000
0010
,  // measure 30
0000
1000
0000
0100
,  // measure 31
0000
0001
0000
0100
,  // measure 32
0000
1000
0100
0010
,  // measure 33
0002
0000
0000
0000
,  // measure 34
0203
0000
0000
0000
,  // measure 35
0320
0000
0000
0000
,  // measure 36
2030
0000
0000
0000
,  // measure 37
3001
0000
0010
0000
,  // measure 38
0100
0001
1000
0010
,  // measure 39
0100
0000
0001
1000
,  // measure 40
0020
0000
0000
0000
,  // measure 41
1030
0000
0010
0000
,  // measure 42
0001
0100
0010
1000
,  // measure 43
0010
0000
0001
1000
,  // measure 44
0200
0000
0000
0000
,  // measure 45
1300
0100
0010
0000
,  // measure 46
0010
0001
0100
0010
,  // measure 47
0100
0010
1000
0100
,  // measure 48
0020
0000
0000
0000
,  // measure 49
0130
0010
0001
0000
,  // measure 50
0100
1000
0001
0100
,  // measure 51
0001
0100
0010
1000
,  // measure 52
0200
0000
0000
0000
,  // measure 53
0320
0000
0000
0000
,  // measure 54
2030
0000
0000
0000
,  // measure 55
3002
0000
0000
0000
,  // measure 56
0003
0000
0000
0000
;

//---------------dance-single - ----------------
#NOTES:
     dance-single:
     :
     Easy:
     4:
     :
// measure 0
0000
0000
0000
0000
,  // measure 1
0000
0000
0000
0000
,  // measure 2
0000
0000
0000
0000
,  // measure 3
0000
0000
0000
0000
,  // measure 4
0001
0100
0001
1000
,  // measure 5
0010
0100
0010
1000
,  // measure 6
0010
0001
0010
0100
,  // measure 7
0010
1000
0010
0001
,  // measure 8
0100
1000
0010
1000
,  // measure 9
0100
0001
1000
0001
,  // measure 10
0010
0001
0100
0001
,  // measure 11
1000
0010
1000
0001
,  // measure 12
0010
0000
0000
1010
0000
0000
0010
0000
,  // measure 13
0001
0000
0000
1001
0000
0000
1000
0000
,  // measure 14
0001
0000
0000
0101
0000
0000
0001
0000
,  // measure 15
0001
0011
0110
1100
,  // measure 16
0100
1000
0010
0001
,  // measure 17
0100
0001
0010
1000
,  // measure 18
0100
0010
0001
1000
,  // measure 19
2002
0000
0000
3003
,  // measure 20
0100
0001
0010
0001
,  // measure 21
0100
1000
0010
0100
,  // measure 22
0010
0001
1000
0010
,  // measure 23
0220
0000
0000
0330
,  // measure 24
2002
0000
0000
3003
,  // measure 25
0100
0101
0100
0101
,  // measure 26
1000
1010
1000
1010
,  // measure 27
1000
1100
1000
1100
,  // measure 28
0001
0011
0001
0011
,  // measure 29
0100
1100
0001
1001
,  // measure 30
0010
0101
0001
0110
,  // measure 31
1000
1100
0010
0011
,  // measure 32
0010
1010
0001
0101
,  // measure 33
0001
0000
0000
0101
0000
0000
0001
0000
,  // measure 34
1000
0000
0000
1001
0000
0000
1000
0000
,  // measure 35
0010
0000
0000
1010
0000
0000
0010
0000
,  // measure 36
0001
0011
0110
1100
,  // measure 37
0100
0010
0001
0010
,  // measure 38
0100
1000
0010
1000
,  // measure 39
0001
0100
0010
1000
,  // measure 40
0202
0000
0000
0303
,  // measure 41
0001
0100
1000
0100
,  // measure 42
0010
0100
1000
0001
,  // measure 43
1000
0100
0010
0001
,  // measure 44
2020
0000
0000
3030
,  // measure 45
1000
0001
0010
0100
,  // measure 46
0010
0001
0100
1000
,  // measure 47
0100
0001
1000
0100
,  // measure 48
0022
0000
0000
0033
,  // measure 49
0001
0010
1000
0010
,  // measure 50
0100
0001
0010
0100
,  // measure 51
1000
0010
0100
0001
,  // measure 52
2100
0000
0000
0000
,  // measure 53
3200
0000
0000
0000
,  // measure 54
0320
0000
0000
0000
,  // measure 55
0032
0000
0000
0000
,  // measure 56
0003
0000
0000
0000
;

//---------------dance-single - ----------------
#NOTES:
     dance-single:
     :
     Medium:
     7:
     :
// measure 0
0000
0000
0000
0000
,  // measure 1
0000
0000
0000
0000
,  // measure 2
0000
0000
0000
0000
,  // measure 3
0000
0000
0000
0000
,  // measure 4
1000
0100
0010
0100
1000
0001
0100
0001
,  // measure 5
0010
0001
0100
0001
1000
0001
0100
0010
,  // measure 6
0100
0001
1000
0100
0001
0100
1000
0010
,  // measure 7
0001
0010
1000
0001
0010
0100
1000
0100
,  // measure 8
0010
0001
0010
1000
0010
0001
0100
1000
,  // measure 9
0100
0001
1000
0001
1000
0010
0100
0010
,  // measure 10
0100
0001
0100
1000
0100
0010
0100
1000
,  // measure 11
0010
1000
0010
0001
0010
0100
0010
0001
,  // measure 12
2020
0000
0000
0000
0000
0000
0000
3030
,  // measure 13
0202
0000
0000
0000
0000
0000
0000
0303
,  // measure 14
2002
0000
0000
0000
0000
0000
0000
3003
,  // measure 15
0001
0011
0110
1100
,  // measure 16
0100
0000
0001
0000
0020
0000
0031
0100
,  // measure 17
0010
1000
0100
0000
0001
0010
0100
0000
,  // measure 18
1000
0010
0200
0301
,  // measure 19
2200
0000
0000
3300
,  // measure 20
0100
0000
0010
0000
2000
0000
3010
0010
,  // measure 21
0100
0100
0010
0000
0100
0010
0001
0000
,  // measure 22
1000
0001
0020
0031
,  // measure 23
2020
0000
0000
0000
0000
0000
0000
3030
,  // measure 24
0100
0001
0010
0000
0100
1000
0010
1000
,  // measure 25
0001
0010
0100
0010
0001
1000
0010
1000
,  // measure 26
0100
1000
0010
1000
0001
1000
0010
0100
,  // measure 27
0010
1000
0001
0010
1000
0010
0001
0100
,  // measure 28
1000
0100
0001
1000
0100
0010
0001
0010
,  // measure 29
0100
1000
0100
0001
0100
1000
0010
0001
,  // measure 30
0010
1000
0001
1000
0001
0100
0010
0100
,  // measure 31
0010
1000
0010
0001
0010
0100
0010
0001
,  // measure 32
0100
0001
0100
1000
0100
0010
0100
1000
,  // measure 33
0202
0000
0000
0000
0000
0000
0000
0303
,  // measure 34
2200
0000
0000
0000
0000
0000
0000
3300
,  // measure 35
2002
0000
0000
0000
0000
0000
0000
3003
,  // measure 36
0001
0011
0110
1100
,  // measure 37
0010
0000
0001
0000
2000
0000
3010
0100
,  // measure 38
0001
0100
1000
0000
1000
0100
0001
0000
,  // measure 39
0100
0001
0020
0031
,  // measure 40
0202
0000
0000
0000
0000
0000
0000
0303
,  // measure 41
0100
0000
0010
0000
0002
0000
1003
0100
,  // measure 42
0100
1000
0001
0000
0010
0100
0010
0000
,  // measure 43
1000
0001
0200
0301
,  // measure 44
0011
0010
0001
0000
0100
0010
1000
0100
,  // measure 45
0001
0000
1000
0000
0010
0100
0001
0100
,  // measure 46
1000
0100
0001
0000
0010
0100
1000
0000
,  // measure 47
0100
0000
0010
1000
0001
1000
0010
0000
,  // measure 48
0200
0000
0000
0020
0000
0000
0000
0330
,  // measure 49
0001
0000
0010
0000
1000
0100
1000
0010
,  // measure 50
1000
0001
0020
0000
0100
0100
0100
0030
,  // measure 51
1000
0000
0100
0010
0001
0010
0100
0000
,  // measure 52
2200
0000
0000
0000
0000
0000
0000
3300
,  // measure 53
0202
0000
0000
0000
0000
0000
0000
0303
,  // measure 54
2020
0000
0000
0000
0000
0000
0000
3030
,  // measure 55
0022
0000
0000
0000
,  // measure 56
0033
0000
0000
0000
;

//---------------dance-single - ----------------
#NOTES:
     dance-single:
     :
     Hard:
     12:
     :
// measure 0
0000
0000
0000
0000
,  // measure 1
0000
0000
0000
0000
,  // measure 2
0000
0000
0000
0000
,  // measure 3
0000
0000
0000
0000
,  // measure 4
0010
1000
0010
0100
0001
0100
0010
1000
0100
0010
0001
0010
0000
0100
0000
0001
,  // measure 5
0000
0010
0100
0010
1000
0100
1000
0010
0100
0001
1000
0010
0000
1000
0000
0001
,  // measure 6
0000
1000
0010
0100
0000
0001
0000
0100
0000
0010
1000
0100
1000
0010
0001
0010
,  // measure 7
1000
0100
1000
0001
0000
0100
0010
1000
0001
0100
0001
0100
0010
0000
0110
0000
,  // measure 8
0001
1000
0100
1000
0001
0100
0010
1000
0000
1000
0100
0001
0000
0010
0000
0001
,  // measure 9
0000
0010
0100
0010
0001
0100
0010
0100
0000
0001
1000
0010
0000
1000
0000
0001
,  // measure 10
0000
0100
0010
0100
1000
0000
0010
0100
0001
0010
1000
0100
0000
0001
0010
0001
,  // measure 11
0000
0100
1000
0001
0100
0000
0010
1000
0001
0000
0001
0010
0100
0000
1001
0000
,  // measure 12
0110
0000
0100
0000
0010
0000
1000
0100
0000
0001
0100
0000
0010
0000
0001
0000
,  // measure 13
1010
0000
0010
0000
0100
0000
0010
1000
0000
1000
0100
0000
0010
0000
0001
0000
,  // measure 14
0011
0000
0001
0000
0100
0000
0001
0010
0000
1000
0010
0000
0100
0000
0001
0000
,  // measure 15
0010
0110
0101
1100
,  // measure 16
0200
0000
0320
0000
0031
0010
0001
1000
,  // measure 17
0100
1000
0010
0000
0100
0010
0001
0000
,  // measure 18
0200
0000
0320
0000
1030
0100
0010
0100
,  // measure 19
1000
0101
0001
1100
,  // measure 20
0002
0000
0023
0000
0031
0100
0010
1000
,  // measure 21
0010
0100
0001
0000
0010
0100
1000
0000
,  // measure 22
0010
0100
0001
1000
0010
1000
0100
0000
,  // measure 23
0001
0011
1000
1010
,  // measure 24
0100
0000
0001
0000
0010
0000
0100
0010
0000
0010
0001
0000
1000
0000
0100
0000
,  // measure 25
0010
0001
0100
0010
1000
0010
0100
0001
0010
0100
1000
0100
0000
0001
0000
1000
,  // measure 26
0000
0100
0010
0100
0001
0010
0001
0100
0010
1000
0001
0100
0000
0001
0000
0100
,  // measure 27
0000
0010
0100
0010
1000
0100
1000
0010
0100
0010
0001
0010
0000
0100
1000
0100
,  // measure 28
0001
0010
0001
1000
0000
0010
0100
0001
0000
0010
1000
0010
0100
0000
0110
0000
,  // measure 29
0010
1000
0010
1000
0001
0100
1000
0100
0010
0001
1000
0010
0000
1000
0000
0001
,  // measure 30
0000
0100
0010
0100
0001
1000
0001
1000
0010
0100
0010
1000
0000
0010
0000
0001
,  // measure 31
0000
0010
0100
0010
0100
1000
0100
1000
0001
0100
0010
0001
0000
0100
0001
0010
,  // measure 32
0001
0000
0100
0100
0000
0010
1000
0001
0001
0100
0010
1000
0001
0000
1001
0000
,  // measure 33
0110
0000
0001
0000
0100
0000
0010
0100
0000
0100
0001
0000
1000
0000
0001
0000
,  // measure 34
1100
0000
0100
0000
0010
0000
1000
0100
0000
0100
0001
0000
0010
0000
0001
0000
,  // measure 35
0101
0000
0010
0000
0100
0000
0001
0010
0000
1000
0010
0000
0100
0000
0001
0000
,  // measure 36
1000
0011
1010
1001
,  // measure 37
0200
0000
0320
0000
1030
1000
0001
0001
,  // measure 38
0100
0010
1000
0000
0100
0010
0001
0000
,  // measure 39
0200
0000
0320
0000
1030
0010
0100
0010
,  // measure 40
1000
0101
0001
1100
,  // measure 41
2000
0000
3020
0000
0130
0001
0010
0001
,  // measure 42
1000
0010
0100
0000
0010
0100
1000
0000
,  // measure 43
0010
0001
0100
0001
0010
1000
0100
0000
,  // measure 44
0001
0000
0010
0000
0100
0000
0010
0001
0000
0000
1000
0100
1000
0000
0001
0010
,  // measure 45
0001
0001
1000
1000
0100
1000
0010
0001
,  // measure 46
0010
1000
0100
0000
0010
0001
0100
0000
,  // measure 47
1000
0100
0001
0100
0010
0001
0100
1000
,  // measure 48
0200
0000
0000
0010
0010
0010
0010
0310
,  // measure 49
1000
1000
0001
0001
0010
0001
0100
0001
,  // measure 50
0100
1000
0010
1000
0010
0001
1000
0000
,  // measure 51
0001
0010
1000
0100
1000
0010
0001
0100
,  // measure 52
2200
0000
0000
0000
0000
0000
0000
3300
,  // measure 53
2020
0000
0000
0000
0000
0000
0000
3030
,  // measure 54
0202
0000
0000
0000
0000
0000
0000
0303
,  // measure 55
0022
0000
0000
0000
,  // measure 56
0033
0000
0000
0000
;
