#TITLE:Houdini;
#SUBTITLE:;
#ARTIST:Dua Lipa;
#TITLETRANSLIT:;
#SUBTITLETRANSLIT:;
#ARTISTTRANSLIT:;
#GENRE:;
#CREDIT:;
#BANNER:Houdini.png;
#BACKGROUND:Houdini-bg.png;
#LYRICSPATH:;
#CDTITLE:;
#MUSIC:Houdini.mp3;
#OFFSET:-0.047000;
#SAMPLESTART:65.688004;
#SAMPLELENGTH:15.000000;
#SELECTABLE:YES;
#DISPLAYBPM:117.000000;
#BPMS:0.000000=117.000000;
#STOPS:;
#BGCHANGES:;
#KEYSOUNDS:;
#ATTACKS:;

//---------------dance-single - ----------------
#NOTES:
     dance-single:
     :
     Beginner:
     2:
     :
// measure 0
0000
0000
0000
0000
,  // measure 1
0000
0000
0000
0000
,  // measure 2
0000
0000
0000
0000
,  // measure 3
0000
0000
0000
0000
,  // measure 4
0000
0000
0000
0000
,  // measure 5
2000
0000
0000
0000
,  // measure 6
3200
0000
0000
0000
,  // measure 7
0302
0000
0000
0000
,  // measure 8
0203
0000
0000
0000
,  // measure 9
1300
0000
0000
0000
,  // measure 10
0001
0000
0010
0001
,  // measure 11
0100
0000
0000
0000
,  // measure 12
0010
0000
1000
0100
,  // measure 13
0010
0000
0000
0000
,  // measure 14
1000
0000
0100
1000
,  // measure 15
0001
0000
0000
0000
,  // measure 16
0100
0000
0010
0001
,  // measure 17
0000
0200
0000
0000
,  // measure 18
0310
1000
0100
0000
,  // measure 19
0000
0020
0000
0000
,  // measure 20
0130
0001
0010
0000
,  // measure 21
0000
2000
0000
0000
,  // measure 22
3010
0001
0100
0000
,  // measure 23
0000
0002
0000
0000
,  // measure 24
0013
1000
0100
0000
,  // measure 25
0110
0000
0000
0000
,  // measure 26
0001
0000
0100
0010
,  // measure 27
1001
0000
0000
0000
,  // measure 28
1000
0000
0100
0001
,  // measure 29
0110
0000
0000
0000
,  // measure 30
0001
0000
0001
0100
,  // measure 31
1001
0000
0000
0000
,  // measure 32
0010
0000
0010
0100
,  // measure 33
2000
0000
0100
0000
,  // measure 34
0010
0000
3001
0000
,  // measure 35
0002
0000
0010
0000
,  // measure 36
0100
0000
1003
1000
,  // measure 37
0200
0000
1000
0000
,  // measure 38
0010
0000
1300
0000
,  // measure 39
0020
0000
0100
0000
,  // measure 40
0001
0000
1030
1000
,  // measure 41
0022
0000
0000
0000
,  // measure 42
0000
0000
0000
0033
,  // measure 43
0202
0000
0000
0000
,  // measure 44
0000
0000
0000
0303
,  // measure 45
2020
0000
0000
0000
,  // measure 46
0000
0000
0000
3030
,  // measure 47
2200
0000
0000
0000
,  // measure 48
0000
0000
0000
3300
,  // measure 49
0010
0000
0011
0000
,  // measure 50
0100
0000
0010
0100
,  // measure 51
0001
0000
0101
0000
,  // measure 52
1000
0000
0100
0010
,  // measure 53
1000
0000
1010
0000
,  // measure 54
0100
0000
0001
0010
,  // measure 55
0100
0000
1100
0000
,  // measure 56
0001
0010
0100
1000
,  // measure 57
0000
0002
0000
0000
,  // measure 58
0003
0200
0000
0000
,  // measure 59
0300
0020
0000
0000
,  // measure 60
0030
2000
0000
0000
,  // measure 61
3000
0200
0000
0000
,  // measure 62
0300
0020
0000
0000
,  // measure 63
0030
0002
0000
0000
,  // measure 64
1003
0100
0010
0001
;

//---------------dance-single - ----------------
#NOTES:
     dance-single:
     :
     Easy:
     4:
     :
// measure 0
0000
0000
0000
0000
,  // measure 1
0000
0000
0000
0000
,  // measure 2
0000
0000
0000
0000
,  // measure 3
0000
0000
0000
0000
,  // measure 4
0000
0000
0000
0000
,  // measure 5
1000
0000
0010
0000
,  // measure 6
0001
0000
0100
0000
,  // measure 7
1000
0000
0010
0000
,  // measure 8
0100
0000
0001
0000
,  // measure 9
0010
0100
0010
0000
,  // measure 10
0001
0100
1000
0100
,  // measure 11
0001
1000
0001
0000
,  // measure 12
1000
0010
1000
0100
,  // measure 13
1000
0001
1000
0000
,  // measure 14
0100
0010
0001
1000
,  // measure 15
0010
0100
0010
0000
,  // measure 16
1000
0100
0001
0100
,  // measure 17
0000
0100
0100
0100
,  // measure 18
0001
0010
1000
0000
,  // measure 19
0000
0010
0010
0010
,  // measure 20
0100
0001
0100
0000
,  // measure 21
0000
1000
1000
1000
,  // measure 22
0010
0001
0100
0000
,  // measure 23
0000
0001
0001
0001
,  // measure 24
0010
1000
0100
1000
,  // measure 25
0001
0010
0011
0000
,  // measure 26
0010
0001
1000
0010
,  // measure 27
1000
0100
1100
0000
,  // measure 28
0001
0010
1000
0010
,  // measure 29
0100
0001
0101
0000
,  // measure 30
0001
0100
0001
1000
,  // measure 31
0010
1000
1010
0000
,  // measure 32
1000
0010
0001
0010
,  // measure 33
2000
0000
0010
0001
,  // measure 34
0100
0001
0010
3000
,  // measure 35
0002
0000
0010
1000
,  // measure 36
0100
1000
0010
0013
,  // measure 37
0200
0000
0001
1000
,  // measure 38
0010
1000
0001
0300
,  // measure 39
0020
0000
0001
0100
,  // measure 40
0001
1000
0100
0130
,  // measure 41
0002
0000
0023
0000
,  // measure 42
0230
0000
2300
0000
,  // measure 43
3020
0000
0230
0000
,  // measure 44
0302
0000
2003
0000
,  // measure 45
3020
0000
0032
0000
,  // measure 46
2003
0000
3200
0000
,  // measure 47
2300
0000
3020
0000
,  // measure 48
0230
0000
0302
0000
,  // measure 49
1003
0010
1000
0101
,  // measure 50
0010
0001
1000
0001
,  // measure 51
0010
0100
1000
1010
,  // measure 52
1000
0010
0100
0100
,  // measure 53
0010
1000
0100
0011
,  // measure 54
0001
0100
0001
0010
,  // measure 55
0001
1000
0010
1100
,  // measure 56
0010
0001
0100
0100
,  // measure 57
0001
0002
0000
0000
,  // measure 58
0103
0200
0000
0000
,  // measure 59
0310
0020
0000
0000
,  // measure 60
1030
2000
0000
0000
,  // measure 61
3100
0200
0000
0000
,  // measure 62
0310
0020
0000
0000
,  // measure 63
0031
0002
0000
0000
,  // measure 64
0013
0100
0010
0100
;

//---------------dance-single - ----------------
#NOTES:
     dance-single:
     :
     Medium:
     7:
     :
// measure 0
0000
0000
0000
0000
,  // measure 1
0000
0000
0000
0000
,  // measure 2
0000
0000
0000
0000
,  // measure 3
0000
0000
0000
0000
,  // measure 4
0000
0000
0000
0000
,  // measure 5
2000
0000
0000
0020
0000
0000
0030
0002
,  // measure 6
0000
0000
0003
0200
0000
0000
0000
3300
,  // measure 7
0002
0000
0000
0020
0000
0000
0030
2000
,  // measure 8
0000
0000
3000
0200
0000
0000
0000
0303
,  // measure 9
0010
1000
0100
0000
1000
0000
0000
0000
,  // measure 10
0001
0100
0001
0000
1000
0000
0010
0000
,  // measure 11
0100
0010
0001
0000
0100
0000
0000
0000
,  // measure 12
0010
1000
0010
0000
0100
0000
0010
0000
,  // measure 13
0001
1000
0100
0000
0001
0000
0000
0000
,  // measure 14
0100
1000
0100
0000
1000
0000
0010
0000
,  // measure 15
0001
0100
1000
0000
0010
0000
0000
0000
,  // measure 16
0001
0010
0001
0000
1000
0000
0100
0000
,  // measure 17
0000
0000
0010
0100
1000
0000
0010
0000
,  // measure 18
0100
0001
0100
0020
0000
0000
0030
0000
,  // measure 19
0110
0000
1000
0100
0001
0000
0100
0000
,  // measure 20
0010
1000
0010
0200
0000
0000
0300
0000
,  // measure 21
0110
0000
1000
0010
0001
0000
1000
0000
,  // measure 22
0010
0001
0010
0200
0000
0000
0300
0000
,  // measure 23
0110
0000
0010
1000
0001
0000
1000
0000
,  // measure 24
0100
0010
0001
0020
0000
0000
0031
1000
,  // measure 25
0001
0010
0001
0000
1100
0000
0000
0000
,  // measure 26
0100
0010
0001
0000
0010
0000
0100
1000
,  // measure 27
0010
1000
0010
0000
0101
0000
0000
0000
,  // measure 28
1000
0100
0001
0000
0010
0000
0010
0100
,  // measure 29
0001
0100
0001
0000
1010
0000
0000
0000
,  // measure 30
1000
0010
0100
0000
1000
0000
0010
0001
,  // measure 31
0100
1000
0100
0000
0011
0000
0000
0000
,  // measure 32
0100
0010
0001
0000
1000
0000
0010
0100
,  // measure 33
2000
0000
0000
3010
0100
0000
0010
0000
,  // measure 34
1000
0000
0000
0000
0010
0000
0000
0100
0000
0000
0000
0000
0101
0000
0000
0000
,  // measure 35
0002
0000
0000
1003
0100
0000
0001
0000
,  // measure 36
0100
0000
0000
0000
0010
0000
0000
1000
0000
0000
0000
0000
1100
0000
0000
1200
,  // measure 37
0000
0000
0000
0301
0010
0000
0001
0000
,  // measure 38
1000
0000
0000
0000
0100
0000
0000
0001
0000
0000
0000
0000
0011
0000
0000
0000
,  // measure 39
0020
0000
0000
1030
0001
0000
1000
0000
,  // measure 40
0010
0000
0000
0000
0100
0000
0000
0010
0000
0000
0000
0000
1010
0000
0000
0000
,  // measure 41
0120
0100
0100
0100
,  // measure 42
0100
0100
0100
0130
,  // measure 43
0201
1000
0001
1000
,  // measure 44
0001
1000
0001
1300
,  // measure 45
1002
1000
1000
1000
,  // measure 46
1000
1000
1000
1003
,  // measure 47
2010
0100
0010
0100
,  // measure 48
0010
0100
0010
3100
,  // measure 49
0001
0100
0001
1000
0010
0000
0101
0000
,  // measure 50
1000
0000
0010
0000
1000
0000
0000
0100
0000
0000
0100
0000
0010
0000
0001
0000
,  // measure 51
1000
0010
1000
0001
0100
0000
1010
0000
,  // measure 52
0001
0000
1000
0000
0010
0000
0000
0100
0000
0000
1000
0000
0100
0000
0010
0000
,  // measure 53
0001
0100
0001
0010
1000
0000
0011
0000
,  // measure 54
1000
0000
0100
0000
0001
0000
0000
0100
0000
0000
0010
0000
1000
0000
0100
0000
,  // measure 55
1000
0010
0001
0100
0001
0000
1100
0000
,  // measure 56
0010
0000
0001
0000
0100
0000
0000
0001
0000
0000
0010
0000
0100
0000
1000
0000
,  // measure 57
0000
0000
2002
0000
0000
0000
0000
3003
,  // measure 58
0000
0000
2200
0000
0000
0000
0000
3300
,  // measure 59
0000
0000
0022
0000
0000
0000
0000
0033
,  // measure 60
0000
0000
2002
0000
0000
0000
0000
3003
,  // measure 61
0000
0000
0220
0000
0000
0000
0000
0330
,  // measure 62
0000
0000
2020
0000
0000
0000
0000
3030
,  // measure 63
0000
0000
0202
0000
0000
0000
0000
0303
,  // measure 64
1000
0000
0100
0000
0010
0000
0000
1001
0000
0000
0100
0000
0010
0000
0001
0000
;

//---------------dance-single - ----------------
#NOTES:
     dance-single:
     :
     Hard:
     10:
     :
// measure 0
0000
0000
0000
0000
,  // measure 1
0000
0000
0000
0000
,  // measure 2
0000
0000
0000
0000
,  // measure 3
0000
0000
0000
0000
,  // measure 4
0000
0000
0000
0000
,  // measure 5
1000
0100
1000
0020
0000
0130
0010
0002
,  // measure 6
0000
1003
0010
0200
0000
0010
0310
0000
,  // measure 7
0001
1000
0001
0020
0000
0031
0100
2000
,  // measure 8
0000
3001
0010
0200
0000
1000
1300
0000
,  // measure 9
0010
0000
0001
0000
1000
0000
0010
1000
0000
0000
0000
0000
0101
0000
0000
0000
,  // measure 10
0001
0100
0001
0010
0001
1000
0100
1000
,  // measure 11
0010
0000
0100
0000
1000
0000
0100
0010
0000
0000
0000
0000
0011
0000
0000
0000
,  // measure 12
0001
1000
0010
1000
0100
0010
0001
0100
,  // measure 13
1000
0000
0100
0000
0001
0000
0100
0010
0000
0000
0000
0000
1010
0000
0000
0000
,  // measure 14
0010
1000
0001
0010
0001
1000
0001
0100
,  // measure 15
1000
0000
0010
0000
0001
0000
0010
0100
0000
0000
0000
0000
1100
0000
0000
0000
,  // measure 16
0010
0100
0001
0100
0010
1000
0100
0001
,  // measure 17
0000
0000
0010
0001
0100
1000
0010
0100
,  // measure 18
1000
0001
0010
0200
0000
0020
0000
0330
,  // measure 19
1001
0000
1000
0010
1000
0100
0001
0100
,  // measure 20
1000
0010
0001
0020
0000
0200
0000
0330
,  // measure 21
1001
0000
0001
0010
0010
0100
0100
1000
,  // measure 22
1000
0001
0100
0002
0000
2000
0000
3003
,  // measure 23
0110
0000
0010
1000
0100
1000
0100
0001
,  // measure 24
0010
0001
0010
0200
0000
0000
1300
0010
,  // measure 25
0100
0000
0010
0000
1000
0000
0100
0001
0000
0000
0100
0000
1100
0000
0000
0000
,  // measure 26
1000
0000
0100
0000
0001
0000
1000
0100
0000
0000
1000
0000
0010
0000
0001
0000
,  // measure 27
0100
0000
0010
0000
0010
0000
1000
0100
0000
0000
0001
0000
0101
0000
0000
0000
,  // measure 28
1000
0000
0100
0000
0001
0000
1000
0010
0000
0000
0010
0000
0100
0000
0010
0000
,  // measure 29
0001
0000
1000
0000
0010
0000
0010
0100
0000
0000
1000
0000
1010
0000
0000
0000
,  // measure 30
0100
0000
1000
0000
0010
0000
0001
1000
0000
0000
0100
0000
0010
0000
0100
0000
,  // measure 31
0001
0000
0010
0000
1000
0000
0010
0100
0000
0000
0010
0000
0011
0000
0000
0000
,  // measure 32
0100
0000
0001
0000
1000
0000
0001
0100
0000
0000
0010
0000
1000
0000
0100
0000
,  // measure 33
2000
0000
0000
0000
0000
0000
3001
0010
0001
0000
1000
0000
0010
0000
0100
0000
,  // measure 34
0001
0000
0000
0000
0011
0000
0000
1010
0000
0000
1000
0000
0010
0000
0000
0000
,  // measure 35
0200
0000
0000
0000
0000
0000
0310
1000
0010
0000
1000
0000
0001
0000
0100
0000
,  // measure 36
0001
0000
0000
0000
1100
0000
0000
0110
0000
0000
0000
0000
1001
0000
0000
0011
,  // measure 37
0000
0000
0010
0000
0100
0000
0001
0100
0001
0000
1000
0000
0010
0000
0100
0000
,  // measure 38
0010
0000
0000
0000
1010
0000
0000
1100
0000
0000
0100
0000
0001
0000
0010
0000
,  // measure 39
0001
0000
0000
0000
0010
0000
0100
1000
0100
0000
0001
0000
0100
0000
1000
0000
,  // measure 40
0010
0000
0000
0000
0101
0000
0000
0011
0000
0000
0000
0000
1001
0000
0000
0000
,  // measure 41
0210
0000
0000
0000
0000
0000
0310
2000
0000
0000
0000
0000
0000
0000
3100
0002
,  // measure 42
0000
0000
0000
0000
0000
0000
0103
0020
0000
0000
0000
0000
0000
0000
0030
0000
,  // measure 43
2001
0000
0000
0000
0000
0000
3100
0020
0000
0000
0000
0000
0000
0000
0031
0200
,  // measure 44
0000
0000
0000
0000
0000
0000
0310
0002
0000
0000
0000
0000
0000
0000
0003
0000
,  // measure 45
0120
0000
0000
0000
0000
0000
1030
0002
0000
0000
0000
0000
0000
0000
1003
0200
,  // measure 46
0000
0000
0000
0000
0000
0000
0310
2000
0000
0000
0000
0000
0000
0000
3000
0000
,  // measure 47
1002
0000
0000
0000
0000
0000
1003
0020
0000
0000
0000
0000
0000
0000
0130
2000
,  // measure 48
0000
0000
0000
0000
0000
0000
3001
0200
0000
0000
0000
0000
0010
0000
0310
0000
,  // measure 49
0010
0100
0001
0000
1000
0000
0100
0010
0000
0000
0100
0000
0001
0000
0010
0000
,  // measure 50
0100
0010
0001
0000
1000
0000
0001
0010
0000
0000
0100
0000
0010
0000
1000
0000
,  // measure 51
0100
1000
0010
0000
0100
0000
0001
0010
0000
0000
1000
0000
0100
0000
0010
0000
,  // measure 52
0001
1000
0010
0000
0100
0000
0010
1000
0000
0000
0101
0000
0110
0000
1010
0000
,  // measure 53
1000
0100
0010
0000
0100
0000
0001
0010
0000
0000
0010
0000
0100
0000
0001
0000
,  // measure 54
0010
1000
0100
0000
1000
0000
0001
0010
0000
0000
0010
0000
0100
0000
1000
0000
,  // measure 55
0001
0100
0010
0000
0010
0000
1000
0100
0000
0000
0100
0000
0001
0000
0010
0000
,  // measure 56
0001
0100
1000
0000
0001
0000
0010
1000
0000
0000
1010
0000
1001
0000
0101
0000
,  // measure 57
0000
0000
1000
0100
0010
0001
0200
0000
,  // measure 58
0300
0000
1000
0010
0100
0010
2000
0000
,  // measure 59
3000
0000
0010
0001
1000
0001
0200
0000
,  // measure 60
0300
0000
0001
0010
0100
1100
1010
1001
,  // measure 61
0000
0000
0100
0010
0001
0010
2000
0000
,  // measure 62
3000
0000
0001
0100
1000
0100
0002
0000
,  // measure 63
0003
0000
0001
0100
0001
1000
0200
0000
,  // measure 64
0310
0000
0100
0000
0010
0000
0001
0100
0000
0000
0011
0000
0101
0000
1001
0000
;
