#TITLE:HAVE YOU NEVER BEEN MELLOW;
#SUBTITLE:(MM GROOVIN MIX);
#ARTIST:THE OLIVIA PROJECT;
#TITLETRANSLIT:;
#SUBTITLETRANSLIT:;
#ARTISTTRANSLIT:;
#CREDIT:;
#BANNER:HAVE YOU NEVER BEEN MELLOW (MM GROOVIN MIX).png;
#BACKGROUND:HAVE YOU NEVER BEEN MELLOW (MM GROOVIN MIX)-bg.png;
#JACKET:HAVE YOU NEVER BEEN MELLOW (MM GROOVIN MIX)-jacket.png;
#LYRICSPATH:;
#CDTITLE:;
#MUSIC:HAVE YOU NEVER BEEN MELLOW (MM GROOVIN MIX).ogg;
#OFFSET:0.000;
#SAMPLESTART:55.062;
#SAMPLELENGTH:15.000;
#SELECTABLE:YES;
#DISPLAYBPM:170.000;
#BPMS:0.000=169.990;
#STOPS:;
#BGCHANGES:;

//---------------dance-single - ----------------
#NOTES:
     dance-single:
     :
     Beginner:
     4:
     :
// measure 1
0000
0000
0000
0000
,  // measure 2
0000
0000
0000
0000
,  // measure 3
0000
0000
0000
0000
,  // measure 4
0000
0000
0000
0000
,  // measure 5
0000
0000
0000
0000
,  // measure 6
0000
0000
0000
0000
,  // measure 7
0000
0000
0000
0000
,  // measure 8
0000
0000
0000
0000
,  // measure 9
0000
0000
0000
0000
,  // measure 10
1000
0000
0010
0000
,  // measure 11
0100
0000
0001
0000
,  // measure 12
0100
0000
0010
0000
,  // measure 13
1000
0000
0000
0000
,  // measure 14
0110
0000
0001
0000
,  // measure 15
0100
0000
0001
1000
,  // measure 16
0100
0000
0010
0000
,  // measure 17
0001
0000
0100
0010
,  // measure 18
1000
0000
0000
0001
,  // measure 19
0000
0001
0000
0100
,  // measure 20
0000
0100
0000
0010
,  // measure 21
0000
0010
1000
1000
,  // measure 22
0000
1001
0010
0000
,  // measure 23
0001
0000
0010
0100
,  // measure 24
1000
0000
0010
0000
,  // measure 25
0001
0000
0100
0010
,  // measure 26
0100
0000
0000
1000
,  // measure 27
0000
1000
0000
0100
,  // measure 28
0000
0100
0000
0010
,  // measure 29
0000
0010
0000
0001
,  // measure 30
0001
0000
0010
0000
,  // measure 31
0001
0000
1000
0000
,  // measure 32
0020
0000
0000
0000
,  // measure 33
0000
0000
0000
0030
,  // measure 34
1000
0000
0010
0000
,  // measure 35
0100
0000
0001
0000
,  // measure 36
0200
0000
0000
0000
,  // measure 37
0000
0000
0000
0000
,  // measure 38
0000
0000
0000
0000
,  // measure 39
0020
0000
0000
0330
,  // measure 40
0000
2002
0000
3003
,  // measure 41
0001
1000
0000
0000
,  // measure 42
0000
0220
0330
0010
,  // measure 43
0000
1000
0100
0000
,  // measure 44
0001
0000
0010
0000
,  // measure 45
1000
0000
0100
0000
,  // measure 46
1000
0000
0010
0000
,  // measure 47
0001
0000
1000
0000
,  // measure 48
0000
0220
0000
0330
,  // measure 49
1000
0001
0000
0000
,  // measure 50
0000
2002
3003
0010
,  // measure 51
0000
0010
0100
0000
,  // measure 52
1000
0000
0100
0000
,  // measure 53
0001
0000
0100
0000
,  // measure 54
0010
0000
0100
0000
,  // measure 55
0010
0000
0100
0000
,  // measure 56
0001
0000
0010
0000
,  // measure 57
0100
0000
1000
0000
,  // measure 58
0100
0000
0010
0000
,  // measure 59
0002
0000
0000
0003
,  // measure 60
1000
0000
0010
0000
,  // measure 61
0100
0000
0001
0000
,  // measure 62
0100
0000
0010
0000
,  // measure 63
1000
0000
0001
0000
,  // measure 64
1001
0000
0000
0000
;

//---------------dance-single - ----------------
#NOTES:
     dance-single:
     :
     Easy:
     5:
     :
// measure 1
0000
0000
0000
0000
,  // measure 2
0000
0000
0000
0000
,  // measure 3
0000
0000
0000
0000
,  // measure 4
0000
0000
0000
0000
,  // measure 5
0000
0000
0000
0000
,  // measure 6
0000
0000
0000
0000
,  // measure 7
0000
0000
0000
0000
,  // measure 8
0000
0000
0000
0000
,  // measure 9
0000
0000
0000
0000
,  // measure 10
0010
0100
0010
1000
,  // measure 11
0001
0010
0001
0100
,  // measure 12
1000
0001
1000
0100
,  // measure 13
0010
0010
0010
0010
,  // measure 14
0110
0000
0100
0001
,  // measure 15
1000
0100
0010
0100
,  // measure 16
1000
0000
0001
0001
,  // measure 17
1000
1000
0100
0010
,  // measure 18
0001
0000
0000
0010
,  // measure 19
0000
0100
0000
0001
,  // measure 20
0000
0010
0000
0100
,  // measure 21
0000
1000
0010
0100
,  // measure 22
0000
1001
1000
0100
,  // measure 23
0001
0100
1000
0010
,  // measure 24
0100
0000
0001
0100
,  // measure 25
1000
0100
0001
0010
,  // measure 26
0100
0000
0000
0100
,  // measure 27
0000
0010
0000
1000
,  // measure 28
0000
0100
0000
0010
,  // measure 29
0000
0001
0000
0100
,  // measure 30
0110
0000
0100
0001
,  // measure 31
1000
0100
1000
0001
,  // measure 32
0200
0000
0000
0000
,  // measure 33
0020
0000
0000
0000
,  // measure 34
0330
0000
0010
0001
,  // measure 35
0010
0100
0010
0001
,  // measure 36
2000
0000
0000
0000
,  // measure 37
3020
0000
0000
0000
,  // measure 38
0230
0000
0000
0000
,  // measure 39
0302
0000
0000
0000
,  // measure 40
0003
0102
1000
0013
,  // measure 41
0010
0200
0000
0000
,  // measure 42
0300
0100
0010
0012
,  // measure 43
0000
1000
0010
0103
,  // measure 44
0000
0001
0000
0010
,  // measure 45
0000
0100
0000
1000
,  // measure 46
0000
0010
0000
0100
,  // measure 47
0002
0023
0230
2300
,  // measure 48
3000
2100
0010
3100
,  // measure 49
0010
0002
0000
0000
,  // measure 50
0003
0001
0100
2010
,  // measure 51
0000
0001
0010
3100
,  // measure 52
0000
0010
0000
0100
,  // measure 53
0000
0010
0000
0100
,  // measure 54
0000
0001
0000
1000
,  // measure 55
0000
0001
0000
1000
,  // measure 56
0001
0100
0001
0010
,  // measure 57
1000
0100
1000
0001
,  // measure 58
0010
0100
0010
0001
,  // measure 59
0010
1000
0110
0000
,  // measure 60
1000
0010
1000
0100
,  // measure 61
0001
1000
0001
0100
,  // measure 62
0010
1000
0010
0001
,  // measure 63
0100
0100
0100
0100
,  // measure 64
1001
0000
0000
0000
;

//---------------dance-single - ----------------
#NOTES:
     dance-single:
     :
     Medium:
     8:
     :
// measure 1
0000
0000
0000
0000
,  // measure 2
0000
0000
0000
0000
,  // measure 3
0000
0000
0000
0000
,  // measure 4
0000
0000
0000
0000
,  // measure 5
0000
0000
0000
0000
,  // measure 6
0000
0000
0000
0000
,  // measure 7
0000
0000
0000
0000
,  // measure 8
0000
0000
0000
0000
,  // measure 9
0000
0000
0000
0000
,  // measure 10
0001
0100
0001
0000
1000
0010
1000
0000
,  // measure 11
0100
0001
1000
0000
0010
1000
0100
0000
,  // measure 12
0001
0010
0001
0000
1000
0100
1000
0000
,  // measure 13
0101
1100
0011
1010
,  // measure 14
1001
0000
0000
0000
0100
0000
0010
0001
,  // measure 15
0000
1000
0000
0010
0000
0100
0000
0001
,  // measure 16
0000
0100
0000
0000
0001
0000
0100
0010
,  // measure 17
0000
0100
0000
0000
0010
0000
1000
0100
,  // measure 18
0000
0110
0000
0200
,  // measure 19
0000
0002
0000
0000
0303
0000
2000
0000
,  // measure 20
0000
0020
0000
0000
0000
0000
0000
0000
,  // measure 21
0000
0000
3030
0000
0001
0001
1000
1000
,  // measure 22
0000
0000
0110
0000
0010
0000
1000
0100
,  // measure 23
0000
0010
0000
0100
0000
0001
0000
1000
,  // measure 24
0000
0100
0000
0000
0001
0000
0100
0010
,  // measure 25
0000
0010
0000
0000
0100
0000
0001
1000
,  // measure 26
0000
1001
0000
0002
,  // measure 27
0000
2000
0000
0000
3003
0000
0200
0000
,  // measure 28
0000
0020
0000
0000
0000
0000
0000
0000
,  // measure 29
0000
0000
0000
0330
,  // measure 30
0001
0010
0001
1000
,  // measure 31
0100
0000
1000
0001
0000
0010
0000
0200
,  // measure 32
0000
0000
0000
0000
0300
0010
0001
2000
,  // measure 33
0000
0000
0000
0000
,  // measure 34
0000
3000
0000
0010
1000
0001
0000
0100
,  // measure 35
0000
0001
0000
0010
0000
0100
0000
2000
,  // measure 36
0000
0000
0000
3000
0000
0100
0010
0002
,  // measure 37
0000
0000
0000
0003
0000
0010
0200
0000
,  // measure 38
0020
0000
0000
0330
,  // measure 39
2002
0000
0000
0000
,  // measure 40
3003
0000
0010
0100
0001
0000
0100
0000
,  // measure 41
1010
0011
0001
1000
,  // measure 42
0001
0000
1000
0010
0100
0000
0220
0000
,  // measure 43
0000
0000
0000
0330
,  // measure 44
0100
0001
1000
0010
,  // measure 45
1000
0100
0010
0001
,  // measure 46
0100
0010
1000
0100
,  // measure 47
0010
0001
1000
0010
,  // measure 48
0100
0000
0001
0010
0001
0000
0100
0000
,  // measure 49
1100
0101
0010
0100
,  // measure 50
0010
0000
0001
1000
0100
0000
2002
0000
,  // measure 51
0000
0000
0000
3003
,  // measure 52
0100
0010
1000
0100
,  // measure 53
0001
0010
0100
0010
,  // measure 54
1000
0010
0100
0010
,  // measure 55
0001
0100
0010
0100
,  // measure 56
1000
0100
1000
0000
0001
0010
0001
0000
,  // measure 57
0100
0001
0100
0000
0010
1000
0010
0000
,  // measure 58
1000
0010
0100
0000
0010
1000
0001
0000
,  // measure 59
0010
0000
0100
0000
1000
0001
0000
0100
,  // measure 60
0010
1000
0010
0000
0001
0100
0001
0000
,  // measure 61
0100
1000
0100
0000
0010
0001
0010
0000
,  // measure 62
1000
0001
1000
0000
0100
0010
0100
0000
,  // measure 63
0101
1100
1010
0011
,  // measure 64
1001
0000
0000
0000
;

//---------------dance-single - ----------------
#NOTES:
     dance-single:
     :
     Hard:
     13:
     :
// measure 1
0000
0000
0000
0000
,  // measure 2
0000
0000
0000
0000
,  // measure 3
0000
0000
0000
0000
,  // measure 4
0000
0000
0000
0000
,  // measure 5
0000
0000
0000
0000
,  // measure 6
0000
0000
0000
0000
,  // measure 7
0000
0000
0000
0000
,  // measure 8
0000
0000
0000
0000
,  // measure 9
0000
0000
0000
0000
,  // measure 10
1000
0001
0100
0001
1000
0000
0100
0000
0010
0000
0001
0000
0010
0000
0000
0000
,  // measure 11
0001
0100
0010
1000
0100
0000
1000
0000
0100
0000
0010
0000
0001
0000
0000
0000
,  // measure 12
0010
0001
1000
0001
0100
0000
0010
0000
1000
0000
0100
0000
0010
0000
0001
0000
,  // measure 13
0100
0010
0100
0010
1000
0001
1000
0001
,  // measure 14
1010
0000
1100
0000
0001
1000
0100
1000
,  // measure 15
0001
0010
0001
0100
0001
0010
0100
1000
,  // measure 16
0011
0000
0101
0000
0001
1000
0100
1000
,  // measure 17
0010
0100
0001
0100
0010
1000
0100
0010
,  // measure 18
1001
0110
0000
0022
,  // measure 19
0033
0202
0000
0000
0000
0303
2200
0000
,  // measure 20
3300
2020
0000
0000
0000
0000
0000
0000
,  // measure 21
0000
0000
0000
3030
0010
0001
0100
0010
,  // measure 22
0000
1000
0011
0000
1000
0100
0010
0001
,  // measure 23
0100
0001
1000
0010
1000
0100
1000
0010
,  // measure 24
0100
0001
0100
1000
0100
0001
0010
0100
,  // measure 25
1000
1000
0100
0100
0010
0010
0001
0001
,  // measure 26
0100
0010
1000
0100
0001
0010
2200
0000
,  // measure 27
3300
0202
0000
0000
0000
0303
2020
0000
,  // measure 28
3030
0022
0000
0000
0000
0000
0000
0000
,  // measure 29
0000
0000
0000
0000
0000
0000
0000
0033
,  // measure 30
1000
0100
1000
0010
0001
0010
0100
1000
,  // measure 31
0010
0100
0010
1000
1000
0001
0001
0200
,  // measure 32
0010
0010
0010
0000
0001
0001
0001
0000
,  // measure 33
1000
1000
1000
0000
0010
0010
0310
0000
,  // measure 34
1000
0100
0001
0100
1000
0001
1000
0010
,  // measure 35
0100
1000
0010
0100
0001
0100
0010
2000
,  // measure 36
0010
0010
0010
0000
0001
0001
0001
0000
,  // measure 37
0100
0100
0100
0000
0010
0010
3010
0000
,  // measure 38
0010
0100
1000
0010
0100
0001
1000
0010
,  // measure 39
1000
0100
0010
0001
0100
0010
1000
0001
,  // measure 40
0110
0000
1000
0100
1000
0010
1000
0000
,  // measure 41
0001
0010
0100
0000
1000
0010
0100
0000
,  // measure 42
1001
0000
0001
0010
0001
1000
0200
0000
,  // measure 43
0000
0010
0010
1300
0000
0001
0010
0100
,  // measure 44
1100
0000
0101
0000
1000
0010
0001
0000
,  // measure 45
0001
0010
1000
0000
0001
0100
1000
0000
,  // measure 46
1000
0100
0001
0000
0001
1000
0010
0000
,  // measure 47
0001
0100
0010
1000
0001
0010
0100
1000
,  // measure 48
1001
0000
1000
0100
0010
0001
0100
0000
,  // measure 49
0010
1000
0001
0000
1000
0010
0100
0000
,  // measure 50
0110
0000
1000
0100
0010
0100
2000
0000
,  // measure 51
0000
0100
0010
3001
0000
1000
0100
1000
,  // measure 52
0010
0000
0001
0010
0100
1000
0000
1100
,  // measure 53
0000
0110
0000
0011
0000
0000
1000
0001
,  // measure 54
1000
0010
0001
0010
0100
1000
0100
0010
,  // measure 55
0001
1000
0010
0100
0001
1000
0001
0000
,  // measure 56
0100
0010
0001
0010
0100
0000
1000
0000
0010
0000
0100
0000
0010
0000
0000
0000
,  // measure 57
0010
0100
0001
0100
0010
0000
0001
0000
1000
0000
0100
0000
1000
0000
0000
0000
,  // measure 58
0100
0010
1000
0001
0010
0000
0001
0000
0100
0000
0001
0000
1000
0000
0100
0000
,  // measure 59
1010
0000
0101
0000
1000
0001
0000
0100
,  // measure 60
0010
0100
0001
0100
0010
0000
1000
0000
0010
0000
0010
0000
1000
0000
0000
0000
,  // measure 61
0001
0010
0100
0010
0001
0000
0100
0000
0100
0000
0010
0000
0010
0000
0000
0000
,  // measure 62
1000
0010
1000
0001
0100
0000
0001
0000
0010
0000
0100
0000
1000
0000
0010
0000
,  // measure 63
0100
0001
0100
0010
1000
0010
0100
0010
,  // measure 64
1001
0000
0000
0000
;
