#TITLE:GENTLEMAN;
#SUBTITLE:;
#ARTIST:PSY;
#TITLETRANSLIT:;
#SUBTITLETRANSLIT:;
#ARTISTTRANSLIT:;
#GENRE:;
#CREDIT:;
#BANNER:GENTLEMAN.png;
#BACKGROUND:GENTLEMAN-bg.png;
#LYRICSPATH:;
#CDTITLE:;
#MUSIC:GENTLEMAN.mp3;
#OFFSET:-0.038000;
#SAMPLESTART:53.360001;
#SAMPLELENGTH:22.879000;
#SELECTABLE:YES;
#DISPLAYBPM:126.000000;
#BPMS:0.000000=125.999008;
#STOPS:122.750000=1.900000,
198.750000=1.900000;
#BGCHANGES:-0.500=GENTLEMAN.avi=1.000=1=0=0=StretchNoLoop==CrossFade==,
263.000=GENTLEMAN G-bg.png=1.000=0=0=1=====,
99999=-nosongbg-=1.000=0=0=0 // don't automatically add -songbackground-;
#KEYSOUNDS:;
#ATTACKS:;

//---------------dance-single - ----------------
#NOTES:
     dance-single:
     :
     Beginner:
     2:
     :
// measure 0
0000
0000
0000
0000
,  // measure 1
0000
0000
0000
0000
,  // measure 2
0000
0000
0000
0000
,  // measure 3
0000
0000
0000
1001
,  // measure 4
0001
0000
0100
0000
,  // measure 5
0010
0000
1000
0000
,  // measure 6
0010
0000
0100
0000
,  // measure 7
0120
0000
2000
0000
,  // measure 8
3030
1010
0001
0000
,  // measure 9
1000
0000
0002
0000
,  // measure 10
0003
0011
0001
0000
,  // measure 11
1000
0000
0200
0000
,  // measure 12
0300
1100
0100
0000
,  // measure 13
0010
0000
0002
0000
,  // measure 14
0003
0101
0100
0100
,  // measure 15
0010
0010
1000
0001
,  // measure 16
0110
0000
0010
0000
,  // measure 17
1000
0000
0100
0000
,  // measure 18
1000
0000
0001
0000
,  // measure 19
0100
0000
1000
0000
,  // measure 20
0010
0000
1000
0000
,  // measure 21
0100
0000
0001
0000
,  // measure 22
0100
0000
1000
0000
,  // measure 23
0010
0100
0010
0100
,  // measure 24
0020
0000
0000
0000
,  // measure 25
2030
0000
0000
0000
,  // measure 26
3002
0000
0000
0000
,  // measure 27
0203
0000
0000
0000
,  // measure 28
0302
0000
0000
0000
,  // measure 29
2003
0000
0000
0000
,  // measure 30
3020
0000
0000
0130
,  // measure 31
2002
0000
0000
0000
,  // measure 32
0000
0000
0000
0000
,  // measure 33
0000
0000
0000
0000
,  // measure 34
0000
0000
0000
3003
,  // measure 35
0220
0000
0000
0000
,  // measure 36
0000
0000
0000
0000
,  // measure 37
0000
0000
0000
0000
,  // measure 38
0000
0000
0000
0330
,  // measure 39
0100
0100
0020
0030
,  // measure 40
1000
1000
0002
0003
,  // measure 41
0001
0001
2000
3000
,  // measure 42
0000
0010
0010
0000
,  // measure 43
0100
0010
0200
0300
,  // measure 44
1000
0100
2000
3000
,  // measure 45
0010
0001
0020
0030
,  // measure 46
0000
0100
0100
0001
,  // measure 47
0001
1000
1000
0010
,  // measure 48
0020
0000
0000
0000
,  // measure 49
2030
0000
0000
3001
,  // measure 50
0220
0000
0000
0000
,  // measure 51
0000
0000
0000
0000
,  // measure 52
0000
0000
0000
0000
,  // measure 53
0000
0000
0000
0330
,  // measure 54
2002
0000
0000
0000
,  // measure 55
0000
0000
0000
0000
,  // measure 56
0000
0000
0000
0000
,  // measure 57
0000
0000
0000
3003
,  // measure 58
0010
0000
0001
0000
,  // measure 59
0100
0000
0010
0000
,  // measure 60
1000
0000
0100
0000
,  // measure 61
0002
0000
0000
0003
,  // measure 62
1000
0000
0010
0000
,  // measure 63
0100
0000
0001
0000
,  // measure 64
0010
0000
0100
0000
,  // measure 65
2000
0000
0000
3000
;

//---------------dance-single - ----------------
#NOTES:
     dance-single:
     :
     Easy:
     4:
     :
// measure 0
0000
0000
0000
0000
,  // measure 1
0000
0000
0000
0000
,  // measure 2
0000
0000
0000
0000
,  // measure 3
0000
0000
0000
1010
,  // measure 4
0010
1000
0001
1000
,  // measure 5
0100
0010
0100
0001
,  // measure 6
1000
0100
0010
0001
,  // measure 7
0200
0000
0001
0010
,  // measure 8
1300
0010
0100
1000
,  // measure 9
0001
0100
0002
1000
,  // measure 10
0013
0100
0010
0001
,  // measure 11
1000
0010
2000
0001
,  // measure 12
3010
0100
0001
0100
,  // measure 13
1000
0001
0020
0100
,  // measure 14
0031
0000
1000
0000
0001
0001
0001
0000
,  // measure 15
0100
0010
0001
1010
,  // measure 16
0011
0000
0100
0010
,  // measure 17
0001
0100
1000
0010
,  // measure 18
0101
0000
0100
0010
,  // measure 19
1000
0001
0100
0010
,  // measure 20
1100
0010
0001
1000
,  // measure 21
0100
1000
0001
0010
,  // measure 22
0011
0000
0000
0020
0000
0000
0000
0000
,  // measure 23
0130
1000
0001
0010
,  // measure 24
1100
0100
0100
0100
,  // measure 25
0100
0100
0100
0100
,  // measure 26
0101
0001
0001
0001
,  // measure 27
0001
0001
0001
0001
,  // measure 28
0011
0010
0010
0010
,  // measure 29
1010
1000
1000
1000
,  // measure 30
2010
0010
0010
3001
,  // measure 31
0022
0000
0000
0000
,  // measure 32
0000
0000
0000
0000
,  // measure 33
0000
0000
0000
0000
,  // measure 34
0000
0000
0000
0033
,  // measure 35
2020
0000
0000
0000
,  // measure 36
0000
0000
0000
0000
,  // measure 37
0000
0000
0000
0000
,  // measure 38
0000
0000
0000
3030
,  // measure 39
0100
0001
0020
0031
,  // measure 40
1000
0100
0002
0103
,  // measure 41
0100
0010
2000
3010
,  // measure 42
0001
0100
2002
3003
,  // measure 43
0001
0010
2000
3001
,  // measure 44
0100
1000
0002
0103
,  // measure 45
0100
0001
0020
0130
,  // measure 46
0001
0100
1010
1000
,  // measure 47
1100
0001
0101
0010
,  // measure 48
0012
0010
0010
0010
,  // measure 49
0203
0000
0000
0310
,  // measure 50
0202
0000
0000
0000
,  // measure 51
0000
0000
0000
0000
,  // measure 52
0000
0000
0000
0000
,  // measure 53
0000
0000
0000
0303
,  // measure 54
2200
0000
0000
0000
,  // measure 55
0000
0000
0000
0000
,  // measure 56
0000
0000
0000
0000
,  // measure 57
0000
0000
0000
3300
,  // measure 58
0021
0001
0001
0031
,  // measure 59
1020
1000
1000
1030
,  // measure 60
0021
0001
0001
0031
,  // measure 61
2002
0000
0000
3003
,  // measure 62
1020
1000
1000
1030
,  // measure 63
0021
0001
0001
0031
,  // measure 64
1020
1000
1000
1030
,  // measure 65
0120
1000
0100
0031
;

//---------------dance-single - ----------------
#NOTES:
     dance-single:
     :
     Medium:
     6:
     :
// measure 0
0000
0000
0000
0000
,  // measure 1
0000
0000
0000
0000
,  // measure 2
0000
0000
0000
0000
,  // measure 3
0000
0000
0000
0011
,  // measure 4
0100
0000
1000
0000
0001
1000
0100
0000
,  // measure 5
0010
0000
0001
0100
1000
0100
0001
0000
,  // measure 6
1000
0000
0010
0000
0100
0001
1000
0000
,  // measure 7
2100
0000
0010
3001
,  // measure 8
1000
0000
0011
0000
0100
1000
0001
0000
,  // measure 9
0001
0100
0010
0000
1000
0000
0100
0000
,  // measure 10
0001
0000
1010
0000
0010
1000
0001
0000
,  // measure 11
0100
0010
1000
0000
0001
0000
0010
0000
,  // measure 12
1000
0000
0001
0100
0010
0000
1000
0010
,  // measure 13
0100
1001
0010
0001
,  // measure 14
0100
0000
0010
0000
1000
1000
1000
0000
,  // measure 15
0001
0010
0100
0000
1000
0000
0001
0000
,  // measure 16
0022
0000
0033
0000
0001
0100
1000
0000
,  // measure 17
0100
0010
1000
0000
0001
1000
0100
0000
,  // measure 18
2020
0000
3030
0000
0100
0001
1000
0000
,  // measure 19
0001
0010
0100
0000
1000
0010
0100
0000
,  // measure 20
0202
0303
0010
0000
1000
0000
0001
0000
,  // measure 21
0100
0001
1000
0010
,  // measure 22
2200
3300
0000
1001
0000
0110
0000
0000
,  // measure 23
0100
0001
1000
0001
0010
0000
1001
0000
,  // measure 24
2100
0100
0000
0100
0000
0100
0000
0100
,  // measure 25
0000
0100
0000
0100
0000
0100
0000
3100
,  // measure 26
0101
0102
0000
0100
0000
0100
0000
0100
,  // measure 27
0000
0100
0000
0100
0000
0100
0000
0103
,  // measure 28
2001
0000
0000
0100
0000
0000
3010
0000
,  // measure 29
0120
0000
0000
0001
0000
0000
1030
0000
,  // measure 30
0102
0000
0000
0010
0000
0000
1003
0000
,  // measure 31
2002
0000
0000
3003
,  // measure 32
0200
0320
2030
3002
,  // measure 33
2000
0000
0000
0000
,  // measure 34
0000
0000
0000
3003
,  // measure 35
2002
0000
0000
3003
,  // measure 36
0020
0230
0302
2003
,  // measure 37
0002
0000
0000
0000
,  // measure 38
0000
0000
0000
3003
,  // measure 39
0000
0100
0001
0001
2000
0000
3010
0000
,  // measure 40
0000
0010
0100
0001
0200
0000
0310
0000
,  // measure 41
0000
0001
0010
0100
2000
0000
3010
0000
,  // measure 42
0100
0001
2020
3030
,  // measure 43
0000
1000
0100
0001
0200
0000
0310
0000
,  // measure 44
0000
0001
0010
1000
0200
0000
0310
0000
,  // measure 45
0000
1000
0010
0100
0002
0000
0013
0000
,  // measure 46
1000
0100
0011
0001
,  // measure 47
0101
1000
1100
0010
,  // measure 48
2001
0001
0001
3001
,  // measure 49
0120
0100
0100
1030
,  // measure 50
0202
0000
0000
0303
,  // measure 51
2000
3200
0320
2030
,  // measure 52
0020
0000
0000
0000
,  // measure 53
0000
0000
0000
3030
,  // measure 54
2020
0000
0000
3030
,  // measure 55
0002
0023
0230
0302
,  // measure 56
0200
0000
0000
0000
,  // measure 57
0000
0000
0000
0303
,  // measure 58
0001
0011
0001
0011
,  // measure 59
1000
1010
1000
1010
,  // measure 60
0001
0011
0001
0011
,  // measure 61
2002
0000
0000
3003
,  // measure 62
1000
1010
1000
1010
,  // measure 63
0001
0011
0001
0011
,  // measure 64
1000
1010
1000
1010
,  // measure 65
0120
1000
0100
0031
;

//---------------dance-single - ----------------
#NOTES:
     dance-single:
     :
     Hard:
     9:
     :
// measure 0
0000
0000
0000
0000
,  // measure 1
0000
0000
0000
0000
,  // measure 2
0000
0000
0000
0000
,  // measure 3
0000
0000
0000
1100
,  // measure 4
0010
0000
0001
1000
0010
1000
0100
1000
,  // measure 5
0010
0100
0010
1000
0001
0001
1000
0100
,  // measure 6
0010
0000
0001
1000
0010
0100
0010
0001
,  // measure 7
0010
1000
0001
0100
0001
1000
0010
0100
,  // measure 8
0010
0000
1001
0000
0001
0010
0100
1000
,  // measure 9
0001
0100
0010
0000
0010
0100
0001
1000
,  // measure 10
0100
0000
0110
0000
0001
0100
1000
0100
,  // measure 11
0001
1000
0001
0000
0010
1000
1000
0010
,  // measure 12
0100
0000
1000
0100
0010
0100
1000
0001
,  // measure 13
0010
0100
0010
0000
1000
0100
0001
0100
,  // measure 14
0010
0000
0100
0001
1000
1000
0010
0100
,  // measure 15
0001
1000
0100
0010
0001
0100
1000
0000
,  // measure 16
0010
0100
0000
1000
0010
0100
0010
0001
,  // measure 17
0010
1000
0100
1000
0001
0100
0010
0000
,  // measure 18
1000
0100
0000
0000
0010
0001
0100
0001
,  // measure 19
1000
0001
0010
0100
1000
0001
0100
0000
,  // measure 20
1000
0001
0010
0001
0100
0010
1000
0100
,  // measure 21
0001
0100
1000
0001
0100
0001
0010
0000
,  // measure 22
1000
0001
0000
0011
0000
1010
0000
0000
,  // measure 23
1000
0100
1000
0010
0100
0000
0101
0000
,  // measure 24
0010
2000
0000
3002
0000
0023
0000
0032
,  // measure 25
0000
0203
0000
0320
0000
2030
0000
3002
,  // measure 26
0000
0203
0000
0302
0000
0023
0000
0230
,  // measure 27
0000
2300
0000
3020
0000
0230
0000
0302
,  // measure 28
1003
0000
0000
0100
0000
0000
1000
0000
0000
0000
0100
0000
0010
0000
0100
0000
,  // measure 29
0001
0000
0000
0010
0000
0000
0001
0000
0000
0000
0100
0000
0010
0000
1000
0000
,  // measure 30
0001
0000
0000
0100
0000
0000
0010
0000
0000
0000
2000
0000
3001
0000
0000
0000
,  // measure 31
0220
0000
0000
0330
,  // measure 32
0001
0001
1000
1000
0100
0100
0010
0010
,  // measure 33
0220
0000
0000
0000
,  // measure 34
0000
0000
0000
0330
,  // measure 35
0220
0000
0000
0330
,  // measure 36
1000
1000
0001
0001
0100
0100
0010
0010
,  // measure 37
0220
0000
0000
0000
,  // measure 38
0000
0000
0000
0330
,  // measure 39
0000
0000
0100
0001
0100
0000
0010
0000
2000
0000
0000
0000
3010
0000
0000
0000
,  // measure 40
0000
0000
0100
0010
0100
0000
0001
0000
0020
0000
0000
0000
0031
0000
0000
0000
,  // measure 41
0000
1000
0100
0000
1000
0000
0001
0000
0200
0000
0000
0000
0310
0000
0000
0000
,  // measure 42
0001
0100
2010
0000
0100
0000
3001
0000
,  // measure 43
0000
0000
0001
1000
0100
0000
1000
0000
0002
0000
0000
0000
0013
0000
0000
0000
,  // measure 44
0000
0000
1000
0100
0010
0000
0100
0000
2000
0000
0000
0000
3010
0000
0000
0000
,  // measure 45
0000
0001
0010
0000
0001
0000
1000
0000
0200
0000
0000
0000
0310
0000
0000
0000
,  // measure 46
0001
0010
2100
0000
0100
3000
0012
0000
,  // measure 47
0100
0003
1020
0000
0100
0030
0201
0000
,  // measure 48
0010
0010
0010
0010
,  // measure 49
0301
0010
0100
1000
0010
0200
0301
0000
,  // measure 50
2020
0000
0000
3030
,  // measure 51
1000
1000
0001
0001
0010
0010
0100
0100
,  // measure 52
2200
0000
0000
0000
,  // measure 53
0000
0000
0000
3300
,  // measure 54
0202
0000
0000
0303
,  // measure 55
0001
0001
1000
1000
0100
0100
0010
0010
,  // measure 56
0022
0000
0000
0000
,  // measure 57
0000
0000
0000
0033
,  // measure 58
0001
0010
0001
0010
0001
0010
0011
0000
,  // measure 59
1000
0010
1000
0010
1000
0010
1010
0000
,  // measure 60
0001
0010
0001
0010
0001
0010
0011
0000
,  // measure 61
0100
0010
0100
0010
0100
0010
0110
0000
,  // measure 62
1000
0010
1000
0010
1000
0010
1010
0000
,  // measure 63
0001
0010
0001
0010
0001
0010
0011
0000
,  // measure 64
1000
0010
1000
0010
1000
0010
1010
0000
,  // measure 65
0120
0100
1000
1000
0100
0100
0031
0000
;

//---------------dance-single - ----------------
#NOTES:
     dance-single:
     :
     Challenge:
     13:
     :
// measure 0
0000
0000
0000
0000
,  // measure 1
0000
0000
0000
0000
,  // measure 2
0000
0000
0000
0000
,  // measure 3
0000
0000
0000
1001
,  // measure 4
1100
0000
0000
0000
0011
0000
1000
0100
0010
0000
0100
0000
0001
0000
1000
0000
,  // measure 5
0010
1000
0001
0000
0100
0000
0100
0010
0001
0000
0001
0000
0010
0000
1000
0000
,  // measure 6
0101
0000
0000
0000
1010
0000
0001
1000
0010
0000
0100
0000
0001
0000
0100
0000
,  // measure 7
0010
0000
1000
0100
1000
0000
0001
0010
0001
0000
1000
0000
0001
0000
0100
0000
,  // measure 8
0001
0000
0000
0000
0110
0000
0000
0000
0010
1000
0001
0000
1000
0000
0100
0000
,  // measure 9
0010
0001
1000
0000
0100
0000
0000
0000
1000
0000
0010
0000
0010
0000
0001
0000
,  // measure 10
1000
0000
0000
0000
1001
0000
0000
0000
0010
0001
0100
0000
0010
0000
1000
0000
,  // measure 11
0001
0100
0010
0000
0100
0000
0000
0000
0001
0000
0100
0000
1000
0000
0100
0000
,  // measure 12
0001
0000
0000
0000
1000
0010
0100
0000
0001
0000
0100
0000
0001
0100
1000
0000
,  // measure 13
0010
0100
0001
0000
0010
0100
1000
0100
,  // measure 14
0001
0000
0000
0000
0010
0000
0100
0000
0010
0010
1000
0000
0001
0000
0100
0000
,  // measure 15
0010
0001
0100
0000
0010
0000
1000
0100
0010
0000
0001
0010
1100
0000
0000
0000
,  // measure 16
0100
0000
1000
0000
0000
0000
1000
0001
0010
0000
0001
0000
0100
0000
1000
0000
,  // measure 17
0100
0010
0001
0000
1000
0000
0100
0000
1000
0000
0001
0000
0011
0000
0000
0000
,  // measure 18
0001
0000
0010
0000
0000
0000
1000
0100
0010
0000
0001
0000
0010
0000
0100
0000
,  // measure 19
0010
1000
0010
0000
0010
0000
0001
0000
0100
0000
0010
0000
1010
0000
0000
0000
,  // measure 20
1000
0000
0010
0000
0100
0010
0100
0000
0001
0000
1000
0000
1000
0000
0100
0000
,  // measure 21
0001
1000
0100
0000
1000
0000
0001
0000
0100
0000
0001
0000
0101
0000
0000
0000
,  // measure 22
0001
0100
0000
1001
0000
0110
0000
0000
,  // measure 23
0001
0010
1000
0000
1000
0100
0001
0000
0110
0000
0000
0000
1001
0000
0000
0000
,  // measure 24
0010
0000
0100
0000
1000
0000
0000
0000
0000
0000
0000
1000
0001
0000
0000
0000
0000
0000
0000
0001
0010
0000
0000
0000
0000
0000
0000
0010
0001
0000
0000
0000
,  // measure 25
0000
0000
0000
0001
0100
0000
0000
0000
0000
0000
0000
0100
0010
0000
0000
0000
0000
0000
0000
0010
1000
0000
0000
0000
0000
0000
0000
1000
0001
0000
0000
0000
,  // measure 26
0000
0000
0000
0001
0100
0000
0000
0000
0000
0000
0000
0100
0001
0000
0000
0000
0000
0000
0000
0001
0010
0000
0000
0000
0000
0000
0000
0010
0100
0000
0000
0000
,  // measure 27
0000
0000
0000
0100
1000
0000
0000
0000
0000
0000
0000
1000
0010
0000
0000
0000
0000
0000
0000
0010
0100
0000
0000
0000
0000
0000
0000
0100
0001
0000
0000
0000
,  // measure 28
0010
0001
0000
0000
0000
0000
0001
0100
0000
0000
0000
0000
0100
1000
0000
0000
0000
0000
0000
0000
0010
0000
0000
0000
1000
0000
0000
0000
0001
0000
0000
0000
,  // measure 29
0010
0001
0000
0000
0000
0000
1000
0010
0000
0000
0000
0000
0100
0010
0000
0000
0000
0000
0000
0000
0100
0000
0000
0000
0001
0000
0000
0000
1000
0000
0000
0000
,  // measure 30
0010
0100
0000
0000
0000
0000
0010
0100
0000
0000
0000
0000
0010
0100
0000
0000
0000
0000
0000
0000
0020
0000
0000
0030
1001
0000
0000
0000
0000
0000
0000
0000
,  // measure 31
0101
0000
0000
0000
0100
0000
0001
1000
0010
0000
1000
0000
0001
0000
0100
0000
,  // measure 32
0001
0010
0010
1000
1000
0001
0001
0100
,  // measure 33
1010
0000
0000
0000
0001
0000
0100
0010
1000
0000
0100
0000
0001
0000
0100
0000
,  // measure 34
1000
0000
0001
0100
0010
0000
0010
1000
0001
0000
0010
0000
0110
0000
0000
0000
,  // measure 35
1100
0000
0000
0000
0001
0000
1000
0010
0100
0000
1000
0000
0100
0000
0001
0000
,  // measure 36
0010
1000
0010
1000
0001
0010
0100
0010
,  // measure 37
0011
0000
0000
0000
0100
0000
1000
0010
0001
0000
0010
0000
1000
0000
0010
0000
,  // measure 38
0100
0000
0100
0010
0001
0000
0010
0100
1000
0000
0001
0000
0110
0000
0000
0000
,  // measure 39
1001
0000
0010
0001
1000
0000
0100
0000
1000
0010
0000
0010
0100
0000
0001
0000
,  // measure 40
1000
0000
0001
0010
0100
0000
0010
0000
1000
0100
0000
0100
0001
0000
0010
0000
,  // measure 41
0000
0010
0100
0000
1000
0000
0010
0000
1000
0001
0000
0001
0100
0000
0010
0000
,  // measure 42
0100
0101
0011
1100
,  // measure 43
1010
0000
1000
0001
0010
0000
0010
0000
0100
0010
0000
0001
0010
0000
0100
0000
,  // measure 44
1000
0000
0100
0010
0001
0000
0010
0000
1000
0100
0000
0001
0100
0000
0010
0000
,  // measure 45
0000
0100
0010
0000
0001
0000
0100
0000
0010
0100
0000
0001
1000
0000
0100
0000
,  // measure 46
0001
0000
0000
0000
0100
0010
0100
0000
0101
0000
0000
0000
0010
0100
0010
0000
,  // measure 47
1100
0000
0000
0000
1000
0001
1000
0000
1010
0000
0000
0000
0001
1000
0001
0000
,  // measure 48
0012
1000
0010
1003
,  // measure 49
0001
0000
0010
0000
0001
0000
0100
0000
0010
0000
1000
0000
0100
0000
1000
0000
0010
0000
0100
0000
0002
0000
0000
0003
0110
0000
0000
0000
0000
0000
0000
0000
,  // measure 50
1010
0000
0000
0000
1100
0000
0001
0010
0001
0000
1000
0000
0010
0000
0100
0000
,  // measure 51
1000
0001
1000
0000
0001
1000
0001
0000
0010
0000
0001
0000
0100
0000
1000
0000
,  // measure 52
1001
0000
0000
0000
0110
0000
0100
0001
0010
0000
0001
0000
0100
0000
0010
0000
,  // measure 53
0100
0000
0001
0010
0100
0000
0010
0100
1000
0000
0010
0000
1000
0000
0100
0000
,  // measure 54
0011
0000
0000
0000
0101
0000
0100
0010
1000
0000
0001
0000
1000
0000
0100
0000
,  // measure 55
0010
0100
0010
0000
0100
0010
0100
0000
1000
0000
0010
0000
0001
0000
0100
0000
,  // measure 56
0110
0000
0000
0000
1001
0000
0100
0001
0010
0000
0100
0000
1000
0000
0100
0000
,  // measure 57
0001
0000
1000
0100
0010
0000
0100
0010
0001
0000
0100
0000
0010
0000
1000
0000
,  // measure 58
0001
0010
0001
0000
0010
0000
0001
0010
0001
0000
0010
0000
0001
0000
0010
0000
,  // measure 59
1000
0000
0010
1000
0010
0000
1000
0010
1000
0000
0010
0000
1000
0000
0010
0000
,  // measure 60
0001
0010
0001
0000
0010
0000
0001
0010
0001
0000
0010
0000
0001
0000
0010
0000
,  // measure 61
0100
0010
0100
0010
0100
0010
1001
0000
,  // measure 62
1000
0010
1000
0000
0010
0000
1000
0010
1000
0000
0010
0000
1000
0000
0010
0000
,  // measure 63
0001
0000
0010
0001
0010
0000
0001
0010
0001
0000
0010
0000
0001
0000
0010
0000
,  // measure 64
1000
0010
1000
0000
0010
0000
1000
0010
1000
0000
0010
0000
1000
0010
0000
0000
,  // measure 65
1020
1000
0100
0100
1000
0100
0031
0000
;
