#TITLE:GANGNAM STYLE;
#SUBTITLE:;
#ARTIST:PSY;
#TITLETRANSLIT:;
#SUBTITLETRANSLIT:;
#ARTISTTRANSLIT:;
#GENRE:;
#CREDIT:;
#BANNER:GANGNAM STYLE.png;
#BACKGROUND:GANGNAM STYLE-bg.png;
#LYRICSPATH:;
#CDTITLE:;
#MUSIC:GANGNAM STYLE.mp3;
#OFFSET:-0.025000;
#SAMPLESTART:65.805000;
#SAMPLELENGTH:16.000000;
#SELECTABLE:YES;
#DISPLAYBPM:132.000000;
#BPMS:0.000000=132.000000;
#STOPS:;
#BGCHANGES:;
#KEYSOUNDS:;
#ATTACKS:;

//---------------dance-single - ----------------
#NOTES:
     dance-single:
     :
     Beginner:
     4:
     :
// measure 0
0000
0000
0000
0000
,  // measure 1
0000
0000
0000
0000
,  // measure 2
0000
0000
0000
0000
,  // measure 3
0000
0000
0000
0000
,  // measure 4
1000
0000
0001
0000
,  // measure 5
1000
0000
0001
0010
,  // measure 6
0100
0000
0010
0000
,  // measure 7
0200
0000
0320
0000
,  // measure 8
0031
0100
0010
1000
,  // measure 9
0100
0010
0001
0000
,  // measure 10
0001
1000
0010
1000
,  // measure 11
0100
1000
0001
0000
,  // measure 12
1000
0001
0100
0001
,  // measure 13
0010
0001
0100
0001
,  // measure 14
1000
0010
0100
0001
,  // measure 15
0200
0000
0320
1000
,  // measure 16
1030
0100
0000
0010
,  // measure 17
0001
0100
1000
0100
,  // measure 18
0001
0100
0000
0010
,  // measure 19
1000
0001
0100
0010
,  // measure 20
1000
0100
0000
0001
,  // measure 21
0010
0100
0010
0001
,  // measure 22
0100
0001
0010
0001
,  // measure 23
0200
0000
0320
0000
,  // measure 24
2030
0000
0000
3000
,  // measure 25
0002
0000
0000
0003
,  // measure 26
0020
0000
0000
0030
,  // measure 27
0002
0000
0000
0003
,  // measure 28
0200
0000
0000
0300
,  // measure 29
0020
0000
0000
0030
,  // measure 30
2000
0000
0000
3000
,  // measure 31
0002
0000
0000
0003
,  // measure 32
0010
0100
0010
0100
,  // measure 33
0010
0010
0010
0010
,  // measure 34
0220
0000
0000
0000
,  // measure 35
0000
0330
0000
0000
,  // measure 36
0000
0100
0010
1001
,  // measure 37
0001
1000
0001
0001
,  // measure 38
1000
0001
1000
1000
,  // measure 39
0001
1000
0001
0001
,  // measure 40
1000
0001
1000
1000
,  // measure 41
0001
1000
0001
0001
,  // measure 42
1000
0001
1000
1000
,  // measure 43
0001
1000
0001
0001
,  // measure 44
0200
0000
0320
0000
,  // measure 45
2030
0000
0000
0000
,  // measure 46
3000
0100
0010
0001
,  // measure 47
0100
0000
0100
0010
,  // measure 48
0100
0001
1000
0100
,  // measure 49
0020
0000
0000
0000
,  // measure 50
0030
0100
0010
0001
,  // measure 51
0100
0000
0010
0100
,  // measure 52
0001
0001
1000
1000
,  // measure 53
0200
0310
0010
0010
,  // measure 54
1001
0000
0000
0000
;

//---------------dance-single - ----------------
#NOTES:
     dance-single:
     :
     Easy:
     5:
     :
// measure 0
0000
0000
0000
0000
,  // measure 1
0000
0000
0000
0000
,  // measure 2
0000
0000
0000
0000
,  // measure 3
0000
0000
0000
0000
,  // measure 4
1000
0010
0001
0100
,  // measure 5
0010
0100
1000
0100
,  // measure 6
0001
0010
1000
0100
,  // measure 7
0202
0000
0000
0303
2020
0000
0000
3030
,  // measure 8
0001
0100
0010
0100
,  // measure 9
0002
2003
3002
0003
,  // measure 10
0010
0100
0010
0001
,  // measure 11
2000
3020
0230
0300
,  // measure 12
0001
0100
0010
1000
,  // measure 13
0200
0320
0230
1300
,  // measure 14
0001
1000
0001
0100
,  // measure 15
2200
0000
0000
3300
0022
0000
0000
0033
,  // measure 16
0100
0100
0100
0000
0000
0000
0001
0000
,  // measure 17
0010
0100
0010
0000
1000
0001
1000
0000
,  // measure 18
0010
0010
0010
0000
0000
0000
1000
0000
,  // measure 19
0010
1000
0010
0000
0100
0001
0100
0000
,  // measure 20
1000
1000
1000
0000
0000
0000
0001
0000
,  // measure 21
0010
0100
1000
0000
0100
0010
0001
0000
,  // measure 22
0001
0001
0001
0000
1100
0000
0101
0000
,  // measure 23
2002
0000
0000
3003
0220
0000
0000
0330
,  // measure 24
0010
0010
0010
0010
,  // measure 25
0100
0100
0100
0100
,  // measure 26
1000
1000
1000
1000
,  // measure 27
0001
0001
0001
0001
,  // measure 28
1000
0100
1000
0100
,  // measure 29
0001
0100
0001
0100
,  // measure 30
1000
0010
1000
0010
,  // measure 31
0001
0010
0001
0010
,  // measure 32
0001
1000
0001
1000
,  // measure 33
0010
0100
0010
0100
,  // measure 34
0220
0000
0000
0000
,  // measure 35
0000
0330
0000
0000
,  // measure 36
0000
1000
0001
0110
,  // measure 37
0001
1000
0001
0001
,  // measure 38
1000
0001
1000
1000
,  // measure 39
0001
1000
0001
0001
,  // measure 40
1000
0001
1000
1000
,  // measure 41
0001
1000
0001
0001
,  // measure 42
1000
0001
1000
1000
,  // measure 43
0001
1000
0001
0001
,  // measure 44
2200
0000
0000
3300
0022
0000
0000
0033
,  // measure 45
2001
0010
0100
0010
,  // measure 46
3001
0100
0010
0001
,  // measure 47
0100
0000
0010
0100
,  // measure 48
0001
1000
0100
0010
,  // measure 49
0012
0100
1000
0100
,  // measure 50
0013
1000
0001
0100
,  // measure 51
0001
0000
1000
0001
,  // measure 52
0202
0000
0000
0303
2020
0000
0000
3030
,  // measure 53
0200
0301
0010
0001
,  // measure 54
1001
0000
0000
0000
;

//---------------dance-single - ----------------
#NOTES:
     dance-single:
     :
     Medium:
     7:
     :
// measure 0
0000
0000
0000
0000
,  // measure 1
0000
0000
0000
0000
,  // measure 2
0000
0000
0000
0000
,  // measure 3
0000
0000
0000
0000
,  // measure 4
0100
0000
0000
0001
0000
0000
1000
0000
0000
0000
1000
0000
0100
0000
0010
0000
,  // measure 5
0001
0000
0000
0010
0000
0000
0100
0000
0000
0000
1000
0000
0001
0000
1000
0000
,  // measure 6
0100
0000
0000
0010
0000
0000
1000
0000
0000
0000
0001
0000
1000
0000
0001
0000
,  // measure 7
0200
0000
0000
0310
0020
0000
0000
0130
,  // measure 8
0100
0000
1000
1000
0000
0001
0001
0000
,  // measure 9
0010
0001
1000
0001
0010
0010
0000
0000
,  // measure 10
0100
1000
0100
0001
,  // measure 11
0010
0001
1000
0001
0100
0001
0000
0010
,  // measure 12
0000
0100
0000
1000
0000
0010
0000
0100
,  // measure 13
0001
0010
0001
1000
0100
1000
0001
0000
,  // measure 14
0101
1100
1010
0011
,  // measure 15
2000
0000
0000
3100
0020
0000
0000
0031
,  // measure 16
1000
0000
0101
0000
0000
0100
0001
0000
,  // measure 17
1000
0010
1000
0000
0001
1000
0100
0000
,  // measure 18
0010
0000
1100
0000
0000
1000
0100
0000
,  // measure 19
0010
0001
0100
0000
0010
1000
0100
0000
,  // measure 20
0001
0000
1010
0000
0000
0010
1000
0000
,  // measure 21
0100
1000
0001
0000
0100
0001
0010
0000
,  // measure 22
0100
0000
0011
0000
0001
0010
0001
1000
,  // measure 23
0200
0000
0000
1300
0002
0000
0000
0013
,  // measure 24
0200
0000
0000
0301
0000
0100
0010
1000
,  // measure 25
0020
0000
0000
0130
0000
0000
0001
1000
,  // measure 26
0010
0000
0000
0110
0000
0001
0100
0001
,  // measure 27
1000
0000
0000
1001
0000
0000
0100
0010
,  // measure 28
0002
0000
0000
1003
0000
0100
1000
0001
,  // measure 29
0020
0000
0000
0031
0000
0000
0100
0010
,  // measure 30
1000
0000
0000
0110
0000
0001
1000
0001
,  // measure 31
0100
0000
0000
1001
0000
0000
0100
1000
,  // measure 32
0001
0010
0100
1000
,  // measure 33
0001
1000
0001
1000
,  // measure 34
0010
1000
0010
1000
0010
1000
0010
1000
,  // measure 35
0220
0330
0000
0000
,  // measure 36
0000
0000
0100
0010
1000
0001
1001
0000
,  // measure 37
0001
1000
0001
0001
,  // measure 38
1000
0001
1000
1000
,  // measure 39
0001
1000
0001
0001
,  // measure 40
1000
0001
1000
1000
,  // measure 41
0001
1000
0001
0001
,  // measure 42
1000
0001
1000
1000
,  // measure 43
0001
1000
0001
0001
,  // measure 44
0020
0000
0000
0031
0200
0000
0000
0310
,  // measure 45
2001
0001
0001
0001
,  // measure 46
3002
0000
0100
0100
0103
0000
0101
0000
,  // measure 47
1200
0000
0000
0010
0000
0010
0000
0310
,  // measure 48
0000
0000
0001
0100
0010
1000
0010
0000
,  // measure 49
1002
1000
1000
1000
,  // measure 50
2003
0000
0010
0010
3010
0000
1010
0000
,  // measure 51
0012
0000
0000
1000
0000
1000
0000
1003
,  // measure 52
0200
0000
0000
0310
0020
0000
0000
0130
,  // measure 53
0200
0000
0301
0010
0001
0100
0010
0000
,  // measure 54
0110
0000
0000
0000
;

//---------------dance-single - ----------------
#NOTES:
     dance-single:
     :
     Hard:
     11:
     :
// measure 0
0000
0000
0000
0000
,  // measure 1
0000
0000
0000
0000
,  // measure 2
0000
0000
0000
0000
,  // measure 3
0000
0000
0000
0000
,  // measure 4
0001
0000
0000
0100
0000
0000
0001
0000
0000
0000
0100
0000
0010
0000
1000
0000
,  // measure 5
0010
0000
0000
0100
0000
0000
0001
0000
0100
0000
1000
0000
0100
0000
0000
0000
,  // measure 6
0010
0000
0000
1000
0000
0000
0001
0000
0000
0000
0100
0000
0010
0000
0001
0000
,  // measure 7
2100
0000
0000
0010
0000
0000
3001
0000
0012
0000
0000
0100
0000
0000
1003
0000
,  // measure 8
0010
1000
0001
0010
0000
1000
0100
0010
,  // measure 9
0001
1000
0010
1000
0100
0001
0000
0010
,  // measure 10
0100
0010
1000
0001
0100
1000
0100
0001
,  // measure 11
0010
0100
1000
0010
0100
0010
0000
0100
,  // measure 12
0010
0100
0000
0001
1000
0001
1000
0100
,  // measure 13
0001
0100
1000
0001
0100
0001
0010
0001
,  // measure 14
1001
0000
0110
0000
0001
0010
0100
1000
,  // measure 15
2010
0000
0000
0100
0000
0000
3001
0000
0201
0000
0000
0010
0000
0000
0301
0000
,  // measure 16
0010
0001
0010
0000
0000
0100
0010
0100
,  // measure 17
0001
0010
1000
0010
0100
0010
1000
0001
,  // measure 18
0010
0100
0010
0000
0000
1000
0100
0001
,  // measure 19
0100
0010
1000
0001
0100
0001
0010
0100
,  // measure 20
1000
0100
0010
0000
0000
0010
0001
0100
,  // measure 21
0001
1000
0100
0010
0100
1000
0001
0010
,  // measure 22
0100
0010
0001
0000
1000
0010
0100
0010
,  // measure 23
0110
0000
0000
1000
0000
0000
0010
0000
1001
0000
0000
0001
0000
0000
0010
0000
,  // measure 24
0100
0000
0000
1000
0000
0000
0001
0000
0000
1000
0000
0000
0200
0000
0000
0000
,  // measure 25
0301
0000
0000
0100
0000
0000
0010
0000
0000
0001
0000
0000
1000
0000
0001
0000
,  // measure 26
0100
0000
0000
1000
0000
0000
0001
0000
0000
0010
0000
0000
0200
0000
0000
0000
,  // measure 27
0310
0000
0000
0001
0000
0000
1000
0000
0100
0000
0001
0000
0010
0000
0001
0000
,  // measure 28
1000
0000
0000
0100
0000
0000
0001
0000
0000
1000
0000
0000
0200
0000
0000
0000
,  // measure 29
0301
0000
0000
0100
0000
0000
0010
0000
0000
0100
0000
0000
0010
0000
1000
0000
,  // measure 30
0010
0000
0100
0110
0000
0001
0010
0001
,  // measure 31
1000
0000
0001
1001
0000
0000
1000
0010
,  // measure 32
0100
0010
1000
0100
0001
0100
1000
0001
,  // measure 33
0011
0101
1010
1100
,  // measure 34
1000
0100
1000
0010
0100
0001
0010
0001
0010
0001
0100
0001
1000
0010
1000
0100
,  // measure 35
0220
0330
0000
0000
,  // measure 36
0000
0000
0100
0001
1000
0010
0110
0000
,  // measure 37
0001
1000
0001
0001
,  // measure 38
1000
0001
1000
1000
,  // measure 39
0001
1000
0001
0001
,  // measure 40
1000
0001
1000
1000
,  // measure 41
0001
1000
0001
0001
,  // measure 42
1000
0001
1000
1000
,  // measure 43
0001
1000
0001
0001
,  // measure 44
1100
0000
0000
0100
0000
0000
0100
0000
0011
0000
0000
0010
0000
0000
0010
0000
,  // measure 45
1000
0001
0000
0000
1000
0001
0000
0000
1000
0001
0000
0000
1000
0001
0000
0000
,  // measure 46
1000
0002
0000
0000
1000
0000
0100
0000
0013
0000
0000
0000
1100
0000
0000
0000
,  // measure 47
0110
0000
0000
0101
0000
1001
0000
1010
,  // measure 48
0000
0000
0100
0001
1000
0001
0100
0000
,  // measure 49
0001
1000
0000
0000
0001
1000
0000
0000
0001
1000
0000
0000
0001
1000
0000
0000
,  // measure 50
0001
2000
0000
0000
0100
0000
0010
0000
3001
0000
0000
0000
0101
0000
0000
0000
,  // measure 51
1010
0000
0000
1100
0000
0110
0000
0011
,  // measure 52
1001
0000
0000
1000
0000
0000
0100
0000
0110
0000
0000
0010
0000
0000
0001
0000
,  // measure 53
0200
0000
0310
1000
0001
1000
0100
0000
,  // measure 54
0110
0000
0000
0000
;

//---------------dance-single - ----------------
#NOTES:
     dance-single:
     :
     Challenge:
     13:
     :
// measure 0
0000
0000
0000
0000
,  // measure 1
0000
0000
0000
0000
,  // measure 2
0000
0000
0000
0000
,  // measure 3
0000
0000
0000
0000
,  // measure 4
0100
0000
0010
0001
0000
0000
1100
0000
0000
0000
0001
0100
0001
1000
0010
0000
,  // measure 5
1000
0000
1000
0001
0000
0000
0010
0100
0001
0000
1000
0001
0100
0000
1000
0000
,  // measure 6
0010
0000
1000
0001
0000
0000
0011
0000
0000
0000
0010
0100
1000
0100
0010
0000
,  // measure 7
0001
0100
0000
0001
0000
0000
0010
0001
1000
0100
0000
0010
0000
0000
0100
0001
,  // measure 8
1000
0001
0100
0000
0010
0000
1000
0000
0000
0000
0100
0010
0001
0000
1000
0100
,  // measure 9
0010
0000
0010
0100
1000
0000
0001
0000
1000
0000
0100
0000
0000
0000
1000
0000
,  // measure 10
0001
0010
0100
0000
0010
0000
0100
0000
1000
0001
0100
0000
1000
0000
0010
0000
,  // measure 11
1000
0100
0001
0000
0100
0010
1000
0000
0001
0000
0100
0000
0000
0000
0010
0001
,  // measure 12
1000
0000
0001
0000
0000
0000
0010
0001
0100
0000
0010
1000
0100
0000
0001
0100
,  // measure 13
0010
0000
1000
0000
0010
0000
0100
0000
0001
0000
0010
0100
0010
0000
1000
0000
,  // measure 14
1000
0100
0000
0000
0001
0100
0000
0000
0010
0001
1000
0000
0010
0000
0100
0000
,  // measure 15
0010
1000
0000
0001
0000
0000
0010
0001
0100
0001
0000
0010
1000
0000
0010
0000
,  // measure 16
0100
0000
0010
0000
2020
0000
0000
0000
3030
0000
1000
0100
0001
0000
0001
0100
,  // measure 17
0010
0000
0010
1000
0100
0000
0100
0010
0001
0000
1000
0001
0100
0000
0010
0000
,  // measure 18
1000
0000
0001
0000
0022
0000
0000
0000
0033
0000
0100
0010
0001
0000
0100
1000
,  // measure 19
0001
0000
1000
0010
0100
0000
0010
0100
0001
0000
0010
0100
1000
0000
0001
0000
,  // measure 20
0100
0000
0001
0000
2200
0000
0000
0000
3300
0000
1000
0100
0010
0000
0001
0010
,  // measure 21
0001
0000
0100
0010
0001
0000
1000
0100
1000
0000
0100
0010
0001
0000
1000
0000
,  // measure 22
0001
0000
1000
0000
0101
0000
0000
0000
0100
0010
1000
0000
0001
0000
1000
0000
,  // measure 23
0001
0010
0000
0100
0000
0000
1000
0010
0100
0010
0000
0001
0000
0000
0100
0010
,  // measure 24
1000
0100
0000
1000
0100
0000
0010
0001
0000
0010
0001
0000
0200
0000
0000
0000
,  // measure 25
0310
1000
0000
1000
0010
0000
0001
1000
0000
1000
0001
0000
0100
0000
0010
0000
,  // measure 26
1000
1000
0000
0100
0100
0000
0010
0010
0000
0001
0001
0000
0200
0000
0000
0000
,  // measure 27
0301
1000
0000
0100
0010
0000
0010
0000
0001
0000
0001
0000
1000
0000
1000
0000
,  // measure 28
0100
0010
0000
0010
0001
0000
0100
0001
0000
0001
1000
0000
0200
0000
0000
0000
,  // measure 29
0301
1000
0000
0001
0100
0000
0001
0010
0000
1000
0010
0000
0100
0010
0100
0000
,  // measure 30
0010
0000
1000
0000
0100
0000
0011
0000
0000
0000
0010
0100
1000
0000
0010
0001
,  // measure 31
0100
0001
1000
1010
0001
0010
0100
1000
,  // measure 32
0001
1000
0100
0001
0010
0001
0100
0010
,  // measure 33
1000
0010
0001
0010
1000
0100
0001
0100
,  // measure 34
0010
0001
0100
0010
1000
0100
1000
0001
1000
0100
0010
0001
0100
0010
1000
0100
,  // measure 35
0220
0330
0000
0000
,  // measure 36
0000
0000
0000
0000
0001
1000
0010
0000
0100
0001
1000
0000
0110
0000
0000
0000
,  // measure 37
0010
0000
0000
0100
0100
0000
0100
0000
0010
0000
0010
0000
0010
0000
0010
0000
,  // measure 38
0100
0000
0000
0010
0010
0000
0010
0000
0100
0000
0100
0000
0100
0000
0100
0000
,  // measure 39
0010
0000
0000
0100
0100
0000
0100
0000
0010
0000
0010
0000
0010
0000
0010
0000
,  // measure 40
0100
0000
0000
0010
0010
0000
0010
0000
0100
0000
0100
0000
0100
0000
0100
0000
,  // measure 41
0010
0000
0000
0100
0100
0000
0100
0000
0010
0000
0010
0000
0010
0000
0010
0000
,  // measure 42
0100
0000
0000
0010
0010
0000
0010
0000
0100
0000
0100
0000
0100
0000
0100
0000
,  // measure 43
0010
0000
0000
0100
0100
0000
0100
0000
0010
0000
0010
0000
0010
0000
0010
0000
,  // measure 44
0100
0001
0000
0100
0001
0000
1000
0000
0010
1000
0000
0010
1000
0000
0001
0000
,  // measure 45
0100
0010
0100
0000
0010
0100
0010
0000
0100
0010
0100
0000
0010
0100
0010
0000
,  // measure 46
0100
0010
0100
0000
0010
0000
0001
0000
0010
0000
0000
0000
0110
0000
0000
0000
,  // measure 47
1100
0000
0000
1010
0000
1001
0000
0101
,  // measure 48
0000
0000
0000
0000
0001
1000
0010
0000
0100
1000
0010
0000
1000
0000
0001
0000
,  // measure 49
0010
0100
0010
0000
0100
0010
0100
0000
0010
0100
0010
0000
0100
0010
0100
0000
,  // measure 50
0010
0100
0010
0000
0001
0000
1000
0000
0010
0000
0000
0000
1001
0000
0000
0000
,  // measure 51
0101
0000
0000
1100
0000
0110
0000
0011
,  // measure 52
1000
0100
0000
0100
0010
0000
0001
0000
0001
0010
0000
0010
0100
0000
1000
0000
,  // measure 53
0200
0000
0000
0000
0301
0010
0100
0000
1000
0100
0010
0000
0100
0000
0010
0000
,  // measure 54
1001
0000
0000
0000
;
