#TITLE:Firework;
#SUBTITLE:;
#ARTIST:Katy Perry;
#TITLETRANSLIT:;
#SUBTITLETRANSLIT:;
#ARTISTTRANSLIT:;
#GENRE:;
#CREDIT:;
#BANNER:Firework.png;
#BACKGROUND:Firework-bg.png;
#LYRICSPATH:;
#CDTITLE:;
#MUSIC:Firework.mp3;
#OFFSET:-0.011000;
#SAMPLESTART:68.680000;
#SAMPLELENGTH:16.420000;
#SELECTABLE:YES;
#DISPLAYBPM:62.000000:124.000000;
#BPMS:0.000000=124.035004
,208.000000=62.017502
,224.000000=124.035004;
#STOPS:;
#BGCHANGES:;
#KEYSOUNDS:;
#ATTACKS:;

//---------------dance-single - ----------------
#NOTES:
     dance-single:
     :
     Beginner:
     3:
     :
// measure 0
0000
0000
0000
0000
,  // measure 1
0000
0000
0000
0000
,  // measure 2
0000
0000
0000
0000
,  // measure 3
0000
0000
0000
0000
,  // measure 4
0001
0000
0000
0000
,  // measure 5
0100
0000
0000
0000
,  // measure 6
0010
0000
0000
0000
,  // measure 7
1000
0000
0000
0000
,  // measure 8
0001
0000
0000
0000
,  // measure 9
0010
0000
0000
0000
,  // measure 10
0100
0000
0000
0000
,  // measure 11
1000
0000
0000
0000
,  // measure 12
0010
0000
0000
0000
,  // measure 13
0100
0000
0000
0000
,  // measure 14
0001
0000
0000
0000
,  // measure 15
1000
0000
0000
0000
,  // measure 16
0100
0000
0000
0000
,  // measure 17
0010
0000
0000
0000
,  // measure 18
0001
0000
0000
0000
,  // measure 19
1000
0000
0000
0000
,  // measure 20
0100
0000
0001
0000
,  // measure 21
1000
0000
0010
0000
,  // measure 22
1000
0000
0001
0000
,  // measure 23
1000
0000
0001
0000
,  // measure 24
0100
0000
0010
0000
,  // measure 25
0100
0000
0010
0000
,  // measure 26
0001
0000
0010
0000
,  // measure 27
0100
0000
1000
0001
,  // measure 28
2000
0000
0000
0000
,  // measure 29
3001
0000
0010
0001
,  // measure 30
0200
0000
0000
0000
,  // measure 31
0310
0000
0001
1000
,  // measure 32
2002
0000
0000
0000
,  // measure 33
3003
0100
0010
0100
,  // measure 34
0220
0000
0000
0000
,  // measure 35
0330
0000
0100
1000
,  // measure 36
0020
0000
0000
0000
,  // measure 37
1030
0000
0100
0010
,  // measure 38
0002
0000
0000
0000
,  // measure 39
0103
0000
0100
0010
,  // measure 40
0220
0000
0000
0000
,  // measure 41
0330
0020
1000
0130
,  // measure 42
2002
0000
0000
0003
,  // measure 43
0010
0010
0010
3010
,  // measure 44
0202
0000
0000
0000
,  // measure 45
0003
0001
0001
0301
,  // measure 46
2020
0000
0000
0000
,  // measure 47
3000
1000
1000
1030
,  // measure 48
2200
0000
0000
0000
,  // measure 49
0300
0100
0100
3100
,  // measure 50
0022
0000
0000
0000
,  // measure 51
0000
0030
0010
0013
,  // measure 52
2000
0000
0100
3010
,  // measure 53
0002
0000
0010
0103
,  // measure 54
2000
0000
0100
3010
,  // measure 55
0002
0000
0010
0103
,  // measure 56
0200
0000
0000
0000
,  // measure 57
0310
0000
0010
1000
,  // measure 58
0002
0000
0000
0000
,  // measure 59
0103
0000
0001
1000
,  // measure 60
0220
0000
0000
0000
,  // measure 61
0330
0020
0001
0130
,  // measure 62
2002
0000
0000
3000
,  // measure 63
0020
0000
0000
0033
,  // measure 64
0202
0000
0000
0000
,  // measure 65
0303
0010
0100
1000
,  // measure 66
2200
0000
0000
0000
,  // measure 67
0000
0000
0000
3300
,  // measure 68
2020
0000
0000
0000
,  // measure 69
3030
0010
1000
0001
,  // measure 70
0022
0000
0000
0000
,  // measure 71
0000
0000
0000
0000
,  // measure 72
0033
0000
0000
0000
;

//---------------dance-single - ----------------
#NOTES:
     dance-single:
     :
     Easy:
     4:
     :
0000
0000
0000
0000
,
0000
0000
0000
0000
,
0000
0000
0000
0000
,
0000
0000
0000
0000
,
0000
1000
0010
1000
,
0000
0001
0010
0001
,
0000
0100
1000
0100
,
0000
0010
0001
0010
,
0000
0001
0010
0100
,
0000
1000
0100
0010
,
0000
0100
1000
0001
,
0000
0100
0001
1000
,
0000
0010
1000
0100
,
0000
0001
0010
1000
,
0000
0001
0100
0010
,
1000
0100
0010
0001
,
0000
0100
1000
0010
,
0000
0000
1000
0001
,
0000
0001
0010
0100
,
0000
0100
0010
0001
,
2000
3002
0203
0302
,
0023
0032
2003
3002
,
0203
2300
3020
0230
,
0302
2003
3200
2300
,
3020
2030
3002
2003
,
3020
0230
0302
0023
,
0230
2300
3002
0203
,
0320
0230
0301
1000
,
0120
0100
0100
0100
,
1030
0000
1000
0010
,
0201
0001
0001
0001
,
0310
0000
0010
1000
,
2200
0000
0000
0000
,
3300
1000
0010
0100
,
0220
0000
0000
0330
,
0001
0100
0010
1000
,
2001
0001
0001
0001
,
3010
0000
0010
0001
,
1200
1000
1000
1000
,
0310
0000
0010
0100
,
0022
0000
0000
0000
,
0033
0100
0010
1000
,
2002
0000
0000
3003
,
0020
0230
0320
0230
,
0301
0000
0000
0101
0000
0000
0100
0000
,
0110
0010
1000
0001
,
1000
0000
0000
1100
0000
0000
0100
0000
,
0110
0010
0001
0100
,
0010
0000
0000
1010
0000
0000
1000
0000
,
1001
0001
0010
0100
,
0010
0000
0000
0011
0000
0000
0001
0000
,
1001
0000
0010
0100
,
0020
0030
2000
3000
0002
0003
2000
3000
,
0020
0030
0200
0300
0002
0003
2000
3000
,
0200
0300
2000
3000
0002
0003
0200
0300
,
0020
0030
2000
3000
0002
0003
1000
0100
,
0012
1000
0100
1000
,
0013
1000
0001
1000
,
2100
0010
0001
0010
,
3100
0001
0001
0100
,
2002
0000
0000
0000
,
3003
0100
0010
0100
,
0220
0000
0000
0330
,
0002
2003
3002
2003
,
3001
0000
0000
1001
0000
0000
1000
0000
,
1000
0000
0100
1000
0010
0000
0001
0000
,
0010
0000
0000
0110
0000
0000
0100
0000
,
0100
0001
1000
1001
,
1000
0000
0000
0110
0000
0000
0001
0000
,
0001
0000
0010
0001
0100
0000
1000
0000
,
0010
0000
0000
1001
0000
0000
0100
0000
,
0020
0230
0302
2003
,
3000
0000
0000
0000
;

//---------------dance-single - ----------------
#NOTES:
     dance-single:
     :
     Medium:
     8:
     :
0000
0000
0000
0000
,
0000
0000
0000
0000
,
0000
0000
0000
0000
,
0000
0000
0000
0000
,
0010
0000
0001
0010
0001
0000
0101
0000
,
0001
0000
1000
0100
1000
0000
1100
0000
,
0100
0000
0010
0001
0010
0000
0011
0000
,
1000
0000
0010
1000
0010
0000
1010
0000
,
1000
0000
0010
0100
0001
0000
1001
0000
,
0100
0000
1000
0010
0100
0000
0110
0000
,
0010
0000
0001
0100
0010
0000
1001
0000
,
1000
0000
0001
0010
0100
0000
0110
0000
,
0001
1000
0001
0010
0100
0000
1010
0000
,
0001
0010
1000
0010
0001
0000
0011
0000
,
0010
0100
1000
0001
0100
0000
0101
0000
,
0010
0001
0100
0010
1000
0000
1100
0000
,
0100
0000
1000
0001
0010
0000
1001
0000
,
0001
0000
1000
0001
0010
0000
0110
0000
,
0010
0000
0100
0001
1000
0000
1001
0000
,
0110
0000
0100
0010
0100
0010
0100
0000
,
0101
1100
0101
1100
,
0011
0101
0011
0101
,
1010
1100
1010
1100
,
0011
1010
0011
1010
,
0100
1000
0001
0000
0001
0100
0010
0000
,
0010
0100
1000
0000
1000
0001
0100
0000
,
0100
0010
0001
0000
0001
0010
1000
0000
,
1000
0100
0010
0000
0001
0010
0100
1000
,
0100
0000
1000
0000
0001
0000
0100
0220
,
0000
0000
0000
0330
0010
0001
1000
0000
,
0001
0000
0100
0000
0001
0000
1000
2002
,
0000
0000
0000
3003
0010
0100
0001
0000
,
1010
0000
0000
0011
0000
0000
1001
0000
,
1000
0000
0100
0010
0001
0000
0010
0000
,
1100
0000
0000
0101
0000
0000
0110
0000
,
0020
2030
3002
0203
,
0301
0000
0100
0000
0100
0000
0010
2002
,
0000
0000
0000
3003
0001
0010
0001
0000
,
1000
0000
0010
0000
0001
0000
0010
0220
,
0000
0000
0000
0330
1000
0100
1000
0000
,
1100
0000
0000
0011
0000
0000
0110
0000
,
1000
0010
0001
0010
1000
0000
0010
0000
,
1010
0000
0000
0101
0000
0000
1001
0000
,
2000
3002
0203
0320
,
2030
0000
0000
3002
0000
0000
0203
0000
,
0000
0000
0301
1000
0010
0000
0100
1000
,
0002
0000
0000
2003
0000
0000
3200
0000
,
0000
0000
1300
0001
0010
0000
0100
0001
,
0020
0000
0000
0032
0000
0000
2003
0000
,
0000
0000
3100
0001
0010
0000
0100
1000
,
0020
0000
0000
2030
0000
0000
3002
0000
,
0000
0000
0003
0000
0010
0010
0100
0100
,
1000
0100
1000
0100
0010
0100
0010
0100
,
0001
0010
0001
0010
0001
1000
0001
1000
,
0010
1000
0010
1000
0010
0100
0010
0100
,
1000
0100
1000
0100
0001
0100
0001
0100
,
0001
0000
1000
0000
0010
0000
0100
0220
,
0000
0000
0000
0330
0001
0010
0100
0000
,
0001
0000
1000
0000
0010
0000
0100
2002
,
0000
0000
0000
3003
1000
0100
0010
0000
,
1010
0000
0000
1001
0000
0000
0101
0000
,
0000
0100
0010
0100
0001
0100
1000
0100
,
0011
0000
0000
0110
0000
0000
1100
0000
,
0010
0001
0100
0000
0010
1000
0100
0000
,
0020
0000
0000
0002
0000
0033
1100
0000
,
0100
0000
0100
1000
0010
0000
0001
1000
,
0020
0000
0000
0200
0000
0330
0110
0000
,
0100
0001
1000
0000
0001
1000
0010
0000
,
0020
0000
0000
2000
0000
3030
0101
0000
,
0001
0000
1000
0100
0010
0000
0100
0010
,
0002
0000
0000
2000
0000
3003
1001
0000
,
0001
0010
0100
1000
0001
0010
0100
1000
;

//---------------dance-single - ----------------
#NOTES:
     dance-single:
     :
     Hard:
     12:
     :
0000
0000
0000
0000
,
0000
0000
0000
0000
,
0000
0000
0000
0000
,
0000
0000
0000
0000
,
0011
0000
0010
0001
0100
0001
1000
0000
,
1100
0000
1000
0001
0100
0100
0001
0000
,
1010
0000
1000
0010
1000
0100
0010
0000
,
0101
0000
0001
1000
0001
0100
0010
0000
,
0101
0000
0100
0010
1000
0001
0100
0000
,
0011
0000
1000
0100
0010
0010
0100
0000
,
1010
1000
0010
1000
0001
0100
1000
0000
,
1100
0000
0010
0001
1000
0001
0010
0000
,
1100
0100
1000
0100
0010
0001
0010
0000
,
0101
0000
0001
0001
1000
1000
0100
0000
,
1010
0010
1000
0100
0010
0100
0001
0100
,
0011
0100
1000
0001
0100
0001
1000
0000
,
0110
0000
0001
0010
0100
1000
0100
0000
,
1001
0011
0000
1000
0010
0100
0001
0000
,
1001
0010
0001
1000
0010
1000
0001
0000
,
0110
0000
1000
0100
0010
0100
1000
0010
,
0100
0001
1000
0010
1000
0100
0010
0001
,
0001
0010
0100
0010
0001
1000
0100
1000
,
0010
0100
0001
0100
1000
0100
0001
0010
,
0001
0100
1000
0100
0001
0100
1000
0100
,
0001
0100
0010
1000
0010
0100
0001
0010
,
1000
0100
1000
0010
0100
0001
0010
1000
,
0001
0010
0100
1000
0100
0010
0001
0100
,
1000
0010
0100
0010
0001
0010
0100
1000
,
0100
0001
0100
1000
0001
0100
0010
0220
,
0000
0000
0000
0330
1000
0010
0100
0010
,
1000
0001
0100
0001
0010
0001
1000
2002
,
0000
0000
0000
3003
0100
0010
1000
0000
,
0101
0001
0001
1001
0001
0001
0011
0000
,
1100
0000
0100
1000
0010
1000
0001
0100
,
1010
1000
1000
1001
1000
1000
1100
0000
,
0010
0001
1000
0100
0010
0001
1000
0100
,
0001
0100
0010
0100
0001
1000
0100
0022
,
0000
0000
0000
0033
0001
1000
0100
1000
,
0010
0100
0010
1000
0100
0001
0100
2020
,
0000
0000
0000
3030
0010
1000
0001
0000
,
0011
0010
0010
0110
0010
0010
1010
0000
,
0001
1000
0001
0100
0001
0010
0100
1000
,
1100
0100
0100
0110
0100
0100
0101
0000
,
0001
1000
0010
0100
0001
1000
0010
0100
,
0010
0000
0010
0100
0000
0010
0100
0000
,
0110
0000
0100
0001
1000
0001
0100
0001
,
1000
0000
1000
0001
0000
1000
0001
0000
,
1001
0010
0001
0010
0100
1000
0001
1000
,
0100
1000
0000
0101
0000
1000
2200
0000
,
3300
0010
0001
0100
0001
0010
0100
1000
,
0001
0010
0000
0011
0000
1000
2020
0000
,
0000
0000
3030
0001
0010
0001
0100
0001
,
1000
1000
0100
0100
0010
0010
0001
0001
0100
0010
0100
0010
0001
1000
0001
1000
,
0001
0001
0100
0100
0010
0010
1000
1000
0001
0010
0100
1000
0001
0100
0010
1000
,
0010
0100
0001
1000
0100
1000
0010
0100
0001
0010
0001
1000
0001
0010
0001
0100
,
0010
1000
0100
0010
0001
0010
0100
1000
0010
0100
0001
1000
0001
0010
0100
0010
,
0001
0100
0001
0010
0001
1000
0010
0202
,
0000
0000
0000
0303
1000
0010
0001
0010
,
1000
0100
0001
0100
1000
0001
1000
2200
,
0000
0000
0000
3300
0010
0100
0010
0000
,
1001
0001
0001
0101
0100
0100
0110
0000
,
0010
1000
0100
1000
0001
0100
0001
1000
,
1100
1000
1000
1010
0010
0010
0011
0001
,
0100
0010
1000
0100
0001
0100
1000
0010
,
0101
0000
0001
1001
0000
1000
2200
0000
,
0000
3300
0001
0100
0001
0010
0001
1000
,
1001
0000
1000
1100
0000
0001
0101
0000
,
0010
1000
0001
0100
0010
1000
0100
1000
,
1010
0000
1000
1001
0000
0001
0022
0000
,
0000
0033
1000
0010
0100
0001
0010
0001
,
1010
0000
0001
0011
0000
1000
1001
0000
,
0010
0001
1000
0100
0010
0001
1000
0100
;
