#TITLE:Dream On;
#SUBTITLE:;
#ARTIST:Depeche Mode;
#TITLETRANSLIT:;
#SUBTITLETRANSLIT:;
#ARTISTTRANSLIT:;
#GENRE:;
#CREDIT:;
#BANNER:Dream On.png;
#BACKGROUND:Dream On-bg.png;
#LYRICSPATH:;
#CDTITLE:;
#MUSIC:Dream On.mp3;
#OFFSET:-0.262000;
#SAMPLESTART:105.275002;
#SAMPLELENGTH:14.899998;
#SELECTABLE:YES;
#DISPLAYBPM:128.000000;
#BPMS:0.000000=127.980011;
#STOPS:224.000000=1.405000;
#BGCHANGES:;
#KEYSOUNDS:;
#ATTACKS:;

//---------------dance-single - ----------------
#NOTES:
     dance-single:
     :
     Beginner:
     3:
     :
0000
0000
0000
0000
,
0000
0000
0000
0000
,
0100
0000
0000
0000
,
1000
0000
0000
0000
,
0001
0000
0000
0000
,
0010
0000
0000
0000
,
0001
0000
0000
0000
,
1000
0000
0000
0000
,
0200
0000
0000
0000
,
0320
0000
0000
0000
,
0031
0000
0100
0010
,
0001
0000
1000
0010
,
0100
0000
0010
1000
,
0101
0000
0000
0000
,
0011
0000
0000
0000
,
0010
0001
0100
0000
,
1000
0010
0100
0000
,
0010
1000
0001
0000
,
1010
0000
0000
0000
,
1100
0000
0000
0000
,
1000
0000
0100
0001
,
0010
0000
0001
0000
,
0100
1000
0001
0000
,
0010
0100
0001
0000
,
2000
0000
0000
0000
,
3200
0000
0000
0000
,
0320
0000
0000
0000
,
0032
0000
0000
0000
,
0103
1000
0100
0000
,
0010
0001
0010
0000
,
0100
0010
0100
0000
,
2002
0000
0000
0000
,
0000
0000
0000
3003
,
0100
0000
0010
0001
,
1000
0000
0010
0001
,
0100
0000
0010
0000
,
0220
0000
0000
0000
,
0000
0000
0000
0330
,
0010
0000
0001
1000
,
0001
0000
0100
0000
,
1000
0010
1000
0000
,
0001
0100
0001
0000
,
2000
0000
0000
0000
,
3002
0000
0000
0000
,
0023
0000
0000
0000
,
0130
0000
0100
0000
,
0001
0000
0010
0000
,
1000
0000
0010
0000
,
0200
0000
0000
0000
,
0310
0000
0010
0000
,
1000
0000
0100
0000
,
0001
0000
0100
0000
,
0002
0000
0000
0003
,
2000
0000
0000
3000
,
0100
0000
0010
0000
,
0100
0000
0010
0000
,
2000
0002
0000
0000
,
3003
0010
0000
1000
,
0000
0010
0000
0001
,
0000
0020
0000
0000
,
0000
0200
0000
0000
,
0330
0100
0000
1000
,
0000
0100
0000
0001
,
0000
2000
0000
0000
,
3000
0002
0000
0000
,
0003
0100
0000
1000
,
0000
0010
0000
1000
,
0000
0001
0000
0100
,
0000
0010
0000
1000
,
0000
0100
0000
0001
,
0000
1000
0000
0001
,
0000
0010
0000
0001
,
0000
0100
0000
0001
,
0000
1001
0000
0000
;

//---------------dance-single - ----------------
#NOTES:
     dance-single:
     :
     Easy:
     4:
     :
0000
0000
0000
0000
,
0000
0000
0000
0000
,
0100
0000
0000
0000
,
0010
0000
0000
0000
,
1000
0000
0100
0000
,
0010
0000
0001
0000
,
0100
0010
0001
0000
,
0100
0010
1000
0000
,
2200
0000
0000
3300
,
0022
0000
0000
0033
,
0100
0010
1000
0010
,
0100
0010
1000
0001
,
0100
1000
0100
0010
,
0200
0000
1000
0000
0000
1000
0300
0000
,
0002
0000
0010
0000
0000
0010
0003
0000
,
0100
0001
0100
1000
,
0010
0001
0010
1000
,
1000
0001
0100
0001
,
0020
0000
0100
0000
0000
0100
0030
0000
,
2000
0000
0001
0000
0000
0001
3000
0000
,
0010
0001
1000
0010
,
0100
0010
0001
0000
,
0001
0100
0010
0001
,
0010
1000
0100
0000
,
1000
0010
1000
0000
,
0001
0010
0001
0000
,
0100
0010
0100
0000
,
2002
0000
0000
3003
,
1000
0100
0001
0010
,
0100
0010
0001
1000
,
0001
0010
0100
1000
,
2100
0000
0000
0001
0000
0000
0010
0000
,
0020
0000
0000
3030
,
0001
0010
0001
0100
,
0001
1000
0010
0100
,
0010
1000
0001
0100
,
0102
0000
0000
1000
0000
0000
0010
0000
,
0020
0000
0000
0033
,
0100
0010
0001
0010
,
1000
0001
1000
0000
,
0010
0001
0100
0010
,
1000
0100
0010
0000
,
0002
0000
0000
0000
,
2000
0000
0000
3003
,
0020
0000
0000
0130
,
0100
0000
0010
1000
,
0100
0010
0100
0000
,
0001
0010
1000
0000
,
0020
0000
0000
1030
,
1000
0000
0001
0001
,
0100
0001
0010
0000
,
0100
0001
1000
0000
,
0220
0000
0000
0330
,
2002
0000
0000
3003
,
0001
0100
1000
0000
,
1000
0100
0001
0000
,
0002
0010
0000
1000
,
0103
0000
0100
0010
1000
0000
0100
0000
,
0000
0000
0100
0010
0001
0000
0100
0000
,
0000
2000
0000
0000
,
0010
0010
0000
0001
,
3100
0000
0010
1000
0001
0000
1000
0000
,
0000
0000
0010
0001
0100
0000
0001
0000
,
0000
0202
0000
0000
,
0303
2020
0000
0000
,
3030
0000
0001
0100
0001
0000
0100
0000
,
0000
0000
1000
0100
1000
0000
0100
0000
,
0000
0000
0010
1000
0010
0000
1000
0000
,
0000
0000
0010
0001
0010
0000
0001
0000
,
0000
0200
0000
0000
,
0000
0320
0000
0000
,
0000
0000
1030
0001
1000
0000
0001
0000
,
0000
0000
0100
0010
0100
0000
0010
0000
,
0000
1001
0000
0000
;

//---------------dance-single - ----------------
#NOTES:
     dance-single:
     :
     Medium:
     7:
     :
0000
0000
0000
0000
,
0000
0000
0000
0000
,
0100
0010
0100
0001
,
0100
0010
0100
1000
,
0100
0010
0001
0000
1000
0000
0010
0000
,
0100
0010
1000
0000
0001
0000
0010
0000
,
0001
1000
0100
0000
0100
0010
0000
0000
,
1000
0100
0010
0000
0010
0001
0000
0000
,
2200
0000
0000
0000
0000
0000
0000
3300
,
0202
0000
0000
0000
0000
0000
0000
0303
,
0010
0000
1000
0000
1000
0100
0010
0000
,
0001
0000
0100
0000
0001
1000
0010
0000
,
0100
0000
0010
0000
1000
0100
0010
0000
,
0002
0000
0000
0000
,
2003
0000
0000
0000
,
3010
0000
0001
0000
1000
0001
0100
0000
,
1000
0000
0001
0000
0010
0001
0100
0000
,
0010
0000
1000
0000
1000
0100
0001
0000
,
0200
0000
0000
0000
,
0320
0000
0000
0000
,
1030
0100
0001
0100
,
1000
0000
0001
0010
0001
0100
0000
0000
,
0001
0100
1000
0100
,
0001
0000
0100
0010
1000
0100
0000
0000
,
0100
0020
0000
0000
,
1030
0020
0000
0000
,
0031
0020
0000
0000
,
0230
0010
0010
0310
,
1000
0000
0001
0000
0100
0010
0001
0010
,
0100
0000
0010
0000
0001
1000
0010
1000
,
0100
0000
0001
0000
1000
0010
0100
0010
,
2000
0000
0100
0001
0000
0001
0010
0000
,
0010
0010
0010
0010
,
3100
1000
0010
0000
0100
0001
0010
0000
,
0001
0010
0100
0000
1000
0100
0010
0000
,
0010
1000
0001
0000
0010
0001
1000
0001
,
0200
0000
1000
0010
0000
0001
0010
0000
,
0010
0010
0010
0010
,
0301
1000
0010
0000
1000
0100
1000
0001
,
0000
0001
0100
0000
0020
0000
0000
0000
,
0130
1000
0001
0000
0010
0100
1000
0100
,
0000
0100
0010
0000
0200
0000
0000
0000
,
0301
0100
0010
1000
,
0220
0000
0000
0000
0000
0000
0000
0330
,
0001
0000
0001
0000
0001
0000
0100
0020
,
0000
0000
0001
1030
,
0100
0010
0100
0000
0001
0010
0000
0000
,
0001
1000
0001
0000
0100
0001
0000
0000
,
1000
0000
1000
0000
1000
0000
0001
0020
,
0000
0000
0001
0130
,
0100
1000
0001
0000
0001
0100
0000
0000
,
0010
0001
0100
0000
1000
0100
0000
0000
,
2002
0000
0000
0000
0000
0000
0000
3003
,
0220
0000
0000
0000
0000
0000
0000
0330
,
0100
0001
0010
0000
0001
1000
0000
0000
,
0100
1000
0010
0000
0100
0001
0000
0000
,
0020
0000
1000
0000
0000
0000
1030
0100
,
1000
0000
0100
0010
0001
0000
1000
0010
,
0000
0000
0100
0010
1000
0000
0001
0010
,
0000
0010
0010
0010
,
0100
0002
0000
0000
0000
0000
0103
0010
,
1000
0000
0001
0100
0010
0000
0100
0001
,
0000
0000
1000
0100
0010
0000
0001
0100
,
0000
2020
0000
0000
,
0000
3030
0022
0000
0000
0000
0000
0000
,
0000
0033
0100
0001
0010
0001
0100
0010
,
0000
0000
0100
0001
0010
0001
1000
0010
,
0000
0000
1000
0100
0010
0001
0100
0010
,
0000
0000
0100
0001
0010
0100
0010
0001
,
0000
0000
1000
0100
0001
0100
1000
0010
,
0000
0000
0001
0100
0010
1000
0100
0010
,
0000
0000
0100
0001
0100
1000
0100
0010
,
0000
0000
0001
0010
0100
1000
0100
0010
,
0001
0100
0110
0000
0000
0000
0000
0000
;

//---------------dance-single - ----------------
#NOTES:
     dance-single:
     :
     Hard:
     10:
     :
// measure 0
0000
0000
0000
0000
,  // measure 1
0000
0000
0000
0000
,  // measure 2
0100
1000
0010
1000
0100
0010
0000
0000
,  // measure 3
0100
1000
0100
0001
0010
0001
0000
0000
,  // measure 4
0100
1000
0010
0100
0001
0010
0000
0010
,  // measure 5
0001
0100
1000
0100
0001
0010
0000
1000
,  // measure 6
0100
1000
0011
0000
0001
1100
0000
0100
,  // measure 7
0001
1000
0101
0000
0001
1010
0000
1000
,  // measure 8
2002
0000
0000
0000
0000
0000
0000
3003
,  // measure 9
0220
0000
0000
0000
0000
0000
0000
0330
,  // measure 10
0100
1000
0010
1000
0001
1000
0010
1000
,  // measure 11
0100
0010
0001
0010
0100
0010
0001
1000
,  // measure 12
0010
0100
1000
0100
0010
0001
1000
0010
,  // measure 13
0100
0010
0100
0000
1000
0010
0000
0010
,  // measure 14
0100
0001
0010
0000
1000
0010
0000
0001
,  // measure 15
0010
0100
1000
0100
0010
0001
0100
0001
,  // measure 16
1000
0001
0100
0010
1000
0100
1000
0001
,  // measure 17
1000
0010
0001
0010
1000
0100
0001
0100
,  // measure 18
1000
0100
0010
0000
0100
0001
0000
0100
,  // measure 19
0010
1000
0001
0000
1000
0010
0000
1000
,  // measure 20
0100
0010
1000
0010
0100
0001
1000
0001
,  // measure 21
0000
0001
0010
0100
0010
0001
0000
1000
,  // measure 22
0001
0100
0001
0010
0100
0001
1000
0001
,  // measure 23
0000
0100
0001
1000
0010
1000
0000
0010
,  // measure 24
0100
0001
0010
0001
0100
0010
0000
1000
,  // measure 25
0100
0010
0001
0010
0100
1000
0000
0100
,  // measure 26
0010
1000
0010
0001
0010
1000
0000
0010
,  // measure 27
0100
0100
0100
0100
0100
0100
0100
0000
,  // measure 28
0010
0001
1000
0001
0010
0100
0010
0001
,  // measure 29
0100
0010
1000
0001
1000
0010
1000
0100
,  // measure 30
1000
0010
0100
0001
0010
0100
1000
0001
,  // measure 31
1000
0100
0001
0010
0000
0010
0101
0000
,  // measure 32
1100
0000
0101
0000
1100
0000
0101
0100
,  // measure 33
0010
0010
0100
0100
0001
0001
1000
1000
,  // measure 34
0100
0010
0001
0010
0100
1000
0100
0001
,  // measure 35
0100
1000
0010
0001
0010
1000
0010
0100
,  // measure 36
0001
0100
1000
0010
0000
0010
1010
0000
,  // measure 37
0011
1010
0011
1010
,  // measure 38
0001
0100
0001
0010
0001
1000
0010
0100
,  // measure 39
0000
0001
0010
0100
1000
0001
0000
0010
,  // measure 40
0001
0100
1000
0010
1000
0001
0010
0001
,  // measure 41
0000
0100
0010
1000
0010
0001
0000
0001
,  // measure 42
0100
0010
1000
0100
0010
0001
1000
0000
,  // measure 43
0020
0000
0200
0000
0000
0000
0000
0330
,  // measure 44
0001
0100
0001
0100
0001
0000
0001
0200
,  // measure 45
0000
0000
0000
0310
1000
0001
1000
0000
,  // measure 46
1000
0100
0011
0000
1000
1010
0000
1000
,  // measure 47
0001
0100
0101
0000
0001
1100
0000
0000
,  // measure 48
0010
1000
0010
1000
0010
0000
0010
2000
,  // measure 49
0000
0000
0000
3100
0001
0100
0010
0000
,  // measure 50
0100
1000
1010
0000
0001
0011
0000
0010
,  // measure 51
0001
0100
1100
0000
0001
0101
0000
0000
,  // measure 52
2020
0000
0000
0000
0000
0000
0000
3030
,  // measure 53
0022
0000
0000
0000
0000
0000
0000
0033
,  // measure 54
0100
1000
0001
0100
1000
0010
0000
0100
,  // measure 55
0001
0010
0001
1000
0010
0100
0000
0001
,  // measure 56
0200
0010
1000
0001
,  // measure 57
0010
0000
0301
0010
0011
1000
0100
1100
,  // measure 58
0000
0100
0010
0001
0101
1000
0010
1010
,  // measure 59
0000
0000
0001
1000
0001
1000
0001
0000
,  // measure 60
0001
2000
0000
0000
0000
3100
0010
0001
,  // measure 61
0010
0000
0100
0010
0101
0010
1000
0011
,  // measure 62
0000
1000
0100
0001
1010
1000
0100
1100
,  // measure 63
0000
2200
0000
0000
,  // measure 64
0000
3300
0202
0000
0000
0000
0000
0000
,  // measure 65
0000
0303
1000
0100
0010
0001
0100
0010
,  // measure 66
0000
0010
1000
0001
0010
0001
0100
0001
,  // measure 67
0000
1000
0100
1000
0010
0100
0001
0010
,  // measure 68
0000
0001
0100
1000
0100
0001
0010
0001
,  // measure 69
0000
1000
0100
0001
0100
1000
0010
1000
,  // measure 70
0000
0100
0010
1000
0010
0001
0010
0100
,  // measure 71
0000
0001
0100
1000
0100
0010
0100
1000
,  // measure 72
0000
1000
0100
0001
0010
0001
0100
1000
,  // measure 73
0001
0100
0110
0000
0000
0000
0000
0000
;
