#TITLE:COOLISH WALK;
#SUBTITLE:(from WORKING'!!);
#ARTIST:Kana Asumi, Saki Fujita & Eri Kitamura;
#TITLETRANSLIT:;
#SUBTITLETRANSLIT:;
#ARTISTTRANSLIT:;
#GENRE:;
#CREDIT:;
#BANNER:COOLISH WALK.png;
#BACKGROUND:COOLISH WALK-bg.png;
#LYRICSPATH:;
#CDTITLE:;
#MUSIC:COOLISH WALK.mp3;
#OFFSET:0.460000;
#SAMPLESTART:55.580002;
#SAMPLELENGTH:17.600000;
#SELECTABLE:YES;
#DISPLAYBPM:121.000000:242.000000;
#BPMS:0.000000=121.000000
,17.000000=242.000000
,281.000000=121.000000;
#STOPS:;
#BGCHANGES:;
#KEYSOUNDS:;
#ATTACKS:;

//---------------dance-single - ----------------
#NOTES:
     dance-single:
     :
     Beginner:
     4:
     :
// measure 0
0000
2200
0000
0000
,  // measure 1
3300
0202
0000
0000
,  // measure 2
0303
0022
0000
0000
,  // measure 3
0033
2020
0000
0000
,  // measure 4
3030
0100
0001
0000
,  // measure 5
0100
0000
0010
0000
,  // measure 6
0001
0000
0100
0000
,  // measure 7
1000
0000
0001
0000
,  // measure 8
0100
0000
0010
0000
,  // measure 9
1000
0000
0001
0000
,  // measure 10
0100
0000
1000
0000
,  // measure 11
0100
0000
0001
0000
,  // measure 12
0010
0000
0010
0000
,  // measure 13
0001
0000
0001
0000
,  // measure 14
0100
0000
0100
0000
,  // measure 15
1000
0000
1000
0000
,  // measure 16
0001
0000
0100
0000
,  // measure 17
0010
0000
0100
0000
,  // measure 18
0010
0000
0001
0000
,  // measure 19
0100
0000
1000
0001
,  // measure 20
0000
0100
0000
0010
,  // measure 21
0000
0100
0000
1000
,  // measure 22
0000
0001
0000
0100
,  // measure 23
0000
0002
0000
0000
,  // measure 24
0000
1003
0000
0010
,  // measure 25
0000
1000
0000
0100
,  // measure 26
0000
0001
0000
0010
,  // measure 27
0000
0200
0000
0000
,  // measure 28
0000
0301
0000
0100
,  // measure 29
0000
0010
0000
0100
,  // measure 30
0000
1000
0000
0001
,  // measure 31
0000
2000
0000
0000
,  // measure 32
0000
3001
0000
0010
,  // measure 33
0000
0100
0000
0010
,  // measure 34
0000
0001
0000
1000
,  // measure 35
0000
0001
0000
0100
,  // measure 36
0000
0020
0000
0000
,  // measure 37
0000
0000
0000
0130
,  // measure 38
0000
0001
0000
0100
,  // measure 39
0000
1000
0000
0100
,  // measure 40
0000
0001
0000
0010
,  // measure 41
0000
0100
0000
1000
,  // measure 42
0000
0002
0000
0000
,  // measure 43
0000
2003
0000
0000
,  // measure 44
0000
3020
0000
0000
,  // measure 45
0000
0000
0000
0130
,  // measure 46
0000
0001
0000
1000
,  // measure 47
0000
0010
0000
0100
,  // measure 48
0000
0010
0000
0010
,  // measure 49
0000
0010
0000
0010
,  // measure 50
0000
0100
0000
0100
,  // measure 51
0000
0100
0000
0100
,  // measure 52
0000
2000
0000
0000
,  // measure 53
0000
3020
0000
0000
,  // measure 54
0000
1030
0000
0100
,  // measure 55
0000
0010
0000
0001
,  // measure 56
0000
0010
0000
0100
,  // measure 57
0000
1000
0000
0010
,  // measure 58
0000
0001
0000
0010
,  // measure 59
0000
1000
0000
0100
,  // measure 60
0000
0001
0000
0100
,  // measure 61
0000
0010
0000
0100
,  // measure 62
0000
1000
0000
0001
,  // measure 63
0000
0100
0000
0010
,  // measure 64
0000
0001
0000
0010
,  // measure 65
0000
0001
0000
0100
,  // measure 66
0000
0010
0000
0100
,  // measure 67
0000
1000
0000
1000
,  // measure 68
0000
0001
0000
0001
,  // measure 69
0000
0100
0000
0010
,  // measure 70
0000
2200
0000
0000
,  // measure 71
3300
0022
0000
0000
,  // measure 72
0033
0202
0000
0000
,  // measure 73
0303
2020
0000
3030
,  // measure 74
0000
2002
0000
3003
,  // measure 75
0000
0220
0000
0330
,  // measure 76
0100
2200
0000
0000
,  // measure 77
0000
0000
0000
0000
,  // measure 78
3300
0000
0000
0000
;

//---------------dance-single - ----------------
#NOTES:
     dance-single:
     :
     Easy:
     8:
     :
// measure 0
0000
1000
0001
2002
,  // measure 1
0000
3003
0100
0000
0010
0000
0220
0000
,  // measure 2
0000
0330
0010
0000
0001
0000
1000
0000
,  // measure 3
0010
0001
0100
1000
,  // measure 4
0001
2100
0001
0010
,  // measure 5
0001
0000
0100
0000
,  // measure 6
0010
3000
0100
0001
,  // measure 7
1000
0000
0010
0001
,  // measure 8
0000
0000
0001
1000
,  // measure 9
0010
0000
1000
0000
,  // measure 10
0010
0000
0100
1000
,  // measure 11
0001
0000
0100
0010
,  // measure 12
0000
0000
1000
0100
,  // measure 13
0001
0000
1010
0000
,  // measure 14
0011
0000
0010
0100
,  // measure 15
0001
0000
1001
0110
,  // measure 16
0000
0000
1000
0100
,  // measure 17
0001
0000
0101
0000
,  // measure 18
1100
0000
0001
1000
,  // measure 19
0100
0000
1001
0011
,  // measure 20
0000
1000
0010
0100
,  // measure 21
0010
0001
0000
1000
,  // measure 22
1000
0100
0010
0100
,  // measure 23
0001
0011
1010
0011
,  // measure 24
1010
0001
0100
1000
,  // measure 25
0100
0001
0000
0010
,  // measure 26
0100
0001
0100
1000
,  // measure 27
0001
1100
0101
1100
,  // measure 28
0101
0010
0001
0010
,  // measure 29
0100
1000
0000
0100
,  // measure 30
0001
0100
1000
0001
,  // measure 31
0010
1001
0110
1001
,  // measure 32
0110
0010
0001
0100
,  // measure 33
0001
1000
0000
0100
,  // measure 34
0010
0100
1000
0001
,  // measure 35
0120
0000
0000
2030
,  // measure 36
0000
3010
0001
0100
,  // measure 37
0001
1000
0010
0100
,  // measure 38
0100
0010
0001
0100
,  // measure 39
1000
0100
0001
0100
,  // measure 40
0010
0010
0001
1000
,  // measure 41
1000
0100
0010
0010
,  // measure 42
2100
0000
0000
3000
0012
0000
0000
0003
,  // measure 43
2010
0000
0000
3000
0102
0000
0000
0003
,  // measure 44
0100
0100
0001
0100
,  // measure 45
1000
0010
0100
0010
,  // measure 46
0001
0010
0100
0001
,  // measure 47
0001
0010
0100
1000
,  // measure 48
0100
1002
1000
1000
,  // measure 49
1000
1000
1000
1000
,  // measure 50
1003
0210
0010
0010
,  // measure 51
0010
0010
0010
0010
,  // measure 52
0310
1000
0100
0010
,  // measure 53
0001
0110
0000
0000
,  // measure 54
0000
0010
0001
0010
,  // measure 55
0100
0001
0100
1000
,  // measure 56
0100
0001
0100
0001
,  // measure 57
0100
1000
0010
0001
,  // measure 58
0100
0001
0100
0100
,  // measure 59
0001
1000
0001
0100
,  // measure 60
1000
1000
0001
0010
,  // measure 61
0001
0010
0010
0100
,  // measure 62
0001
1000
0001
0100
,  // measure 63
0010
0001
0010
1000
,  // measure 64
0001
0100
0010
0001
,  // measure 65
1000
1000
0100
0010
,  // measure 66
0001
0100
0100
0001
,  // measure 67
0001
1000
0010
0010
,  // measure 68
0001
0100
1000
0001
,  // measure 69
0010
0001
0100
0001
,  // measure 70
0010
1000
0100
2200
,  // measure 71
0000
3300
0010
0000
0001
0000
0022
0000
,  // measure 72
0000
0033
0100
0000
0001
0000
0202
0000
,  // measure 73
0000
0303
1020
0000
1000
0000
1030
0000
,  // measure 74
1010
2001
0001
3001
,  // measure 75
1001
0210
0010
0310
,  // measure 76
0110
2002
0000
0000
,  // measure 77
0000
0000
0000
0000
,  // measure 78
3003
0000
0000
0000
;

//---------------dance-single - ----------------
#NOTES:
     dance-single:
     :
     Medium:
     11:
     :
// measure 0
0000
0000
0100
0001
1000
0001
0100
0020
,  // measure 1
0000
0030
0100
0001
0100
0010
0001
2000
,  // measure 2
3000
0000
0100
0001
1000
0010
0001
1000
,  // measure 3
0100
0010
0001
1000
0001
1000
0001
0000
,  // measure 4
0110
1000
1100
0011
,  // measure 5
0110
1000
0101
0010
,  // measure 6
1100
0010
1001
1100
,  // measure 7
0011
0001
1100
0110
,  // measure 8
1000
0100
0011
0110
,  // measure 9
1100
0010
0011
0010
,  // measure 10
1010
0001
0110
1001
,  // measure 11
0110
0100
1100
0011
,  // measure 12
1000
0100
0101
0110
,  // measure 13
1010
0001
0101
0100
,  // measure 14
1001
1000
0110
0011
,  // measure 15
1100
0001
1010
0011
,  // measure 16
0100
1000
0101
0110
,  // measure 17
1010
0010
1001
1000
,  // measure 18
1100
0001
0110
0101
,  // measure 19
1001
0100
1100
0022
,  // measure 20
0000
0033
0100
1000
0100
0000
0001
0000
,  // measure 21
0100
0000
0010
0000
1000
0010
0000
0001
,  // measure 22
0100
0000
0001
0010
0001
0000
1000
0000
,  // measure 23
0010
0000
0100
0010
0100
0000
0101
0000
,  // measure 24
1100
0000
0010
0001
0100
0000
0010
0000
,  // measure 25
1000
0000
0001
0000
0010
0100
0000
0010
,  // measure 26
1000
0000
0100
0001
0100
0000
0010
0000
,  // measure 27
1000
0000
0001
0100
0001
0000
1001
0000
,  // measure 28
1100
0000
0001
0100
1000
0000
0100
0000
,  // measure 29
0010
0000
0001
0000
1000
0100
0000
0010
,  // measure 30
0100
0000
0100
1000
0001
0000
0010
0000
,  // measure 31
0100
0000
1000
0010
1000
0000
0101
0000
,  // measure 32
0110
0000
1000
0100
1000
0000
0001
0000
,  // measure 33
0100
0000
0010
0000
0001
1000
0000
1000
,  // measure 34
0001
0000
0100
0010
0100
0000
0011
0000
,  // measure 35
1100
0000
0100
0010
0001
0000
1000
0100
,  // measure 36
0000
0110
0000
0010
0001
0000
0100
0000
,  // measure 37
0010
0100
1000
0100
,  // measure 38
0001
0100
0010
1000
,  // measure 39
0010
0000
0001
0000
0100
0000
0010
0100
,  // measure 40
0000
1000
0100
0000
0010
0000
0001
0000
,  // measure 41
0100
0010
0001
0010
,  // measure 42
1000
0100
0000
0001
0010
0000
0101
0000
,  // measure 43
1000
0010
0000
1000
0001
0000
0100
0010
,  // measure 44
0000
0102
0000
0000
0013
0000
0100
0000
,  // measure 45
1000
0001
0100
0010
,  // measure 46
0001
0010
1000
0001
,  // measure 47
0100
1000
0010
0001
,  // measure 48
0100
1001
1000
1001
,  // measure 49
0001
1001
0001
1001
,  // measure 50
1000
0110
0010
0110
,  // measure 51
0100
0110
0010
0110
,  // measure 52
0100
0000
0100
0001
0000
1000
0000
0100
,  // measure 53
0000
0010
0011
0000
0100
0000
0010
1000
,  // measure 54
0000
0101
0000
0000
1000
0000
0001
0100
,  // measure 55
0000
0001
0000
0010
1000
0000
0001
0000
,  // measure 56
0010
0000
1100
0000
0001
0100
0000
0010
,  // measure 57
0000
1001
0000
1000
0001
0000
0100
0000
,  // measure 58
0010
0011
0100
1000
,  // measure 59
0001
0100
0000
0010
0001
0000
1000
0000
,  // measure 60
0010
0011
0001
1000
,  // measure 61
0010
0100
0000
1000
0010
0000
0100
0010
,  // measure 62
0000
1010
0000
0000
0001
0000
1000
0010
,  // measure 63
0000
0001
0000
0000
0110
0000
0001
0000
,  // measure 64
0100
0000
0001
0000
1000
0010
0000
0001
,  // measure 65
0000
0100
0000
0001
1000
0000
0001
0000
,  // measure 66
0100
1100
0001
0100
,  // measure 67
0010
1000
0000
0010
0100
0000
0001
0000
,  // measure 68
1000
0000
0001
0010
0100
1000
0000
0110
,  // measure 69
0000
2002
0000
0000
0000
0000
0000
0000
,  // measure 70
0000
3003
0100
0010
0001
0100
0010
2000
,  // measure 71
0000
3000
0010
0100
0010
1000
0010
0002
,  // measure 72
0003
0000
0100
1000
0010
0100
0001
1000
,  // measure 73
0100
1000
0001
0010
0001
0100
0001
2000
,  // measure 74
0000
3000
0010
1000
0010
0001
0010
0200
,  // measure 75
0000
0300
1000
0010
1000
0001
1000
0000
,  // measure 76
0100
0010
0000
0220
0000
0000
0000
0000
0000
0000
0000
0000
0000
0000
0000
0000
,  // measure 77
0000
0000
0000
0000
,  // measure 78
0330
0000
0000
0000
;

//---------------dance-single - ----------------
#NOTES:
     dance-single:
     :
     Hard:
     16:
     :
// measure 0
0000
0000
0000
0000
1100
0000
0001
0010
0001
0100
0000
2100
0000
0000
0010
0000
,  // measure 1
0010
0000
3010
0000
0011
0000
1000
0100
0010
0001
0000
0102
0000
0000
0103
0000
,  // measure 2
0110
0000
0000
0000
0001
0010
0100
0000
0001
1000
0000
1020
0000
0000
0130
0000
,  // measure 3
0001
0010
0001
1000
0001
0100
0011
0000
,  // measure 4
1000
0001
0000
0001
0100
0000
0000
0000
1010
0000
0000
0000
0001
0000
0100
0000
,  // measure 5
0001
0010
0000
0100
1000
0000
0100
0000
,  // measure 6
0001
0000
1000
0000
0011
0000
1000
0100
,  // measure 7
0010
0002
0000
0100
0010
0000
0010
0000
,  // measure 8
1003
0000
0010
0000
1100
0000
0001
0100
,  // measure 9
0010
0100
0000
1000
0100
0000
0001
0000
,  // measure 10
0010
0000
1000
0000
0101
0000
0010
0100
,  // measure 11
0010
0001
0000
1000
0001
0100
0001
0010
,  // measure 12
1000
0000
0001
0000
0100
0010
1000
0100
,  // measure 13
1000
0001
0000
0100
0001
0000
0010
0000
,  // measure 14
1000
0000
0010
0000
0001
0100
0001
1000
,  // measure 15
0100
0020
0000
0100
1000
0000
1000
0000
,  // measure 16
0130
0000
0001
0000
0100
0001
0100
0010
,  // measure 17
0000
1010
0000
0001
0100
0000
0010
0000
,  // measure 18
1100
0000
0001
0000
0100
0010
0001
0010
,  // measure 19
0000
1001
0000
0001
0100
0000
0220
0000
,  // measure 20
0000
0330
0001
0010
0100
0010
1000
0100
,  // measure 21
0001
0010
1000
0000
0001
1000
0000
1000
,  // measure 22
0100
0000
1000
0010
1000
0100
0010
0100
,  // measure 23
0001
0100
0110
0000
1010
0000
0110
0000
,  // measure 24
1010
0000
1000
0100
0001
0100
0010
0001
,  // measure 25
0100
0100
0010
0000
1000
0001
0000
0010
,  // measure 26
1000
0000
0010
0100
0010
0001
0100
0001
,  // measure 27
1000
0010
1100
0000
0101
0000
1100
0000
,  // measure 28
0101
0000
0010
0100
1000
0100
0001
0100
,  // measure 29
0010
1000
0001
0000
1000
0010
0000
0010
,  // measure 30
0001
0000
0010
0100
0001
0001
0100
1000
,  // measure 31
0100
0001
0011
0000
1001
0000
0011
0000
,  // measure 32
1001
0000
0100
1000
0010
1000
0001
0000
,  // measure 33
0100
0000
0001
0000
1000
0010
0000
0010
,  // measure 34
0001
0000
1000
0010
0001
0100
0001
0000
,  // measure 35
1001
0010
1000
0100
1000
0001
1000
0010
,  // measure 36
0000
0110
0000
0100
0001
0000
0010
0000
,  // measure 37
0001
0000
1000
0100
0010
0000
1000
0000
,  // measure 38
0100
0000
1000
0010
0001
0000
0100
0000
,  // measure 39
0001
0000
0100
0010
1000
0000
0001
1000
,  // measure 40
0000
0010
1000
0010
0001
0000
0100
0000
,  // measure 41
1000
0000
0001
1000
0100
0000
0001
0000
,  // measure 42
0010
1000
0000
0100
0001
0000
1001
0000
,  // measure 43
0010
0001
0000
0010
0100
0000
1000
0001
,  // measure 44
0000
0100
0001
0010
0001
0000
1000
0100
,  // measure 45
0010
0000
0100
0010
1000
0000
0001
1000
,  // measure 46
0100
0000
0001
0100
0010
0000
0100
0001
,  // measure 47
1000
0000
0010
0100
0001
0000
0100
0001
,  // measure 48
1000
0000
0100
0001
0010
0001
0100
1000
,  // measure 49
0100
0010
0001
0010
0100
0010
1000
0001
,  // measure 50
0010
0001
1000
0010
0100
0100
1000
0001
,  // measure 51
0100
0010
1000
0010
0001
1000
0100
0001
,  // measure 52
0010
0100
0110
1100
0000
1010
0000
0101
,  // measure 53
0000
0011
1001
0000
1000
0000
0001
0010
,  // measure 54
0000
1000
0100
0001
0100
0000
0010
1000
,  // measure 55
0000
0001
0100
0010
0100
0000
0010
0000
,  // measure 56
0001
0000
1000
0010
0100
0010
0001
0010
,  // measure 57
0000
1100
0000
0100
0001
0000
1000
0010
,  // measure 58
0100
0000
1001
0010
0001
0000
0100
0001
,  // measure 59
0001
1000
0000
0010
1000
0000
0001
0010
,  // measure 60
0100
0001
1000
0100
1000
0010
0100
0001
,  // measure 61
0010
0001
0000
0100
0010
0000
0001
1000
,  // measure 62
0000
0011
0000
0010
0100
0010
0001
0100
,  // measure 63
0000
1100
0000
0010
0001
0000
0100
0001
,  // measure 64
0100
0010
1000
0100
0010
0001
0000
0011
,  // measure 65
0000
1010
0000
0001
0100
0000
0010
0100
,  // measure 66
0001
0000
0010
1000
0100
0000
0001
0010
,  // measure 67
1000
0010
0000
0100
0001
0000
1000
0100
,  // measure 68
1000
0000
0100
0001
1000
0010
0000
0011
,  // measure 69
0000
2020
0000
0000
0000
0000
0000
0000
,  // measure 70
0000
0000
3030
0000
1001
0000
0100
0010
0100
0001
0000
1200
0000
0000
1000
0000
,  // measure 71
1000
0000
1300
0000
0011
0000
0001
0100
0010
0100
0000
2001
0000
0000
3100
0000
,  // measure 72
1010
0000
0000
0000
0100
0010
0001
0000
1000
0001
0000
2010
0000
0000
3100
0000
,  // measure 73
0010
0000
0001
0000
1000
0100
1000
0000
0010
0000
0001
0000
1000
0000
0011
0000
,  // measure 74
0101
0000
0011
0000
0010
0100
1000
0000
0001
0000
0010
0000
0001
0000
1010
0000
,  // measure 75
1100
0000
1010
0000
0001
0010
0001
0000
0100
0000
0010
0000
0001
0000
0100
0000
,  // measure 76
1000
0001
0000
0220
0000
0000
0000
0000
0000
0000
0000
0000
0000
0000
0000
0000
,  // measure 77
0000
0000
0000
0000
,  // measure 78
0330
0000
0000
0000
;
