#TITLE:CANDY☆;
#SUBTITLE:(FROM NONSTOP MEGAMIX);
#ARTIST:Luv UNLIMITED;
#TITLETRANSLIT:;
#SUBTITLETRANSLIT:;
#ARTISTTRANSLIT:;
#GENRE:;
#CREDIT:;
#BANNER:CANDY (FROM NONSTOP MEGAMIX).png;
#BACKGROUND:CANDY (FROM NONSTOP MEGAMIX)-bg.png;
#LYRICSPATH:;
#CDTITLE:;
#MUSIC:CANDY (FROM NONSTOP MEGAMIX).ogg;
#OFFSET:-7.170000;
#SAMPLESTART:38.370998;
#SAMPLELENGTH:19.520000;
#SELECTABLE:YES;
#DISPLAYBPM:200.000000;
#BPMS:0.000000=200.000000;
#STOPS:;
#BGCHANGES:;
#KEYSOUNDS:;
#ATTACKS:;

//---------------dance-single - ----------------
#NOTES:
     dance-single:
     :
     Beginner:
     5:
     :
// measure 0
0000
0010
0000
0001
,  // measure 1
0000
1000
0000
0010
,  // measure 2
0000
0100
0000
0010
,  // measure 3
0000
0100
0001
1000
,  // measure 4
0000
0001
0000
0100
,  // measure 5
0000
1000
0000
0100
,  // measure 6
0000
0010
0000
0001
,  // measure 7
0000
0001
0100
0010
,  // measure 8
2000
0000
0000
0000
,  // measure 9
0200
0000
0000
3300
,  // measure 10
0001
0100
1000
0000
,  // measure 11
0001
0010
0001
0000
,  // measure 12
0100
0010
1000
0000
,  // measure 13
1000
0001
1000
0000
,  // measure 14
0100
0010
0001
0000
,  // measure 15
0100
0010
0100
0000
,  // measure 16
1000
0001
0100
0000
,  // measure 17
1000
0100
1000
0010
,  // measure 18
0001
0010
1000
0000
,  // measure 19
1000
0100
0010
0000
,  // measure 20
0010
0100
1000
0000
,  // measure 21
0010
0100
0001
0000
,  // measure 22
0100
0010
1000
0000
,  // measure 23
0001
0100
1000
0000
,  // measure 24
1000
0010
0001
0000
,  // measure 25
1000
2002
0000
3003
,  // measure 26
0010
0000
1000
0000
,  // measure 27
0001
0000
0100
0000
,  // measure 28
0001
0000
1000
0000
,  // measure 29
0010
0000
1000
0000
,  // measure 30
0100
0000
0200
0000
,  // measure 31
0300
1000
0100
0010
,  // measure 32
0001
0000
0100
0000
,  // measure 33
0020
1000
0100
1030
,  // measure 34
0001
0000
0100
0000
,  // measure 35
1000
0000
0100
0000
,  // measure 36
0010
0000
0001
0000
,  // measure 37
0010
0000
1000
0000
,  // measure 38
0010
0000
0020
0000
,  // measure 39
0000
0130
0001
0010
,  // measure 40
0001
0000
1000
0000
,  // measure 41
0200
0001
0010
0301
,  // measure 42
1000
0000
1000
0000
,  // measure 43
1000
0000
1000
0000
,  // measure 44
0100
0000
0100
0000
,  // measure 45
0200
0000
0000
0000
,  // measure 46
0310
0000
0010
0000
,  // measure 47
0010
0000
0010
0000
,  // measure 48
0001
0000
0001
0000
,  // measure 49
0002
0000
0000
0000
,  // measure 50
0003
1000
0000
0001
,  // measure 51
0000
1000
0000
0001
,  // measure 52
0000
0100
0000
0010
,  // measure 53
0000
1000
0001
1000
,  // measure 54
0000
0100
0000
0010
,  // measure 55
0000
0100
0000
0010
,  // measure 56
0000
0001
0000
1000
,  // measure 57
0000
0010
0100
0010
,  // measure 58
0000
0001
0000
0010
,  // measure 59
0000
0001
0000
0100
,  // measure 60
0000
0010
0000
1000
,  // measure 61
0000
0100
0100
0100
,  // measure 62
0000
0001
0000
0010
,  // measure 63
0000
0100
0000
1000
,  // measure 64
0000
0100
0000
0010
,  // measure 65
0000
0001
0001
0001
,  // measure 66
0002
0000
0000
0003
,  // measure 67
0200
0000
0000
0300
,  // measure 68
0020
0000
0000
0030
,  // measure 69
2000
0000
3000
0000
;

//---------------dance-single - ----------------
#NOTES:
     dance-single:
     :
     Easy:
     7:
     :
// measure 0
0010
0110
0010
1010
,  // measure 1
1000
1100
1000
1001
,  // measure 2
0001
0101
0100
0011
,  // measure 3
0010
0011
0110
1100
,  // measure 4
1000
1001
1000
1010
,  // measure 5
0010
0011
0010
0110
,  // measure 6
0100
1100
0100
0101
,  // measure 7
0001
0101
1001
1010
,  // measure 8
0220
0000
0000
0030
,  // measure 9
0002
0000
0000
0303
,  // measure 10
0001
0010
0100
0010
,  // measure 11
0001
0100
0010
1000
,  // measure 12
0001
0100
0001
0010
,  // measure 13
0100
1000
0100
0010
,  // measure 14
0100
1000
0001
0100
,  // measure 15
0001
1000
0010
0100
,  // measure 16
0010
1000
0001
0010
,  // measure 17
0100
1000
0100
0001
,  // measure 18
0100
1000
0010
0001
,  // measure 19
0010
1000
0002
2003
,  // measure 20
3010
0100
0001
1000
,  // measure 21
0001
0010
0200
2300
,  // measure 22
3001
0010
0100
0010
,  // measure 23
0100
1000
0200
0320
,  // measure 24
0031
0100
1000
0100
,  // measure 25
0001
0000
1000
0220
0000
0000
0330
0000
,  // measure 26
0010
1000
0200
0000
,  // measure 27
0310
0001
0200
0000
,  // measure 28
0301
0010
0100
0010
,  // measure 29
0001
0010
0200
0000
,  // measure 30
2300
0000
3002
0000
,  // measure 31
0000
1003
0100
0010
,  // measure 32
0001
0100
1000
0100
,  // measure 33
0010
1000
0001
0100
,  // measure 34
0001
1000
0200
0000
,  // measure 35
0301
0010
0200
0000
,  // measure 36
0310
0001
1000
0100
,  // measure 37
1000
0010
0200
0000
,  // measure 38
0302
0000
2003
0000
,  // measure 39
0000
3001
0100
0010
,  // measure 40
1000
0010
0100
0010
,  // measure 41
0001
0010
1000
0100
,  // measure 42
0010
0000
0000
0001
0000
0000
1000
0000
,  // measure 43
0000
0100
0000
0000
0011
0000
1100
0000
,  // measure 44
0010
0000
0000
0100
0000
0000
1000
0000
,  // measure 45
0000
0001
0000
0000
1001
0000
0110
0000
,  // measure 46
0010
0000
0000
1000
0000
0000
0001
0000
,  // measure 47
0000
1000
0000
0000
1010
0000
0101
0000
,  // measure 48
1000
0000
0000
0100
0000
0000
0010
0000
,  // measure 49
0000
0001
0000
0000
0110
0000
1001
0000
,  // measure 50
0001
1000
0100
1000
,  // measure 51
0010
0000
0001
0000
2200
0000
0000
3300
,  // measure 52
0001
0010
0100
0010
,  // measure 53
0001
0000
1000
0000
0022
0000
0000
0033
,  // measure 54
2000
0000
3002
0000
,  // measure 55
0000
0103
0010
1000
,  // measure 56
0100
1000
0001
0100
,  // measure 57
0010
0001
1000
0001
,  // measure 58
0010
0001
0100
0001
,  // measure 59
0010
0000
1000
0000
2020
0000
0000
3030
,  // measure 60
0001
1000
0001
0010
,  // measure 61
0001
0000
0100
0000
0202
0000
0000
0303
,  // measure 62
0020
0000
0230
0000
,  // measure 63
0000
0301
1000
0010
,  // measure 64
0010
0001
0001
0100
,  // measure 65
0010
1000
0001
0100
,  // measure 66
0022
0000
0000
0033
,  // measure 67
2020
0000
0000
3030
,  // measure 68
0220
0000
0000
0330
,  // measure 69
2002
0000
3003
0000
;

//---------------dance-single - ----------------
#NOTES:
     dance-single:
     :
     Medium:
     9:
     :
// measure 0
0010
0000
0011
0000
1000
0000
1000
0010
,  // measure 1
0000
0110
0000
0100
0001
0000
0010
0000
,  // measure 2
1000
0000
0001
0000
0100
0010
1000
0100
,  // measure 3
0001
0000
0010
0100
0000
0010
0100
0000
,  // measure 4
1000
0000
1010
0000
0001
0000
0010
0001
,  // measure 5
0000
1001
0000
1000
0100
0000
0010
0000
,  // measure 6
0100
0000
0001
0000
0010
0100
1000
0100
,  // measure 7
0010
0000
0001
0202
0000
0000
0000
0303
,  // measure 8
0010
0000
0010
1000
0000
0100
0001
0000
,  // measure 9
0100
0000
0001
1000
0000
0010
1000
0000
,  // measure 10
0001
0000
0010
0000
0100
0000
1000
0100
,  // measure 11
0000
1000
0010
0000
0001
0000
0100
0000
,  // measure 12
1000
0000
0010
0000
1000
0000
0001
0100
,  // measure 13
0000
0001
0010
0000
0100
0000
0001
0000
,  // measure 14
1000
0000
0100
0000
0010
0000
0100
0010
,  // measure 15
0000
1000
0001
0000
0100
0000
0001
0000
,  // measure 16
0010
0000
0100
0000
1000
0000
0010
0100
,  // measure 17
0000
0010
1000
0001
0010
0001
0100
0000
,  // measure 18
0001
0000
0010
0000
1000
0000
0100
0001
,  // measure 19
0000
0001
0010
0000
1100
0000
1010
0000
,  // measure 20
0010
0000
1000
0000
0001
0000
1000
0100
,  // measure 21
0000
0100
0010
0000
0110
0000
1001
0000
,  // measure 22
0100
0000
0010
0000
0100
0000
0100
0001
,  // measure 23
0000
1000
0010
0000
0101
0000
0011
0000
,  // measure 24
1000
0000
0010
0000
0100
0000
0001
0010
,  // measure 25
0000
1000
0100
0022
0000
0000
0000
0033
,  // measure 26
0001
0000
1000
0000
0200
0000
0000
1300
,  // measure 27
0000
0001
0100
0000
0202
0000
0000
0303
,  // measure 28
0010
0000
0001
0000
1000
0000
0100
0001
,  // measure 29
0000
0001
1000
0000
2200
0000
0000
3300
,  // measure 30
0200
0000
0000
0001
0002
0000
0000
0000
,  // measure 31
0303
0110
1010
0011
,  // measure 32
0010
0000
0001
0000
0100
0000
1000
0010
,  // measure 33
0000
0001
0010
0000
0101
0000
1100
0000
,  // measure 34
1000
0000
0100
0000
0002
0000
0000
0013
,  // measure 35
0000
0010
1000
0000
2020
0000
0000
3030
,  // measure 36
1000
0000
0010
0000
0001
0000
0001
0010
,  // measure 37
0000
0100
1000
0000
0022
0000
0000
0033
,  // measure 38
0020
0000
0000
1000
2000
0000
0000
0000
,  // measure 39
3030
1001
0101
1100
,  // measure 40
0001
0000
0010
0000
0100
0000
1000
0010
,  // measure 41
0000
1000
0100
0000
0011
0000
1010
0000
,  // measure 42
1000
0000
0000
0100
0000
0001
0100
0000
,  // measure 43
0000
1000
0001
0000
0100
0000
0010
0000
,  // measure 44
0100
0000
0000
0010
0000
1000
0010
0000
,  // measure 45
0220
0000
0000
0000
0000
0000
0000
0330
,  // measure 46
0001
0000
0000
1000
0000
0100
0010
0000
,  // measure 47
0000
0010
0001
0000
0100
0000
0010
0000
,  // measure 48
1000
0000
0000
0100
0000
0100
0010
0000
,  // measure 49
0001
0010
0000
0110
0000
0100
0010
0000
,  // measure 50
0001
0000
1000
0000
0200
0000
0301
0010
,  // measure 51
0000
0010
0100
0000
2200
0000
0000
3300
,  // measure 52
1000
0000
0001
0000
0100
0000
1000
0010
,  // measure 53
0000
0010
0100
0000
0202
0000
0000
0303
,  // measure 54
0020
0000
0000
0100
0200
0000
0000
0000
,  // measure 55
0330
1010
1001
0011
,  // measure 56
1000
0000
0001
0000
0100
0000
0001
0010
,  // measure 57
0000
1000
0100
0000
0011
0000
0101
0000
,  // measure 58
1000
0000
0001
0000
0200
0000
0310
1000
,  // measure 59
0000
1000
0001
0000
0022
0000
0000
0033
,  // measure 60
1000
0000
0100
0000
0010
0000
0100
0010
,  // measure 61
0000
0100
1000
0000
2020
0000
0000
3030
,  // measure 62
0002
0000
0000
1000
2000
0000
0000
0000
,  // measure 63
3003
0110
0101
1100
,  // measure 64
0010
0000
1000
0000
0001
0000
1000
0010
,  // measure 65
0000
0100
0001
0000
1010
0000
1100
0000
,  // measure 66
0020
0000
0000
0032
0000
0000
0103
0010
,  // measure 67
2000
0000
0000
3020
0000
0000
0130
0001
,  // measure 68
0200
0000
0000
0320
0000
0000
0130
0010
,  // measure 69
2002
0000
3003
0000
;

//---------------dance-single - ----------------
#NOTES:
     dance-single:
     :
     Hard:
     13:
     :
// measure 0
0011
0000
1010
0000
1000
0010
0100
0010
,  // measure 1
0000
0110
0000
1000
0100
0010
0001
0100
,  // measure 2
0110
0000
1001
0000
1000
0100
0010
0100
,  // measure 3
1000
0010
0100
0001
0000
0010
0100
1000
,  // measure 4
0011
0000
0101
0000
0100
0010
1000
0010
,  // measure 5
0000
1001
0000
0010
0001
0100
0001
1000
,  // measure 6
0110
0000
1001
0000
0100
0001
0010
0100
,  // measure 7
0010
0001
1000
0001
0000
1000
0100
1000
,  // measure 8
0001
0100
0010
0100
0000
0001
0100
1000
,  // measure 9
0100
0001
0100
1000
0000
0001
0100
0010
,  // measure 10
1000
0100
0010
0000
0001
1000
0100
0010
,  // measure 11
0000
1000
0010
0000
1000
0001
0100
0010
,  // measure 12
0100
0001
1000
0000
0010
0001
1000
0010
,  // measure 13
0000
0010
0100
0000
0010
0100
0001
0100
,  // measure 14
0010
1000
0100
0000
0001
1000
0001
0010
,  // measure 15
0000
0100
1000
0000
0001
0100
0001
1000
,  // measure 16
0100
0010
0100
0000
0010
0100
0010
1000
,  // measure 17
0000
0010
0100
0001
1000
0001
0100
0010
,  // measure 18
0100
1000
0001
0000
0010
0100
0010
0001
,  // measure 19
0000
0001
1000
0000
0100
0010
0100
0001
,  // measure 20
0010
0100
0001
0000
0001
0100
0001
1000
,  // measure 21
0000
0001
0010
0000
1000
0010
0100
0010
,  // measure 22
0001
1000
0001
0000
0010
0001
0010
1000
,  // measure 23
0000
0100
0001
0000
0100
0001
1000
0010
,  // measure 24
1000
0100
0001
0000
0100
0010
1000
0100
,  // measure 25
0000
1000
0100
0022
0000
0000
0000
0033
,  // measure 26
1000
0001
1000
0010
0100
0000
0001
1000
,  // measure 27
0000
1000
0010
0100
0001
0000
1100
0000
,  // measure 28
0001
0010
0100
0010
0001
0000
1000
0010
,  // measure 29
0000
0001
0010
0001
1000
0000
0101
0000
,  // measure 30
0010
1000
0001
1000
0100
0000
0001
0100
,  // measure 31
0001
0000
1000
0100
1000
0001
0010
0000
,  // measure 32
0100
0001
0010
0100
1000
0000
0100
0010
,  // measure 33
0000
0010
0001
1000
0100
0000
0110
0000
,  // measure 34
0001
1000
0001
0100
0001
0000
0100
0010
,  // measure 35
0000
0010
1000
0100
1000
0000
1010
0000
,  // measure 36
0010
0100
0010
0001
1000
0000
0010
1000
,  // measure 37
0000
0001
0010
0100
0010
0000
0011
0000
,  // measure 38
0010
0001
0100
0001
1000
0000
0100
1000
,  // measure 39
0100
0000
0010
1000
0010
0100
0001
0000
,  // measure 40
0001
0100
0010
1000
0010
0000
0100
0010
,  // measure 41
0000
1000
0100
0010
0001
0000
1001
0000
,  // measure 42
0001
1000
0010
0100
0000
0001
0100
0000
,  // measure 43
0100
0010
0000
0010
1000
0001
1000
0100
,  // measure 44
0010
0001
1000
0010
0000
0100
1000
0001
,  // measure 45
0020
0000
0000
2030
0000
0000
3002
0000
,  // measure 46
0103
0010
0100
1000
0000
1000
0001
0000
,  // measure 47
0010
1000
0000
0100
0010
0001
0010
0100
,  // measure 48
1000
0001
1000
0010
0000
0100
0010
0001
,  // measure 49
1000
0010
0000
0110
0000
0100
0001
1000
,  // measure 50
0010
0100
0010
1000
0100
0000
0100
0010
,  // measure 51
0000
0010
1000
0001
0100
0000
1100
0000
,  // measure 52
0010
0001
1000
0010
1000
0000
0010
0110
,  // measure 53
0000
0100
0001
1000
0010
0000
1100
0000
,  // measure 54
0001
0010
0001
1000
0100
0000
0100
1000
,  // measure 55
0010
0000
0010
1000
0001
0100
0001
0010
,  // measure 56
1000
0100
0010
0100
1000
0000
0001
0010
,  // measure 57
0000
0010
0100
0001
0010
0000
0101
0000
,  // measure 58
1000
0010
0100
0010
0001
0000
1000
0001
,  // measure 59
0000
0001
0100
0100
0001
0000
1010
0000
,  // measure 60
0001
0010
0001
1000
0010
0000
1000
1001
,  // measure 61
0000
0100
0010
0100
1000
0001
0101
0000
,  // measure 62
0001
0100
0010
0100
1000
0000
0001
1000
,  // measure 63
0010
0000
1000
0001
0100
0001
0100
0010
,  // measure 64
1000
0010
0001
0010
0100
0000
1000
0010
,  // measure 65
0000
0010
0100
0001
0010
0100
1100
0000
,  // measure 66
1000
0001
1000
0000
0100
0000
0010
0000
0100
0000
1000
0000
0010
0000
0100
0000
,  // measure 67
0010
0100
0010
0000
1000
0000
0100
0000
0010
0000
0001
0000
1000
0000
0001
0000
,  // measure 68
0010
0000
0010
0001
0100
0000
0100
0010
1000
0000
1000
0100
1000
0000
0001
0000
,  // measure 69
0220
0000
0330
0000
;

//---------------dance-single - ----------------
#NOTES:
     dance-single:
     :
     Challenge:
     12:
     :
// measure 0
0010
0000
1001
0000
1000
0100
0010
0001
,  // measure 1
0000
0001
0000
0001
0100
0010
1000
0100
,  // measure 2
0010
0000
1001
0000
1000
0100
0001
0100
,  // measure 3
1000
0001
0100
1000
0000
1000
0100
0000
,  // measure 4
1100
0000
0011
0000
0001
0100
0010
0100
,  // measure 5
0000
0100
0000
0010
1000
0100
0010
0001
,  // measure 6
0100
0000
0110
0000
0010
1000
0100
0010
,  // measure 7
0001
0100
0010
0100
0000
0100
0010
0000
,  // measure 8
1000
0000
1000
0100
0000
0100
0010
0000
,  // measure 9
0001
0000
0001
0100
0000
0100
0010
0000
,  // measure 10
1000
0000
1100
0000
0100
0000
0100
0010
,  // measure 11
0000
0010
0001
0000
0001
0000
0011
0000
,  // measure 12
0101
0000
0100
0000
0010
0000
0010
1000
,  // measure 13
0000
1000
0100
0000
0010
0000
0110
0000
,  // measure 14
1000
0000
1001
0000
0001
0000
0100
0010
,  // measure 15
0000
0010
0100
0000
1000
0000
0001
0000
,  // measure 16
1000
0100
0010
0001
,  // measure 17
0001
0100
0010
1000
0100
0010
0001
0000
,  // measure 18
2000
0000
0001
0000
3100
0000
0001
0100
,  // measure 19
0000
0100
0010
0000
1000
0100
0010
0000
,  // measure 20
0002
0000
1000
0000
0103
0000
0100
0010
,  // measure 21
0000
0010
0100
0000
0010
0001
0100
0000
,  // measure 22
0200
0000
0010
0000
0301
0000
0001
0100
,  // measure 23
0000
0100
0010
0000
0010
1000
0100
0000
,  // measure 24
0020
0000
1000
0000
0130
0000
0010
0001
,  // measure 25
0100
0010
0200
0020
0000
0000
0330
0000
,  // measure 26
1001
0000
1100
0000
0101
0000
1000
0100
,  // measure 27
0000
0100
0010
0000
0001
0000
0100
0000
,  // measure 28
1010
0000
1100
0000
0011
0000
0001
0100
,  // measure 29
0000
0100
0010
0000
1000
0100
0010
0000
,  // measure 30
1001
0000
0100
0020
0200
0000
0000
0000
,  // measure 31
0330
1100
0011
0101
,  // measure 32
1010
0000
1000
0000
0100
0010
0001
0100
,  // measure 33
0000
0100
0010
0000
0010
1000
0100
0000
,  // measure 34
1001
0000
0101
0000
0001
0100
0010
1000
,  // measure 35
0000
1000
0100
0000
0100
0010
0001
0000
,  // measure 36
1100
0000
0011
0000
0010
1000
0100
0010
,  // measure 37
0000
0010
0001
0000
0001
0100
0010
0000
,  // measure 38
0110
0000
1000
0002
2000
0000
0000
0000
,  // measure 39
3003
0101
1010
1100
,  // measure 40
0011
0000
0001
0100
0010
1000
0100
0010
,  // measure 41
0000
0010
0001
0000
0110
0000
1001
0000
,  // measure 42
1000
0000
1000
0100
0000
0100
1000
0000
,  // measure 43
1000
0100
0000
0100
1000
0000
1000
0000
,  // measure 44
0001
0000
0001
0100
0000
0100
0001
0000
,  // measure 45
0001
0100
0000
0100
0001
0000
0001
0000
,  // measure 46
0010
0000
0010
1000
0000
1000
0010
0000
,  // measure 47
0010
1000
0000
1000
0010
0000
1000
0000
,  // measure 48
0001
0000
0001
1000
0000
1000
0010
0000
,  // measure 49
0010
0001
0000
0001
0010
1000
0100
0000
,  // measure 50
0010
1001
0100
1001
,  // measure 51
1000
0110
0001
0110
,  // measure 52
1000
1100
0010
0011
,  // measure 53
0001
0101
1010
1100
,  // measure 54
0010
0011
0100
1100
,  // measure 55
0100
0101
0010
1010
,  // measure 56
1000
1001
0001
1001
,  // measure 57
0100
0110
1001
0110
,  // measure 58
1000
0000
0001
0000
0001
0100
0010
2000
,  // measure 59
0000
0100
3100
0000
0010
0001
0100
0000
,  // measure 60
0100
0000
0010
0000
1000
0100
0010
0002
,  // measure 61
0000
0100
0103
0000
0010
1000
0100
0000
,  // measure 62
2000
0000
0000
0001
0002
0000
0000
0000
,  // measure 63
3003
1001
1001
1001
,  // measure 64
1000
0100
0010
0001
0100
0010
1000
0100
,  // measure 65
0010
0001
0100
0010
1000
0100
0010
0000
,  // measure 66
1000
0000
1000
0100
0000
0100
0010
0001
,  // measure 67
0100
0000
0100
0010
0000
0010
1000
0100
,  // measure 68
0010
0001
0100
0010
1000
0100
0010
0001
,  // measure 69
0200
0000
0300
0000
;
