#TITLE:Butterfly;
#SUBTITLE:(from DANCERUSH STARDOM);
#ARTIST:kors k feat. Starbitz;
#TITLETRANSLIT:;
#SUBTITLETRANSLIT:;
#ARTISTTRANSLIT:;
#CREDIT:;
#BANNER:Butterfly.png;
#BACKGROUND:Butterfly-bg.png;
#JACKET:Butterfly-jacket.png;
#LYRICSPATH:;
#CDTITLE:;
#MUSIC:Butterfly.ogg;
#OFFSET:0.009;
#SAMPLESTART:72.892;
#SAMPLELENGTH:14.221;
#SELECTABLE:YES;
#DISPLAYBPM:135.000;
#BPMS:0.000=135.000;
#STOPS:;
#BGCHANGES:;

//---------------dance-single - ----------------
#NOTES:
     dance-single:
     :
     Beginner:
     4:
     :
// measure 1
0000
0000
0000
0000
,  // measure 2
0010
0000
0010
0000
,  // measure 3
0001
0001
0001
0000
,  // measure 4
1000
0000
1000
0000
,  // measure 5
0100
0100
0100
0000
,  // measure 6
0001
0000
0001
0000
,  // measure 7
1000
1000
1000
0000
,  // measure 8
0010
0000
0010
0000
,  // measure 9
0100
0100
0100
0000
,  // measure 10
0001
0000
0100
0000
,  // measure 11
1000
0000
0100
0000
,  // measure 12
0001
0000
1000
0000
,  // measure 13
0010
1000
0100
0000
,  // measure 14
1000
0000
0010
0000
,  // measure 15
0001
0000
0010
0000
,  // measure 16
1000
0000
0001
0000
,  // measure 17
0010
0001
0100
0000
,  // measure 18
0001
0000
0001
0000
,  // measure 19
1000
0010
1000
0000
,  // measure 20
0100
0000
0010
0000
,  // measure 21
0001
0100
0001
0000
,  // measure 22
1000
0000
1000
0000
,  // measure 23
0001
0010
0001
0000
,  // measure 24
0100
0000
0010
0000
,  // measure 25
1000
0100
1000
0000
,  // measure 26
0000
2000
0000
3000
,  // measure 27
0000
0020
0000
0030
,  // measure 28
0000
0200
0000
0300
,  // measure 29
0001
1000
0100
0000
,  // measure 30
0000
0002
0000
0003
,  // measure 31
0000
0020
0000
0030
,  // measure 32
0000
0200
0000
0300
,  // measure 33
1000
0001
0100
0000
,  // measure 34
0001
0001
0001
0000
,  // measure 35
0010
0010
0010
0000
,  // measure 36
1000
1000
1000
0000
,  // measure 37
0100
0100
0100
0000
,  // measure 38
1000
1000
1000
0000
,  // measure 39
0010
0010
0010
0000
,  // measure 40
0001
0001
0001
0000
,  // measure 41
0100
0100
0100
0000
,  // measure 42
1000
0010
1000
0000
,  // measure 43
0001
0010
0001
0000
,  // measure 44
0001
0100
0001
0000
,  // measure 45
1000
0100
1000
0000
,  // measure 46
0001
0100
0010
0000
,  // measure 47
1000
0010
0100
0000
,  // measure 48
0001
1000
0010
0000
,  // measure 49
1000
0001
0100
0000
,  // measure 50
0000
2020
0000
3030
,  // measure 51
0000
2002
0000
3003
,  // measure 52
0000
0202
0000
0303
,  // measure 53
1000
0010
0001
0000
,  // measure 54
0000
0022
0000
0033
,  // measure 55
0000
0220
0000
0330
,  // measure 56
0000
2200
0000
3300
,  // measure 57
0001
0010
1000
0100
,  // measure 58
0220
0000
0000
0000
,  // measure 59
0000
0000
0000
0330
;

//---------------dance-single - ----------------
#NOTES:
     dance-single:
     :
     Easy:
     6:
     :
// measure 1
0000
0000
0000
0000
,  // measure 2
1000
0001
0010
0001
,  // measure 3
0100
0010
1000
0000
,  // measure 4
0100
0001
0010
0001
,  // measure 5
1000
0010
0100
0000
,  // measure 6
0001
1000
0010
0100
,  // measure 7
0010
1000
0001
0000
,  // measure 8
0100
1000
0001
1000
,  // measure 9
0100
0010
0001
1000
,  // measure 10
0001
1000
0010
1010
,  // measure 11
0001
0100
0010
0101
,  // measure 12
1000
0100
0001
0100
,  // measure 13
0010
1000
0100
0110
,  // measure 14
0001
1000
0100
1100
,  // measure 15
0010
1000
0001
0011
,  // measure 16
0001
0010
1000
0010
,  // measure 17
0001
0010
0100
1001
,  // measure 18
0001
0001
0001
0010
,  // measure 19
1000
0010
0100
0000
,  // measure 20
1000
1000
1000
0010
,  // measure 21
0100
0001
0100
0000
,  // measure 22
0010
0010
0010
1000
,  // measure 23
0001
0010
0001
0000
,  // measure 24
0100
0100
0100
0001
,  // measure 25
0010
1000
0010
0000
,  // measure 26
2000
0100
0100
3100
,  // measure 27
0002
0100
0100
0103
,  // measure 28
0020
0100
0100
0130
,  // measure 29
0010
1000
0001
1001
,  // measure 30
2000
0010
0010
3010
,  // measure 31
0002
0010
0010
0013
,  // measure 32
0200
0010
0010
0310
,  // measure 33
0100
0001
1000
0110
,  // measure 34
1000
0010
1000
0100
,  // measure 35
0010
0000
0001
0000
0010
0000
1000
0010
,  // measure 36
0100
0001
0010
0100
,  // measure 37
1000
0010
1000
0000
,  // measure 38
0010
0100
0001
0010
,  // measure 39
0001
0000
1000
0000
0010
0000
0100
0001
,  // measure 40
0010
0001
1000
0100
,  // measure 41
1000
0010
0100
0000
,  // measure 42
0010
1000
0001
1000
,  // measure 43
0100
0000
0001
0000
0100
0000
0100
1000
,  // measure 44
0001
0010
1000
0100
,  // measure 45
0001
0100
0010
0000
,  // measure 46
0100
0001
1000
0010
,  // measure 47
0100
0000
0010
0000
1000
0000
0001
0010
,  // measure 48
0100
0001
1000
0001
,  // measure 49
0010
0100
1000
0000
,  // measure 50
0200
0001
0001
0301
,  // measure 51
0020
0001
0001
0031
,  // measure 52
2000
0001
0001
3001
,  // measure 53
0010
0100
1000
0110
,  // measure 54
0200
1000
1000
1300
,  // measure 55
0020
1000
1000
1030
,  // measure 56
0002
1000
1000
1003
,  // measure 57
0010
0100
0001
1001
,  // measure 58
0220
0000
0000
0000
,  // measure 59
0000
0000
0000
0330
;

//---------------dance-single - ----------------
#NOTES:
     dance-single:
     :
     Medium:
     8:
     :
// measure 1
0000
0000
0000
0000
,  // measure 2
0001
0000
1000
0000
0010
0000
0001
0010
,  // measure 3
0100
1100
0101
0000
,  // measure 4
1000
0000
1000
0001
0010
0000
0010
0100
,  // measure 5
0010
0000
0010
0100
1000
0000
0000
0000
,  // measure 6
1000
0000
0010
0000
0001
0000
0100
0010
,  // measure 7
1000
1010
0011
0000
,  // measure 8
0100
0000
0001
0100
0001
0000
1000
0010
,  // measure 9
0100
0000
0001
0100
1000
0000
0001
1000
,  // measure 10
0001
0100
0010
0000
,  // measure 11
1000
0001
0010
0000
,  // measure 12
0100
0001
1000
0001
,  // measure 13
0010
0001
0010
0100
1000
0000
0000
0000
,  // measure 14
0100
0100
0010
0000
,  // measure 15
1000
1000
0001
0000
,  // measure 16
0010
1000
0100
0001
,  // measure 17
0100
0010
1000
0100
1000
0000
1001
0000
,  // measure 18
1000
1000
1000
0000
,  // measure 19
0001
0001
0001
0000
,  // measure 20
0100
0001
0010
0001
,  // measure 21
0100
1000
0100
0000
,  // measure 22
0010
0010
0010
0000
,  // measure 23
0100
0100
0100
0000
,  // measure 24
0010
0001
0100
1000
,  // measure 25
0001
0010
0100
0110
,  // measure 26
0000
0001
0010
0001
0010
0001
0010
0000
,  // measure 27
0000
1000
0010
1000
0010
1000
0010
0000
,  // measure 28
0000
1000
0001
1000
0001
1000
0001
0000
,  // measure 29
0220
0000
0000
0330
,  // measure 30
0000
0001
0100
0001
0100
0001
0100
0000
,  // measure 31
0000
1000
0100
1000
0100
1000
0100
0000
,  // measure 32
0000
0010
0100
0010
0100
0010
0100
0000
,  // measure 33
2002
0000
0000
3003
,  // measure 34
0100
0001
1000
0100
,  // measure 35
1000
0010
1000
0001
0100
0000
0101
0000
,  // measure 36
0001
0100
0010
0100
,  // measure 37
0001
0100
1000
0100
0001
0000
1100
0000
,  // measure 38
0100
1000
0010
0100
,  // measure 39
0001
0010
0001
1000
0010
0000
1010
0000
,  // measure 40
1000
0100
0010
0100
,  // measure 41
1000
0100
0001
0100
1000
0000
0011
0000
,  // measure 42
1000
0000
0100
0010
0001
0000
0010
0100
,  // measure 43
1000
0000
0001
1000
0001
0000
0000
0000
,  // measure 44
0100
0000
0100
0010
1000
0000
1000
0100
,  // measure 45
0001
0000
0001
0010
0100
0000
0000
0000
,  // measure 46
0010
0000
0001
0100
0010
0000
1000
0010
,  // measure 47
0100
0000
0001
1000
0100
0000
0000
0000
,  // measure 48
0001
0000
0100
1000
0010
0000
0010
1000
,  // measure 49
0001
0000
0100
0010
1000
0000
0000
0000
,  // measure 50
0000
1000
0001
1000
0010
1000
0001
0000
,  // measure 51
0000
1000
0010
0100
0010
1000
0010
0000
,  // measure 52
0000
0100
0001
0100
0010
0100
0001
0000
,  // measure 53
0220
0000
0000
0330
,  // measure 54
0000
1000
0100
1000
0001
1000
0100
0000
,  // measure 55
0000
0010
0001
0100
0001
0010
0001
0000
,  // measure 56
0000
0100
0010
1000
0010
0100
0001
0000
,  // measure 57
2002
0000
0000
3003
,  // measure 58
0220
0000
0000
0000
,  // measure 59
0000
0000
0000
0330
;

//---------------dance-single - ----------------
#NOTES:
     dance-single:
     :
     Hard:
     12:
     :
// measure 1
0000
0000
0000
0000
,  // measure 2
0100
0010
0100
0001
1000
0000
1000
0100
,  // measure 3
0010
0001
0010
0100
1000
0000
0101
0101
,  // measure 4
0001
1000
0100
1000
0010
0100
0001
0010
,  // measure 5
0001
0100
1000
0100
0001
0000
1001
0000
,  // measure 6
0010
1000
0010
0100
0010
0000
0001
0010
,  // measure 7
0100
1000
0100
0010
0001
0000
1100
1100
,  // measure 8
0100
0010
0100
1000
0001
1000
0010
0100
,  // measure 9
0001
0100
1000
0100
0001
0000
0110
0100
,  // measure 10
0010
0000
0000
0100
0001
0000
1000
0000
0010
0000
0000
0000
1100
0000
0000
0000
,  // measure 11
0001
0000
0000
1000
0010
0000
0100
0000
0001
0000
0000
0000
1010
0000
0000
0000
,  // measure 12
0100
0001
0000
0000
0001
0100
0000
0000
0100
1000
0000
0000
1000
0100
0000
0000
,  // measure 13
0010
1000
0010
0000
0001
0000
0010
0000
0100
0000
0000
0000
0110
0000
0000
0000
,  // measure 14
0001
0000
0000
1000
0010
0000
0100
0000
0001
0000
0000
0000
1010
0000
1000
0000
,  // measure 15
0100
0000
0000
0001
0010
0000
0100
0000
1000
0000
0000
0000
0011
0000
0000
0000
,  // measure 16
0100
1000
0000
0000
1000
0100
0000
0000
0100
0001
0000
0000
0001
0100
0000
0000
,  // measure 17
0010
0001
0010
0000
1000
0000
0010
0000
0100
0000
0000
0000
0110
0000
0001
0000
,  // measure 18
0100
0000
0100
0000
0100
0000
0100
0001
,  // measure 19
1000
0010
1000
0100
1000
0000
1001
0000
,  // measure 20
0001
0000
0001
1000
0001
0000
0001
1000
,  // measure 21
0010
0100
0010
1000
0010
0000
0110
0000
,  // measure 22
0100
0000
0100
0000
0100
0000
0100
0001
,  // measure 23
0010
0100
0010
0001
0010
0000
0011
0000
,  // measure 24
0001
0000
0001
0100
0001
0000
0001
0100
,  // measure 25
1000
0010
1000
0001
1000
0000
1010
0000
,  // measure 26
0101
0000
0000
0001
0100
0000
0010
0000
0100
0000
0001
0000
0100
0000
0000
0000
,  // measure 27
1100
0000
0000
1000
0100
0000
0010
0000
0100
0000
1000
0000
0100
0000
0000
0000
,  // measure 28
1001
0000
0000
0001
1000
0000
0010
0000
0100
0000
0100
0000
0001
0000
0000
0000
,  // measure 29
1000
0010
1000
0100
1000
0000
0000
0000
,  // measure 30
1010
0000
0000
1000
0010
0000
1000
0000
0001
0000
1000
0000
0010
0000
0000
0000
,  // measure 31
0011
0000
0000
0010
0001
0000
0100
0000
0010
0000
0100
0000
0001
0000
0000
0000
,  // measure 32
0110
0000
0000
0010
1000
0000
0010
0000
0001
0000
0010
0000
1000
0000
0000
0000
,  // measure 33
1001
0000
0000
0010
0100
0000
0010
0000
1000
0000
1000
0000
0001
0000
0001
0000
,  // measure 34
0100
0000
0100
0010
1000
0000
0100
0010
,  // measure 35
0001
0010
0100
1000
0100
0000
0001
0001
,  // measure 36
0001
0000
0100
0010
1000
0000
0100
0010
,  // measure 37
0001
1000
0010
1000
0100
0000
0110
0000
,  // measure 38
0001
0000
0001
0100
0010
0000
1000
0010
,  // measure 39
0001
0010
1000
0010
0001
0000
1000
1000
,  // measure 40
1000
0000
0100
0010
0001
0000
1000
0100
,  // measure 41
1000
0010
0001
0100
1000
0000
1001
0000
,  // measure 42
0010
0001
0100
0010
1000
0000
0001
0100
,  // measure 43
0010
0010
1000
0100
0001
0000
1010
1010
,  // measure 44
0010
0100
0010
1000
0100
0010
0001
1000
,  // measure 45
0010
0010
1000
0100
1000
0000
0101
0000
,  // measure 46
1000
0100
0010
0001
0010
0000
0001
1000
,  // measure 47
0010
0100
0001
1000
0100
0000
0011
0011
,  // measure 48
0001
0001
0010
0100
1000
1000
0100
0010
,  // measure 49
0001
1000
0010
1000
0100
0000
1100
0000
,  // measure 50
0001
0000
0000
1000
0100
0000
0001
0000
1000
0000
0001
0000
0010
0000
0000
0000
,  // measure 51
1000
0000
0000
0100
0010
0000
1000
0000
0001
0000
0010
0000
0001
0000
0000
0000
,  // measure 52
1000
0000
0000
0100
1000
0000
0010
0000
0100
0000
0001
0000
0010
0000
0000
0000
,  // measure 53
1000
0001
0001
1000
0110
0000
0110
0000
,  // measure 54
0010
0000
0000
0100
0001
0000
0010
0000
0001
0000
1000
0000
0010
0000
0000
0000
,  // measure 55
0100
0000
0000
0001
0100
0000
0010
0000
1000
0000
0001
0000
0010
0000
0000
0000
,  // measure 56
0001
0000
0000
1000
0010
0000
0100
0000
0010
0000
1000
0000
0001
0000
0000
0000
,  // measure 57
0100
0100
0010
0010
1001
0000
1001
0000
,  // measure 58
0220
0000
0000
0000
,  // measure 59
0000
0000
0000
0330
;
