#TITLE:BOMBS OVER BROOKLYN;
#SUBTITLE:;
#ARTIST:BIG DATA;
#TITLETRANSLIT:;
#SUBTITLETRANSLIT:;
#ARTISTTRANSLIT:;
#CREDIT:;
#BANNER:BOMBS OVER BROOKLYN.png;
#BACKGROUND:BOMBS OVER BROOKLYN-bg.png;
#JACKET:BOMBS OVER BROOKLYN-jacket.png;
#LYRICSPATH:;
#CDTITLE:;
#MUSIC:BOMBS OVER BROOKLYN.mp3;
#OFFSET:-2.163;
#SAMPLESTART:63.040;
#SAMPLELENGTH:22.220;
#SELECTABLE:YES;
#DISPLAYBPM:122.000;
#BPMS:0.000=122.000;
#STOPS:;
#BGCHANGES:;

//---------------dance-single - ----------------
#NOTES:
     dance-single:
     :
     Beginner:
     2:
     :
// measure 1
0000
0000
0000
0000
,  // measure 2
0000
0000
0000
0000
,  // measure 3
0000
0000
0000
0000
,  // measure 4
0000
0000
0000
0000
,  // measure 5
0001
0000
0000
0000
,  // measure 6
1000
0000
0000
0000
,  // measure 7
0010
0000
0000
0000
,  // measure 8
0100
0000
0000
0000
,  // measure 9
0010
0000
0001
0000
,  // measure 10
0000
1000
0001
0100
,  // measure 11
0001
0000
0010
0000
,  // measure 12
0000
0001
1000
0100
,  // measure 13
1000
0000
0010
0000
,  // measure 14
0000
0010
1000
0001
,  // measure 15
0100
0000
0010
0000
,  // measure 16
0000
0001
0010
0100
,  // measure 17
1000
0000
0100
0000
,  // measure 18
1000
0000
0010
0000
,  // measure 19
0100
0000
0001
0000
,  // measure 20
0010
0000
0100
0000
,  // measure 21
0010
0000
0001
0000
,  // measure 22
1000
0000
0001
0000
,  // measure 23
1000
0000
0100
0000
,  // measure 24
0010
0000
0100
0000
,  // measure 25
0010
0000
0000
0000
,  // measure 26
0010
0000
0000
0000
,  // measure 27
0010
0000
0000
0000
,  // measure 28
0010
0000
0000
0000
,  // measure 29
0010
0000
0000
0000
,  // measure 30
0010
0000
0000
0000
,  // measure 31
0010
0000
0000
0000
,  // measure 32
0010
0010
0010
1000
,  // measure 33
0002
0000
0000
0203
,  // measure 34
0000
0000
0000
0301
,  // measure 35
2000
0000
0000
3200
,  // measure 36
0000
0000
0000
1300
,  // measure 37
0020
0000
0000
0230
,  // measure 38
0000
0000
0000
0310
,  // measure 39
0002
0000
0000
0023
,  // measure 40
0000
0000
0000
0031
,  // measure 41
2000
0000
0000
3020
,  // measure 42
0000
0000
0000
1030
,  // measure 43
0001
0000
0000
0000
,  // measure 44
1000
0000
0000
0000
,  // measure 45
0010
0000
0000
0000
,  // measure 46
0100
0000
0000
0000
,  // measure 47
1000
0000
0000
0000
,  // measure 48
0010
0000
0000
0000
,  // measure 49
0100
0000
0000
0000
,  // measure 50
0001
0000
0000
0000
,  // measure 51
1000
0000
0010
0000
,  // measure 52
1000
0000
0001
0000
,  // measure 53
0200
0000
0000
0000
,  // measure 54
0000
0000
0000
0300
,  // measure 55
0010
0000
1000
0000
,  // measure 56
0010
0000
0100
0000
,  // measure 57
0002
0000
0000
1000
,  // measure 58
2000
0000
0000
3003
,  // measure 59
0100
0000
0000
0000
,  // measure 60
0100
0000
0000
0000
,  // measure 61
0100
0000
0000
0000
,  // measure 62
0100
0000
0000
0000
,  // measure 63
0100
0000
0000
0000
,  // measure 64
0100
0000
0000
0000
,  // measure 65
0100
0000
0000
0000
,  // measure 66
0100
0100
0100
0001
;

//---------------dance-single - ----------------
#NOTES:
     dance-single:
     :
     Easy:
     4:
     :
// measure 1
0000
0000
0000
0000
,  // measure 2
0000
0000
0000
0000
,  // measure 3
0000
0000
0000
0000
,  // measure 4
0000
0000
0000
0000
,  // measure 5
0001
0001
0100
0010
,  // measure 6
1000
1000
0001
0100
,  // measure 7
0010
0010
1000
0001
,  // measure 8
0100
0100
0010
1000
,  // measure 9
0001
0100
0010
0000
,  // measure 10
0000
0010
1000
0001
,  // measure 11
0100
0001
0010
0000
,  // measure 12
0000
1000
0010
1000
,  // measure 13
0100
0010
0001
0000
,  // measure 14
0000
1000
0001
0010
,  // measure 15
0001
1000
0100
0000
,  // measure 16
0000
0100
0001
1000
,  // measure 17
0010
0000
1000
0000
,  // measure 18
0001
0000
0100
0010
,  // measure 19
0001
0000
0100
0000
,  // measure 20
1000
0010
0100
0010
,  // measure 21
1000
0000
0100
0000
,  // measure 22
0010
0000
1000
0010
,  // measure 23
0100
0000
0010
0000
,  // measure 24
0100
0001
1000
0001
,  // measure 25
1100
0000
0000
0000
,  // measure 26
0101
0000
0000
0000
,  // measure 27
0110
0000
0000
0000
,  // measure 28
1001
0000
0000
0000
,  // measure 29
0011
0000
0000
0000
,  // measure 30
1010
0000
0000
0000
,  // measure 31
1001
0000
0000
0000
,  // measure 32
0101
1100
0101
1010
,  // measure 33
0020
0000
0000
0230
,  // measure 34
0000
0000
0000
0301
,  // measure 35
0010
1000
0010
2200
,  // measure 36
0000
0000
3300
0010
,  // measure 37
0002
0000
0000
2003
,  // measure 38
0000
0000
0000
3010
,  // measure 39
0001
1000
0010
0022
,  // measure 40
0000
0000
0033
0100
,  // measure 41
0002
0000
0000
0203
,  // measure 42
0000
0010
1000
0301
,  // measure 43
0010
0010
1000
0001
,  // measure 44
1000
1000
0010
0100
,  // measure 45
0010
0010
0100
0001
,  // measure 46
0100
0100
1000
0010
,  // measure 47
1000
1000
0001
0010
,  // measure 48
0001
0001
0010
0100
,  // measure 49
0010
0010
0001
1000
,  // measure 50
0100
0100
0010
0001
,  // measure 51
0100
0001
0010
0001
,  // measure 52
1000
0010
1000
0100
,  // measure 53
0022
0000
0000
0000
,  // measure 54
0000
0000
0000
0033
,  // measure 55
1000
0010
1000
0001
,  // measure 56
0100
0010
1000
0100
,  // measure 57
2002
0000
0000
0000
0000
3000
0100
0000
,  // measure 58
0020
0000
0000
0033
,  // measure 59
0011
0000
0000
0000
,  // measure 60
1010
0000
0000
0000
,  // measure 61
0110
0000
0000
0000
,  // measure 62
1001
0000
0000
0000
,  // measure 63
0101
0000
0000
0000
,  // measure 64
1100
0000
0000
0000
,  // measure 65
1001
0000
0000
0000
,  // measure 66
0011
1010
0011
0110
;

//---------------dance-single - ----------------
#NOTES:
     dance-single:
     :
     Medium:
     8:
     :
// measure 1
0000
0000
0000
0000
,  // measure 2
0000
0000
0000
0000
,  // measure 3
0000
0000
0000
0000
,  // measure 4
0000
0000
0000
0000
,  // measure 5
0010
0000
1000
0000
0001
0000
0000
0000
1000
0010
0000
0100
0000
0001
0000
0000
,  // measure 6
0010
0000
0001
0000
1000
0000
0000
0000
0010
1000
0000
0001
0000
0100
0000
0000
,  // measure 7
0010
0000
0100
0000
0001
0000
0000
0000
1000
0001
0000
0100
0000
0010
0000
0000
,  // measure 8
0100
0000
0001
0000
1000
0000
0000
0000
1000
0001
0000
1000
0000
0100
0000
0000
,  // measure 9
0001
0100
0010
1000
,  // measure 10
0010
0000
0001
0100
0001
1000
0100
0000
,  // measure 11
0010
0001
1000
0001
0100
0000
0001
0000
,  // measure 12
1000
0000
0001
0010
0100
0010
0001
0000
,  // measure 13
0100
0010
1000
0010
,  // measure 14
0100
0000
1000
0010
0100
0010
1000
0000
,  // measure 15
0100
0000
0000
0001
1000
0000
0000
0000
0001
0000
0000
0000
1000
0000
0000
0000
,  // measure 16
0010
0000
0100
0001
1000
0010
1000
0000
,  // measure 17
0100
0000
0000
0001
0100
0000
0000
1000
,  // measure 18
0001
0000
0000
0010
0001
0000
0100
0010
,  // measure 19
1000
0000
0000
1000
0100
0000
0000
0001
,  // measure 20
0002
0010
1000
0103
,  // measure 21
0010
0000
0000
0100
0010
0000
0000
0001
,  // measure 22
0010
0000
0000
0010
0100
0000
0100
0010
,  // measure 23
0001
0000
0000
0001
0100
0000
0000
1000
,  // measure 24
2000
0010
0001
3100
,  // measure 25
0011
0001
0000
1000
,  // measure 26
1100
0001
0000
0010
,  // measure 27
1001
0100
0000
0001
,  // measure 28
0110
0100
0000
1000
,  // measure 29
1010
0010
0000
0100
,  // measure 30
0101
0001
0000
0010
,  // measure 31
1001
1000
0000
0001
,  // measure 32
0011
0000
1010
0000
0011
0000
0100
1000
,  // measure 33
0020
0000
0000
0000
0000
0130
0002
0000
,  // measure 34
0000
0000
0000
0000
0000
0000
1003
0100
,  // measure 35
0010
0001
1000
2200
,  // measure 36
0000
0000
0000
0000
0000
3300
0001
0010
,  // measure 37
0002
0000
0000
0000
0000
0013
0200
0000
,  // measure 38
0000
0000
0000
1300
,  // measure 39
0001
0010
0000
1001
0000
1000
0200
0000
,  // measure 40
0000
0020
0000
0000
0330
0001
0100
0010
,  // measure 41
2000
0000
0000
0000
0000
3010
0200
0000
,  // measure 42
0000
0000
0001
0000
0010
0000
0301
0001
,  // measure 43
1000
0000
0100
0000
0010
0000
0000
0000
1000
0001
0000
0100
0000
0001
0000
0000
,  // measure 44
0010
0000
0001
0000
1000
0000
0000
0000
0100
0010
0000
0100
0000
1000
0000
0000
,  // measure 45
0001
0000
0100
0000
0010
0000
0000
0000
0100
0010
0000
1000
0000
0100
0000
0000
,  // measure 46
0010
0001
1000
0000
0010
0100
0001
0100
,  // measure 47
0010
0000
1000
0000
0100
0000
0000
0000
0100
0010
0000
0100
0000
0010
0000
0000
,  // measure 48
0001
0000
0010
0000
0100
0000
0000
0000
1000
0010
0000
1000
0000
0100
0000
0000
,  // measure 49
0010
0000
0100
0000
0001
0000
0000
0000
0001
0010
0000
0100
0000
1000
0000
0000
,  // measure 50
2000
0000
0000
0002
0000
3003
0100
0010
,  // measure 51
0001
0100
1000
0100
,  // measure 52
0001
0000
0010
0000
0100
0000
0010
0002
,  // measure 53
0000
0100
0000
0013
,  // measure 54
1000
0000
1000
0000
0100
0010
0100
0000
,  // measure 55
1000
0001
0100
0010
,  // measure 56
1000
0000
0001
0000
0010
0000
0100
0020
,  // measure 57
0000
0000
0001
0000
0000
0100
0130
0000
,  // measure 58
0002
0000
0000
0020
0000
0033
0100
1000
,  // measure 59
0100
0010
0001
0010
,  // measure 60
0100
0000
0010
0000
0001
0000
1000
2000
,  // measure 61
0000
0100
0000
3001
,  // measure 62
0010
0000
0001
0000
1000
0010
0100
0000
,  // measure 63
0001
0010
0100
0001
,  // measure 64
1000
0000
0010
0000
0100
0000
0001
0200
,  // measure 65
0000
0000
0010
0000
0000
0001
0301
0000
,  // measure 66
1100
0101
1100
1001
;

//---------------dance-single - ----------------
#NOTES:
     dance-single:
     :
     Hard:
     12:
     :
// measure 1
0000
0000
0000
0000
,  // measure 2
0000
0000
0000
0000
,  // measure 3
0000
0000
0000
0000
,  // measure 4
0000
0000
0000
0000
,  // measure 5
1000
0000
0001
0000
0100
0000
0001
0000
1000
0010
0000
0100
0000
0001
0100
0010
,  // measure 6
0100
0000
0010
0000
1000
0000
0100
0000
0010
0001
0000
0010
0000
0001
0100
0001
,  // measure 7
0010
0000
0100
0000
1000
0000
0001
0000
0100
0010
0000
1000
0000
0001
0010
0100
,  // measure 8
1000
0000
0001
0000
0001
0000
1000
0000
0100
0010
0000
0100
0000
0010
0001
1000
,  // measure 9
0001
0100
1000
0100
0001
0000
0101
0000
,  // measure 10
1001
0000
1000
0010
1000
0100
0010
0000
,  // measure 11
0001
0010
0001
1000
0010
0000
0110
0000
,  // measure 12
1010
0000
0010
1000
0100
0010
0100
0000
,  // measure 13
1000
0010
0001
0010
1000
0000
1001
0000
,  // measure 14
0011
0000
0001
0100
1000
0100
0001
0000
,  // measure 15
0100
0000
0000
0010
1000
0000
0000
1000
0100
0000
0000
0000
0110
0000
0000
0000
,  // measure 16
1100
0000
0001
1000
0001
0010
0100
0000
,  // measure 17
0110
0000
0000
0100
0010
0001
0000
0001
,  // measure 18
0100
0000
0010
0000
0000
0000
1000
0000
0001
0000
1000
0100
0000
0100
0010
0000
,  // measure 19
0101
0000
0000
1000
0100
1000
0000
0100
,  // measure 20
0012
0000
0010
0000
1000
0000
0103
0010
,  // measure 21
1001
0000
0000
0010
1000
0001
0000
0100
,  // measure 22
0001
0000
1000
0000
0000
0000
0001
0000
0100
0000
0100
0010
0000
0010
1000
0000
,  // measure 23
1100
0000
0000
0010
0001
0100
0000
0100
,  // measure 24
2010
0000
0010
0000
0001
0000
3100
0100
,  // measure 25
0110
0010
1000
0100
0000
0100
0010
0001
,  // measure 26
1001
0000
0010
0000
0100
0001
1000
0100
,  // measure 27
0011
0001
0100
0001
0000
0010
0100
1000
,  // measure 28
1100
0000
0001
0000
0100
0001
0100
1000
,  // measure 29
1010
1000
0001
1000
0000
0100
0001
0010
,  // measure 30
0101
0000
1000
0000
0100
0010
1000
0001
,  // measure 31
0011
0001
0100
0010
0000
1000
0001
1000
,  // measure 32
1100
0000
0101
0000
1010
1000
1000
1000
,  // measure 33
0001
0100
0001
0010
0000
1000
0010
0000
,  // measure 34
1000
0000
0001
0000
1000
0000
0100
0000
0000
0000
0100
0000
0010
0001
0010
0000
,  // measure 35
1000
0100
0000
0110
0000
0010
0100
0000
,  // measure 36
0010
0100
1000
0100
0010
0000
0001
0000
0000
0000
0100
0000
0100
0000
0100
0000
,  // measure 37
0010
0001
1000
0001
0000
0100
0010
0000
,  // measure 38
1000
0000
0100
0000
0001
0000
0100
0000
0000
0000
0010
0000
1000
0001
1000
0000
,  // measure 39
0010
0101
0000
0110
0000
1010
0010
0000
,  // measure 40
0001
0000
1000
0010
1000
0001
0010
0100
1000
0000
0001
0000
0001
0000
0001
0000
,  // measure 41
0010
1000
0010
0100
0000
0001
0010
0000
,  // measure 42
1001
0000
0000
0000
1000
0100
1000
0000
0001
0000
0010
0000
0001
0000
0100
0000
,  // measure 43
0010
0000
0100
0000
0001
0000
0010
0000
0100
0001
0000
1000
0000
0010
0100
0001
,  // measure 44
0100
0000
0010
0000
0100
0000
0001
0000
0100
0010
0000
1000
0000
0010
0100
0010
,  // measure 45
0100
0000
0001
0000
1000
0000
0100
0000
0010
0100
0000
0001
0000
0010
0001
1000
,  // measure 46
0100
0010
0010
0100
0010
0100
0001
1000
,  // measure 47
0100
0000
1000
0000
0010
0000
1000
0000
0001
0100
0000
0010
0000
1000
0010
0100
,  // measure 48
0010
0000
0100
0000
0001
0000
1000
0000
0100
0010
0000
0010
0000
1000
0001
1000
,  // measure 49
0100
0000
0010
0000
0001
0000
0100
0000
0010
1000
0000
0001
0000
1000
0100
0010
,  // measure 50
0001
0000
1000
0000
1000
0000
0001
0000
0010
0100
0000
0010
0000
0100
0010
0001
,  // measure 51
1000
1000
0000
0000
0001
0001
0000
0000
0100
0100
0000
0000
0001
0001
0000
0000
,  // measure 52
0010
0010
0000
0000
1000
1000
0000
0000
0001
0001
0000
0000
0100
0010
0220
0000
,  // measure 53
0000
0000
0000
0330
,  // measure 54
0001
1000
0010
1000
0100
1000
0001
0100
,  // measure 55
0010
0100
0000
0000
1000
0001
0000
0000
0010
1000
0000
0000
0001
0100
0000
0000
,  // measure 56
0010
0001
0000
0000
1000
0010
0000
0000
0100
0010
0000
0000
1000
0001
2002
0000
,  // measure 57
0000
0000
0000
0000
0003
0010
3100
0000
,  // measure 58
0010
0001
1000
0010
0100
0000
0002
0000
0000
0000
0000
0000
1003
0010
0100
0010
,  // measure 59
1000
0100
0000
0000
0001
0100
0000
0000
1000
0010
0000
0000
0001
0010
0000
0000
,  // measure 60
0001
1000
0000
0000
0010
0100
0000
0000
1000
0100
0000
0000
0010
0001
0022
0000
,  // measure 61
0000
0000
0000
0033
,  // measure 62
0100
0010
1000
0010
0001
0010
0100
1000
,  // measure 63
0100
0010
0000
0000
0010
0001
0000
0000
0010
0100
0000
0000
1000
0100
0000
0000
,  // measure 64
0100
1000
0000
0000
0001
0100
0000
0000
0010
0100
0000
0000
1000
0100
2200
0000
,  // measure 65
0000
0000
0000
0000
0300
0010
3001
0000
,  // measure 66
0101
1010
1001
0110
;
