#TITLE:Black Rock Shooter;
#SUBTITLE:;
#ARTIST:Hatsune Miku;
#TITLETRANSLIT:;
#SUBTITLETRANSLIT:;
#ARTISTTRANSLIT:;
#GENRE:;
#CREDIT:;
#BANNER:Black Rock Shooter.png;
#BACKGROUND:Black Rock Shooter-bg.png;
#LYRICSPATH:;
#CDTITLE:;
#MUSIC:Black Rock Shooter.mp3;
#OFFSET:-0.123000;
#SAMPLESTART:59.419998;
#SAMPLELENGTH:14.280000;
#SELECTABLE:YES;
#DISPLAYBPM:165.000000;
#BPMS:0.000000=164.979996;
#STOPS:;
#BGCHANGES:;
#KEYSOUNDS:;
#ATTACKS:;

//---------------dance-single - ----------------
#NOTES:
     dance-single:
     :
     Beginner:
     3:
     :
// measure 0
0000
0000
0000
0002
,  // measure 1
0000
0000
0003
0020
,  // measure 2
0000
0000
0030
2000
,  // measure 3
0000
0000
3000
0200
,  // measure 4
0300
0002
0003
0020
,  // measure 5
0000
0000
0030
2000
,  // measure 6
0000
0000
3000
0002
,  // measure 7
0000
0000
0003
0200
,  // measure 8
0000
0000
0000
0301
,  // measure 9
0000
1000
0000
0100
,  // measure 10
0000
1000
0000
0001
,  // measure 11
0000
0010
0000
0100
,  // measure 12
0000
1000
0000
0001
,  // measure 13
0000
0010
0000
2000
,  // measure 14
0000
0010
0000
3002
,  // measure 15
0000
0010
0000
0100
,  // measure 16
0000
1000
0003
0100
,  // measure 17
0000
0010
0000
1000
,  // measure 18
0000
0010
0000
0100
,  // measure 19
0000
0001
0000
1000
,  // measure 20
0000
0010
0000
1000
,  // measure 21
0000
0100
0000
0020
,  // measure 22
0000
0001
0000
0230
,  // measure 23
0000
0010
0000
1000
,  // measure 24
0000
0010
0000
0301
,  // measure 25
0000
0010
0000
0001
,  // measure 26
0000
0100
0000
0020
,  // measure 27
0000
0100
0000
2000
,  // measure 28
0000
0000
3030
0100
,  // measure 29
0000
0010
0000
1000
,  // measure 30
0000
0010
0000
2200
,  // measure 31
0000
0000
0000
0000
,  // measure 32
0000
0000
3300
1000
,  // measure 33
0000
0001
0000
0001
,  // measure 34
0000
1000
0000
0020
,  // measure 35
0000
0100
0000
0230
,  // measure 36
0000
0010
0000
1300
,  // measure 37
0000
0010
0000
0100
,  // measure 38
0000
0001
0000
2002
,  // measure 39
0000
0000
0000
3003
,  // measure 40
0000
0000
0000
0101
,  // measure 41
0000
0011
0000
1010
,  // measure 42
0000
1100
0000
0100
,  // measure 43
0000
0010
0000
0002
,  // measure 44
0000
0000
0003
1000
,  // measure 45
0000
0100
0000
1000
,  // measure 46
0000
0010
0000
1000
,  // measure 47
0000
0001
0000
0200
,  // measure 48
0000
0000
0300
1100
,  // measure 49
0000
0011
0000
1010
,  // measure 50
0000
0101
0000
0001
,  // measure 51
0000
0100
0000
0020
,  // measure 52
0000
0000
0030
1000
,  // measure 53
0000
0100
0000
0010
,  // measure 54
0000
0001
0000
0010
,  // measure 55
0000
0100
0000
2000
,  // measure 56
0000
0000
3000
0100
,  // measure 57
0000
0010
0000
0001
,  // measure 58
0000
0010
0000
0220
,  // measure 59
0000
0000
0000
0000
,  // measure 60
0000
0000
0000
0330
;

//---------------dance-single - ----------------
#NOTES:
     dance-single:
     :
     Easy:
     5:
     :
// measure 0
0000
0000
0000
2000
,  // measure 1
0000
0000
0000
3020
,  // measure 2
0000
0000
0130
0002
,  // measure 3
0000
0000
0000
0103
,  // measure 4
0010
1000
0001
0020
,  // measure 5
0000
0000
0000
2030
,  // measure 6
0000
0000
3010
0002
,  // measure 7
0000
0000
0000
0200
,  // measure 8
0000
0000
0303
1001
,  // measure 9
0010
0001
1000
0001
,  // measure 10
0100
0010
0001
2000
,  // measure 11
0000
3010
0000
0002
,  // measure 12
0000
0103
0000
0110
,  // measure 13
1000
0010
1000
0001
,  // measure 14
0010
0100
1000
1100
,  // measure 15
0101
1100
0101
0210
,  // measure 16
0010
0010
0310
1001
,  // measure 17
0002
0000
0103
0010
,  // measure 18
1000
0100
0001
0200
,  // measure 19
0000
1300
0000
0002
,  // measure 20
0000
0013
0100
0001
,  // measure 21
0000
0010
1000
0100
,  // measure 22
0001
0100
1000
0011
,  // measure 23
1010
0011
1010
2000
,  // measure 24
0000
3002
0000
0203
,  // measure 25
0000
0020
0330
0100
,  // measure 26
0001
0010
0100
1000
,  // measure 27
0100
1000
0010
2000
,  // measure 28
0000
0000
0000
3010
,  // measure 29
0001
1000
0000
0100
,  // measure 30
0001
0010
0100
0020
,  // measure 31
0000
0000
0000
0200
,  // measure 32
0000
0000
0330
0001
,  // measure 33
0010
0001
0100
0010
,  // measure 34
1000
0100
0001
0200
,  // measure 35
0000
0310
0000
0002
,  // measure 36
0000
1003
0000
1000
,  // measure 37
0001
0100
0010
0200
,  // measure 38
0000
0302
0000
2000
,  // measure 39
0000
0000
0000
3003
,  // measure 40
0000
0220
0000
0000
0330
0000
0101
0000
,  // measure 41
0000
0011
0000
1010
,  // measure 42
0000
1100
0000
0100
,  // measure 43
0001
0010
0001
2000
,  // measure 44
3200
0320
0032
0013
,  // measure 45
0000
0100
0000
0010
,  // measure 46
0000
0001
0000
1000
,  // measure 47
0010
0100
0001
2002
,  // measure 48
0000
0000
3003
1100
,  // measure 49
0000
0011
0000
1010
,  // measure 50
0000
0101
0100
0001
,  // measure 51
0010
1000
0010
0200
,  // measure 52
0302
2003
3020
0130
,  // measure 53
1000
0001
0010
0001
,  // measure 54
0100
0010
1000
0020
,  // measure 55
0000
0000
0000
2030
,  // measure 56
0000
0000
3001
0010
,  // measure 57
0001
1000
0001
0200
,  // measure 58
0000
0310
0002
2000
,  // measure 59
0000
0000
3003
0000
,  // measure 60
0100
0001
0010
0110
;

//---------------dance-single - ----------------
#NOTES:
     dance-single:
     :
     Medium:
     10:
     :
// measure 0
0000
0000
0000
0010
,  // measure 1
0100
0000
0001
1000
0100
1000
0001
0000
,  // measure 2
1000
0000
0001
0100
0010
0100
0001
0000
,  // measure 3
1000
0000
1000
0100
0001
0100
1000
0000
,  // measure 4
0100
0010
0001
0010
,  // measure 5
0100
0000
1000
0100
1000
0010
0100
0000
,  // measure 6
0010
0000
0010
1000
0001
0010
0120
0000
,  // measure 7
0000
0100
0000
0000
0130
0000
0001
0000
,  // measure 8
0010
0100
1000
1100
,  // measure 9
0001
0000
0100
0010
1000
0000
1000
0000
,  // measure 10
0100
0000
0010
0001
1000
0000
0010
1000
,  // measure 11
0000
1000
0001
0000
0000
0010
0001
1000
,  // measure 12
0000
0010
0100
0000
1000
0000
0101
0000
,  // measure 13
0001
0000
1000
0001
0100
0000
0010
0000
,  // measure 14
0001
0000
0100
0001
1000
0000
1010
0000
,  // measure 15
0011
1010
0011
1100
,  // measure 16
0101
1100
0101
0110
,  // measure 17
0100
0000
0001
0010
1000
0000
0001
0000
,  // measure 18
0100
0000
0010
1000
0100
0000
0001
0010
,  // measure 19
0000
0010
0100
0000
0011
0000
1000
0010
,  // measure 20
0000
1000
0000
0001
0100
0010
0100
0000
,  // measure 21
0010
1000
0000
0001
0100
0000
1000
0000
,  // measure 22
0010
0001
0000
0010
0100
0000
0001
0000
,  // measure 23
1000
0001
0000
1010
0000
0100
0001
0100
,  // measure 24
0000
1000
0100
0000
0010
1000
0001
0000
,  // measure 25
0010
0000
1000
0010
0001
0000
0010
0000
,  // measure 26
0100
0000
1000
0001
0100
0000
0100
0001
,  // measure 27
0010
0000
1000
0001
0100
0000
0010
0000
,  // measure 28
1000
0000
0010
0000
0100
0001
0100
0010
,  // measure 29
0100
1000
0100
0000
0001
1000
0010
0000
,  // measure 30
0100
0001
0010
0000
1000
0000
0100
0000
,  // measure 31
0100
0010
0000
0010
0001
0000
0100
0001
,  // measure 32
1000
1000
0001
0001
0100
0000
0010
0000
,  // measure 33
0100
0010
1000
0000
0001
0000
0010
0000
,  // measure 34
0100
0000
1000
0100
0001
0000
1000
0010
,  // measure 35
0000
0100
0010
0000
0001
0010
0100
0010
,  // measure 36
0000
0100
1000
0000
1001
0000
0100
0010
,  // measure 37
0001
0000
1000
0000
0001
0010
1000
0000
,  // measure 38
0001
0100
0010
0100
,  // measure 39
0001
0010
0000
0001
1000
0000
0110
0000
,  // measure 40
0000
1000
0000
0001
0001
0000
0100
0000
,  // measure 41
0100
0010
0010
0001
,  // measure 42
0001
0000
1000
0000
1000
0100
0010
0000
,  // measure 43
0001
0100
0000
0010
0001
1000
1100
0000
,  // measure 44
0101
0000
1010
0000
0011
0010
0100
0000
,  // measure 45
0000
0100
0010
0000
0000
0001
1000
0000
,  // measure 46
0000
1000
0001
0000
0100
0000
0010
1000
,  // measure 47
0001
0010
0000
0100
0000
0001
2000
0000
,  // measure 48
3200
0320
0032
0103
,  // measure 49
0100
0010
0010
1000
,  // measure 50
1000
0000
0001
0000
0001
0100
0010
0000
,  // measure 51
1000
0001
0000
0010
0001
1000
0101
0000
,  // measure 52
1100
1010
0011
1000
,  // measure 53
0001
0010
0000
0001
0100
0010
0100
0000
,  // measure 54
0001
0100
0001
1000
0001
0010
0100
0000
,  // measure 55
0001
1000
0010
2002
,  // measure 56
0000
0003
3100
1000
,  // measure 57
0001
0100
0000
1000
0010
0100
0010
0000
,  // measure 58
0001
1000
0100
0001
0100
1000
0011
0000
,  // measure 59
0000
1010
0000
0000
1001
0000
0000
0001
,  // measure 60
1000
0010
0100
0000
0010
0000
0110
0000
;

//---------------dance-single - ----------------
#NOTES:
     dance-single:
     :
     Hard:
     15:
     :
// measure 0
0000
0000
0000
0000
2000
0000
3010
0100
,  // measure 1
0001
0000
1000
0100
1000
0000
0010
0000
0100
0000
0000
0000
0010
1000
0010
0000
,  // measure 2
0100
0000
0010
0100
0010
0000
1000
0000
0100
0000
1000
0000
0001
0000
0010
0000
,  // measure 3
0100
0000
1000
0001
1000
0000
0010
0000
0001
0000
0010
0000
0100
0000
0000
0100
,  // measure 4
1000
0000
0000
1000
0001
0000
0000
0001
0010
0000
0000
0100
0010
0000
1000
0000
,  // measure 5
0100
0000
0010
0001
0010
0000
0100
0000
1000
0000
0010
0000
1000
0000
0001
0000
,  // measure 6
0100
0000
0001
0010
0001
0000
0010
0000
0100
0000
1000
0000
0010
0000
0100
0000
,  // measure 7
0001
0000
0100
0000
0010
0000
0100
0000
0010
0000
0001
0000
1000
0100
1000
0010
,  // measure 8
0100
0000
0010
0000
0001
1000
0001
0100
0010
1000
0100
0000
0110
0000
0000
0000
,  // measure 9
0001
0100
0010
0100
0001
1000
0100
0010
,  // measure 10
0100
0000
1000
0100
1000
0000
0001
0000
1000
0000
0010
0000
0100
0000
0010
0000
,  // measure 11
1000
0100
0001
0100
1000
0001
0100
0001
,  // measure 12
0010
0000
0100
0000
0010
0001
0000
0001
1000
0000
0100
0000
0100
0000
0010
0000
,  // measure 13
0001
1000
0001
0100
0010
1000
0010
0100
,  // measure 14
0001
0000
0010
0100
0010
0000
0001
0000
0100
0000
0010
0000
1000
0000
1000
0000
,  // measure 15
0001
0001
0100
0100
0010
0010
0001
0010
,  // measure 16
0100
0000
1000
0100
0010
0000
0100
0010
0001
0000
0010
0001
1000
0000
0010
0000
,  // measure 17
1000
0001
0100
1000
0100
0001
0010
0100
,  // measure 18
1000
0000
0010
0001
0010
0000
0100
0000
0010
0000
0001
0000
0010
0000
0100
0000
,  // measure 19
0010
0001
1000
0010
0100
0010
0001
0010
,  // measure 20
0100
0000
0010
0000
1000
0010
0000
0100
0001
0000
0100
0000
0010
0000
0100
0000
,  // measure 21
0001
0100
1000
0001
1000
0100
1000
0010
,  // measure 22
0100
0000
0001
0010
0001
0000
0100
0000
0010
0000
1000
0000
0100
0000
0010
0000
,  // measure 23
0100
0000
0010
0000
1000
0000
0001
0000
1000
0000
0001
0000
1000
0100
1000
0100
,  // measure 24
1000
0000
0010
0001
0010
0001
0010
0000
0001
1000
0001
0000
0100
0000
0001
0000
,  // measure 25
0010
0000
0100
1000
0100
0000
0010
0000
0100
0000
0001
0000
0100
0000
0010
0000
,  // measure 26
1000
0000
0001
0100
0001
0000
0010
0000
1000
0000
0001
0000
1000
0000
0100
0010
,  // measure 27
0001
0000
0100
0000
0001
0000
0010
0100
1000
0000
0010
0000
0001
0000
0100
0000
,  // measure 28
0010
0100
0001
1000
0100
1000
0001
0010
,  // measure 29
0100
0000
0010
0001
0010
0000
1000
0000
0010
0000
1000
0000
0001
0100
0010
0000
,  // measure 30
1000
0000
0001
0100
0010
0000
0100
0000
0010
0000
0001
0000
1100
0000
0000
0100
,  // measure 31
1000
0000
0011
0000
0000
0010
0001
0000
0110
0000
0000
0010
0100
0000
0010
0000
,  // measure 32
1000
0000
0100
0000
1000
0000
0001
0000
0100
0010
1000
0100
1000
0000
0100
0000
,  // measure 33
0001
0000
0100
0010
0100
0000
0001
0000
0010
0000
0100
0000
0010
0000
0001
0000
,  // measure 34
1000
0000
0001
1000
0001
0000
0100
0000
0001
0000
1000
0000
0100
0000
0010
0000
,  // measure 35
0001
0000
0001
0000
1000
0000
1000
0000
0001
0000
0001
0000
0100
0010
1000
0000
,  // measure 36
0001
0000
1000
0000
0010
0000
0100
0000
0010
1000
0001
1000
0100
0000
0010
0000
,  // measure 37
1000
0001
0010
0100
1000
0100
0010
0001
,  // measure 38
0100
0000
0001
0000
1000
0000
0100
0000
0010
0000
0001
0000
0100
0000
0000
0010
,  // measure 39
1000
0000
0010
0000
1000
0100
1000
0010
0100
0001
0010
0001
0200
0000
0000
0000
,  // measure 40
0000
0010
0000
0010
0310
0000
1000
0100
,  // measure 41
1000
0100
0010
1000
0010
1000
0001
0010
,  // measure 42
0001
0010
0100
1000
0100
1000
0010
0100
,  // measure 43
0001
0000
0100
0000
0000
0000
0001
0000
1000
0000
0001
0000
0200
0000
0000
0310
,  // measure 44
2000
0000
0000
3100
0002
0000
0000
1003
0020
0000
0000
0100
0130
0000
0001
0000
,  // measure 45
1000
0001
0100
0000
1000
0100
0010
0100
,  // measure 46
1000
0010
0100
0000
0100
0001
1000
0010
,  // measure 47
1000
0000
0101
0000
0000
0000
1100
0000
0000
0000
1001
0000
0100
0000
0000
0010
,  // measure 48
1000
0000
0000
1000
0001
0000
0000
0001
0010
0000
0000
0100
1000
0000
0100
0000
,  // measure 49
0010
0100
0001
1000
0010
1000
0001
0100
,  // measure 50
1000
0100
0010
0001
0100
1000
0100
0010
,  // measure 51
0100
0000
0001
0000
0000
0000
0100
0000
0010
0000
1000
0000
0200
0000
0000
1300
,  // measure 52
0002
0000
0000
0013
2000
0000
0000
3100
0020
0000
0000
0001
0031
0000
1000
0000
,  // measure 53
0001
0100
0001
0100
1000
0100
0010
0000
,  // measure 54
0100
0010
0100
0001
1000
0100
1000
0010
,  // measure 55
0001
1000
0100
1000
0001
0100
1000
0100
,  // measure 56
0010
0001
0010
0100
1000
0010
0001
0100
,  // measure 57
0001
1000
0010
0100
0010
0001
0010
0000
,  // measure 58
1001
0001
0100
0010
1000
0100
1100
0000
,  // measure 59
0001
0101
0000
1000
1001
0001
0000
1000
,  // measure 60
0100
1000
1010
0000
0011
0000
0110
0000
;
