#TITLE:BLACK MOONLIGHT;
#SUBTITLE:;
#ARTIST:DURAN DURAN;
#TITLETRANSLIT:;
#SUBTITLETRANSLIT:;
#ARTISTTRANSLIT:;
#GENRE:;
#CREDIT:;
#BANNER:BLACK MOONLIGHT.png;
#BACKGROUND:BLACK MOONLIGHT-bg.png;
#LYRICSPATH:;
#CDTITLE:;
#MUSIC:BLACK MOONLIGHT.mp3;
#OFFSET:-2.054;
#SAMPLESTART:63.071;
#SAMPLELENGTH:15.000;
#SELECTABLE:YES;
#BPMS:0.000=118.000;
#STOPS:;
#BGCHANGES:;
#KEYSOUNDS:;
#ATTACKS:;

//---------------dance-single - ----------------
#NOTES:
     dance-single:
     :
     Beginner:
     2:
     :
// measure 0
0000
0000
0000
0000
,  // measure 1
0000
0000
0000
0000
,  // measure 2
0000
0000
0000
0000
,  // measure 3
0000
0000
0000
0000
,  // measure 4
1000
0000
1000
0000
,  // measure 5
1000
0000
1000
0000
,  // measure 6
0020
0000
0000
0000
,  // measure 7
0230
0000
0000
0000
,  // measure 8
0301
0000
0001
0000
,  // measure 9
0001
0000
0001
0000
,  // measure 10
2000
0000
0000
0000
,  // measure 11
3002
0000
0000
1003
,  // measure 12
0110
0000
0000
0000
,  // measure 13
0010
0000
0100
0000
,  // measure 14
1001
0000
0000
0000
,  // measure 15
1000
0000
0001
0000
,  // measure 16
0110
0000
0000
0000
,  // measure 17
0001
0000
1000
0000
,  // measure 18
1001
0000
0000
0000
,  // measure 19
0100
0000
0010
0000
,  // measure 20
1010
0000
0000
0000
,  // measure 21
0010
0000
1000
0000
,  // measure 22
0101
0000
0000
0000
,  // measure 23
0001
0000
0100
0000
,  // measure 24
0011
0000
0000
0000
,  // measure 25
0010
0000
0001
0000
,  // measure 26
1100
0000
0000
0000
,  // measure 27
1000
0000
0100
0000
,  // measure 28
0210
0000
0320
0000
,  // measure 29
0230
0000
0320
0000
,  // measure 30
2030
0000
0000
0000
,  // measure 31
3200
0000
0000
0000
,  // measure 32
0320
0000
0000
0000
,  // measure 33
0032
0000
0000
0000
,  // measure 34
0023
0000
0000
0000
,  // measure 35
0230
0000
0000
0000
,  // measure 36
2300
0000
0000
0000
,  // measure 37
0002
0000
3003
0000
,  // measure 38
0110
0000
0000
0000
,  // measure 39
0010
0000
1000
0001
,  // measure 40
1001
0000
0000
0000
,  // measure 41
0001
0000
0100
0010
,  // measure 42
0110
0000
0000
0000
,  // measure 43
1000
0000
0010
0100
,  // measure 44
1001
0000
0000
0000
,  // measure 45
0100
0000
0001
1000
,  // measure 46
0011
0000
0000
0000
,  // measure 47
0100
0000
0001
0010
,  // measure 48
1100
0000
0000
0000
,  // measure 49
0010
0000
0100
0001
,  // measure 50
1010
0000
0000
0000
,  // measure 51
0001
0000
1000
0010
,  // measure 52
0101
0000
0000
0000
,  // measure 53
0001
0000
1000
0100
,  // measure 54
0020
0000
0000
0000
,  // measure 55
0031
0100
0000
0100
,  // measure 56
0002
0000
0000
0000
,  // measure 57
0103
0010
0000
1000
,  // measure 58
0200
0000
0000
0000
,  // measure 59
1300
0001
0000
0001
,  // measure 60
2000
0000
0000
0000
,  // measure 61
3100
0010
0000
0001
,  // measure 62
2002
0000
0000
0000
,  // measure 63
0000
0000
0000
0000
0000
0000
0000
3003
;

//---------------dance-single - ----------------
#NOTES:
     dance-single:
     :
     Easy:
     4:
     :
// measure 0
0000
0000
0000
0000
,  // measure 1
0000
0000
0000
0000
,  // measure 2
0000
0000
0000
0000
,  // measure 3
0000
0000
0000
0000
,  // measure 4
0001
0010
0001
0000
,  // measure 5
1000
0010
1000
0000
,  // measure 6
0020
0000
0000
0000
,  // measure 7
0230
0000
0000
0000
,  // measure 8
0301
0100
0001
0000
,  // measure 9
1000
0100
1000
0000
,  // measure 10
2000
0000
0000
0000
,  // measure 11
3002
0000
0000
0100
,  // measure 12
0013
0000
1000
0000
,  // measure 13
0001
0010
0100
1000
,  // measure 14
0100
0000
0010
0000
,  // measure 15
0100
1000
0010
0001
,  // measure 16
0100
0000
0001
0000
,  // measure 17
1000
0100
0010
0001
,  // measure 18
0010
0000
0100
0000
,  // measure 19
0010
1000
0100
0001
,  // measure 20
0010
0000
0100
0000
,  // measure 21
1000
0010
0001
0010
,  // measure 22
1000
0000
0010
0000
,  // measure 23
1000
0100
0001
0100
,  // measure 24
1000
0000
0001
0000
,  // measure 25
0010
0001
1000
0001
,  // measure 26
0100
0000
1000
0000
,  // measure 27
0010
1000
0001
1000
,  // measure 28
1200
0000
0000
0300
1020
0000
0000
0030
,  // measure 29
0201
0000
0000
0300
0021
0000
0000
0030
,  // measure 30
0000
0100
0100
0100
,  // measure 31
0000
1000
1000
1000
,  // measure 32
0000
0001
0001
0001
,  // measure 33
0000
0010
0010
0010
,  // measure 34
0000
0100
0010
0100
,  // measure 35
0000
1000
0001
1000
,  // measure 36
0002
0000
0000
0000
,  // measure 37
0020
0000
0000
0000
0000
0000
0000
0000
0033
0000
0000
0000
0110
0000
0000
2002
,  // measure 38
0000
0000
0000
3003
,  // measure 39
0010
0001
0100
0010
,  // measure 40
2020
0000
0000
3030
,  // measure 41
0100
0001
0100
1000
,  // measure 42
2200
0000
0000
3300
,  // measure 43
0001
1000
0001
0010
,  // measure 44
0022
0000
0000
0033
,  // measure 45
0100
1000
0001
0100
,  // measure 46
0102
0100
0010
0013
,  // measure 47
1000
0010
0001
0001
,  // measure 48
0120
0100
1000
1030
,  // measure 49
0001
0010
1000
1000
,  // measure 50
2001
0010
0001
3010
,  // measure 51
0100
1000
0010
0001
,  // measure 52
0120
0001
1000
0031
,  // measure 53
1000
0000
0010
0000
0100
0000
0001
0100
,  // measure 54
0000
0000
0010
0000
0100
0000
0000
2002
0000
0000
0000
0000
3003
0000
0000
0000
,  // measure 55
0010
0000
0010
0000
0100
0000
0010
1000
,  // measure 56
0000
0000
0001
0000
0100
0000
0000
0220
0000
0000
0000
0000
0330
0000
0000
0000
,  // measure 57
0001
0000
0001
0000
0010
0000
0100
1000
,  // measure 58
0000
0000
1000
0000
0010
0000
0000
2002
0000
0000
0000
0000
3003
0000
0000
0000
,  // measure 59
0100
0000
0100
0000
1000
0000
0010
0100
,  // measure 60
0000
0000
0001
0000
1000
0000
0000
0220
0000
0000
0000
0000
0330
0000
0000
0000
,  // measure 61
1000
0000
1000
0000
0001
0000
0010
0100
,  // measure 62
0220
0000
0000
0000
,  // measure 63
0000
0000
0000
0000
0000
0000
0000
0330
;

//---------------dance-single - ----------------
#NOTES:
     dance-single:
     :
     Medium:
     7:
     :
// measure 0
0000
0000
0000
0000
,  // measure 1
0000
0000
0000
0000
,  // measure 2
0000
0000
0000
0000
,  // measure 3
0000
0000
0000
0000
,  // measure 4
1000
0100
1000
0000
0010
0100
0010
0000
,  // measure 5
0001
0010
0001
0000
0100
0000
0010
0000
,  // measure 6
0120
0000
0000
0000
,  // measure 7
0200
0000
0000
0000
0000
0000
0000
0330
,  // measure 8
0001
0100
0001
0000
1000
0001
1000
0000
,  // measure 9
1000
0010
1000
0000
0001
0000
1000
0000
,  // measure 10
1002
0000
0000
0000
,  // measure 11
2000
0000
0000
0000
0000
3003
0101
0000
,  // measure 12
0011
0100
0001
1000
,  // measure 13
1000
0100
0000
0010
0001
0000
0100
0010
,  // measure 14
0000
0100
0001
0010
,  // measure 15
0010
0100
0000
0100
0010
0000
0001
1000
,  // measure 16
0000
1000
0100
0001
,  // measure 17
0010
0001
0000
1000
0001
0000
0100
0001
,  // measure 18
0000
0010
0100
1000
,  // measure 19
1000
0100
0000
0100
1000
0000
0001
0010
,  // measure 20
0000
0100
0010
0001
,  // measure 21
0001
1000
0000
0010
1000
0000
0100
1000
,  // measure 22
0000
0010
0001
0100
,  // measure 23
0100
0010
0000
0001
0100
0000
1000
0100
,  // measure 24
0000
1000
0010
0001
,  // measure 25
0100
0001
0000
0001
1000
0000
1000
0100
,  // measure 26
0000
0001
0010
0100
,  // measure 27
1000
0010
0000
0001
0100
0000
1000
0001
,  // measure 28
1000
1000
0010
0010
,  // measure 29
0100
0100
0001
0001
,  // measure 30
0000
0000
0100
0010
0100
0001
0100
0000
,  // measure 31
0000
0000
1000
0100
1000
0010
1000
0000
,  // measure 32
0000
0000
0001
1000
0001
0100
0001
0000
,  // measure 33
0000
0000
0010
0001
0010
1000
0010
0000
,  // measure 34
0000
0000
1000
0100
0001
0100
1000
0000
,  // measure 35
0000
0000
0001
0010
1000
0010
0001
0100
,  // measure 36
2002
0000
0000
0000
0000
0000
0000
3000
,  // measure 37
0010
0000
0010
0000
0010
0000
0010
0000
0013
0000
0000
0000
1100
0000
0000
1010
,  // measure 38
0000
0001
0100
0010
,  // measure 39
1000
0100
0000
0001
0100
0000
1000
0100
,  // measure 40
0000
0010
0100
0010
,  // measure 41
0001
0100
0000
0010
0100
0000
1000
0100
,  // measure 42
0000
0100
0001
0010
,  // measure 43
1000
0100
0000
0001
0100
0000
0001
0010
,  // measure 44
0000
1000
0010
0100
,  // measure 45
0010
0001
0000
0010
1000
0000
0100
0010
,  // measure 46
0000
0000
0001
0100
0001
0100
0001
0000
,  // measure 47
0000
0000
1000
0100
1000
0100
1000
0000
,  // measure 48
0000
0000
1000
0010
1000
0010
1000
0000
,  // measure 49
0000
0000
0001
0010
0001
0010
0001
0000
,  // measure 50
0000
0000
0001
0100
1000
0100
0001
0000
,  // measure 51
0000
0000
1000
0100
0001
0100
1000
0000
,  // measure 52
0000
0000
1000
0010
0001
0100
1000
0000
,  // measure 53
0000
0000
0001
0010
1000
0100
0001
0000
,  // measure 54
0000
0000
1000
0000
0010
0000
1000
0001
0000
0022
0000
0000
0000
0000
0033
0000
,  // measure 55
0010
0100
0000
0010
0001
0000
0001
1000
,  // measure 56
0000
0000
0100
0000
0001
0000
1000
0100
0000
2200
0000
0000
0000
0000
3300
0000
,  // measure 57
0010
0001
0000
0001
0100
0000
0010
1000
,  // measure 58
0000
0000
0010
0000
0100
0000
0001
1000
0000
2020
0000
0000
0000
0000
3030
0000
,  // measure 59
0100
1000
0000
0001
0100
0000
0100
0010
,  // measure 60
0000
0000
1000
0000
0100
0000
0001
0100
0000
0202
0000
0000
0000
0000
0303
0000
,  // measure 61
0010
0000
1000
0000
0000
0000
0001
0000
1000
0000
0000
0000
0100
0000
0020
0030
,  // measure 62
0000
0220
0000
0000
0000
0000
0000
0000
,  // measure 63
0000
0000
0000
0000
0000
0000
0000
0330
;

//---------------dance-single - ----------------
#NOTES:
     dance-single:
     :
     Hard:
     9:
     :
// measure 0
0000
0000
0000
0000
,  // measure 1
0000
0000
0000
0000
,  // measure 2
0000
0000
0000
0000
,  // measure 3
0000
0000
0000
0000
,  // measure 4
0001
0010
0001
0100
0001
0010
0001
1000
,  // measure 5
0001
0100
0001
0010
0001
0000
0100
0000
,  // measure 6
0120
0100
0100
0100
,  // measure 7
2030
0001
0001
0001
,  // measure 8
3100
0010
0001
1000
0001
0100
0010
0100
,  // measure 9
1000
0100
0010
0100
0001
0000
1000
0000
,  // measure 10
1002
1000
1000
1000
,  // measure 11
0203
0010
0310
0110
,  // measure 12
1010
0100
0001
0010
,  // measure 13
0010
0000
0000
0100
0000
0000
0001
0000
0100
0000
0000
0000
0100
0000
0022
0000
,  // measure 14
0000
0033
1000
0000
0001
0000
1000
0000
,  // measure 15
0010
1000
0000
0100
0001
0000
0010
0220
,  // measure 16
0000
0330
1000
0000
0100
0000
0010
0000
,  // measure 17
0001
0000
0000
0100
0000
0000
0001
0000
1000
0000
0000
0000
1000
0000
0202
0000
,  // measure 18
0000
0303
0010
0000
0001
0000
1000
0000
,  // measure 19
0010
0100
0000
0010
1000
0000
1000
2200
,  // measure 20
0000
3300
0001
0000
1000
0010
0010
1000
,  // measure 21
0001
0000
0000
0010
0000
0000
1000
0000
0100
0000
0000
0000
0001
0000
2002
0000
,  // measure 22
0000
3003
1000
0000
0001
0010
0100
0000
,  // measure 23
0001
0010
0000
1000
0010
0000
0010
0220
,  // measure 24
0000
0330
1000
0000
0001
1000
0100
0000
,  // measure 25
0010
0000
0000
0001
0000
0000
0100
0000
0010
0000
0000
0000
1000
0000
2020
0000
,  // measure 26
0000
3030
0001
0000
0010
0100
0001
0000
,  // measure 27
0010
0100
0000
0100
1000
0000
1000
1001
,  // measure 28
0001
0100
0001
0000
0001
0010
0001
0000
,  // measure 29
1000
0100
1000
0000
1000
0010
1000
0000
,  // measure 30
0101
0000
0001
0100
1000
0100
0001
0000
,  // measure 31
0011
0000
0010
0001
1000
0100
0001
0000
,  // measure 32
1100
0000
0010
0100
1000
0100
0010
0000
,  // measure 33
1010
0000
0100
0001
0010
0100
1000
0000
,  // measure 34
1001
0000
0100
0010
1000
0010
0001
0000
,  // measure 35
0110
0000
1000
0010
0001
0010
1000
0020
,  // measure 36
0000
0000
0000
0000
0000
0000
0000
0030
,  // measure 37
0110
0000
1001
0000
0110
0000
1001
0000
0110
0000
0000
0000
1001
0000
0000
0011
,  // measure 38
0000
0001
0100
0000
1000
0000
0010
0000
,  // measure 39
0010
0000
0000
0100
0000
0000
0001
0000
0100
0000
0000
0000
1000
0000
1010
0000
,  // measure 40
0000
0010
0100
0000
0001
0000
0010
0000
,  // measure 41
0010
0001
0000
0001
1000
0000
1000
1100
,  // measure 42
0000
0100
0010
0000
0001
0000
1000
0000
,  // measure 43
0100
0000
0000
0100
0000
0000
0010
0000
1000
0000
0000
0000
0001
0000
0011
0000
,  // measure 44
0000
0010
0001
0000
1000
0000
0010
0000
,  // measure 45
0010
0100
0000
1000
0100
0000
0001
0201
,  // measure 46
0000
0000
0310
1000
0100
1000
0001
0010
,  // measure 47
0100
0000
0000
0010
0000
0000
1000
0000
1000
0000
0000
0000
0001
0000
1002
0000
,  // measure 48
0000
0000
0013
0100
0010
0001
0100
0000
,  // measure 49
0010
0000
0000
0100
0000
0000
1000
0000
0010
0000
0000
0000
0010
0000
0120
0000
,  // measure 50
0000
0000
0130
1000
0001
0100
1000
0000
,  // measure 51
0001
0000
0000
0100
0000
0000
0001
0000
1000
0000
0000
0000
0001
0000
2001
0000
,  // measure 52
0000
0000
3010
0001
0100
0001
1000
0000
,  // measure 53
0010
0100
0000
0001
0010
0000
1000
1020
,  // measure 54
0000
0000
0130
0000
0010
0000
1000
0200
0000
0020
0000
0000
0000
0000
0330
0000
,  // measure 55
0001
0000
0000
0100
0000
0000
0010
0000
0100
0000
0000
0000
0100
0000
0102
0000
,  // measure 56
0000
0000
1003
0000
0100
0000
0010
2000
0000
0200
0000
0000
0000
0000
3300
0000
,  // measure 57
0001
0100
0000
1000
0001
0000
0010
0021
,  // measure 58
0000
0000
0130
0000
0010
0000
0100
0002
0000
2000
0000
0000
0000
0000
3003
0000
,  // measure 59
0010
0000
0000
0001
0000
0000
1000
0000
0010
0000
0000
0000
0100
0000
1200
0000
,  // measure 60
0000
0000
0301
0000
1000
0000
0010
0002
0000
2000
0000
0000
0000
0000
3003
0000
,  // measure 61
0010
1000
0000
1000
0001
0000
0100
0020
,  // measure 62
0000
0200
0000
0000
0000
0000
0000
0000
,  // measure 63
0000
0000
0000
0000
0000
0000
0000
0330
;
