#TITLE:B4U 2025;
#SUBTITLE:;
#ARTIST:NAOKI;
#TITLETRANSLIT:;
#SUBTITLETRANSLIT:;
#ARTISTTRANSLIT:;
#GENRE:;
#CREDIT:;
#BANNER:B4U 2025.png;
#BACKGROUND:B4U 2025-bg.png;
#LYRICSPATH:;
#CDTITLE:;
#MUSIC:B4U 2025.mp3;
#OFFSET:-0.029000;
#SAMPLESTART:35.599998;
#SAMPLELENGTH:20.219999;
#SELECTABLE:YES;
#DISPLAYBPM:155.000000;
#BPMS:0.000000=155.080002;
#STOPS:192.000000=1.160000;
#BGCHANGES:;
#KEYSOUNDS:;
#ATTACKS:;

//---------------dance-single - ----------------
#NOTES:
     dance-single:
     :
     Beginner:
     3:
     :
// measure 0
0000
0000
0000
0000
,  // measure 1
0000
0000
0000
0000
,  // measure 2
0000
0000
0000
0000
,  // measure 3
0000
0000
0000
0000
,  // measure 4
1000
0000
1000
0000
,  // measure 5
0001
0000
0001
0000
,  // measure 6
0100
0000
0100
0000
,  // measure 7
0010
0000
0010
0000
,  // measure 8
1100
0000
0000
0000
,  // measure 9
1000
0000
0100
0000
,  // measure 10
0101
0000
0000
0000
,  // measure 11
0001
0000
0100
0000
,  // measure 12
1010
0000
0000
0000
,  // measure 13
0010
0000
1000
0000
,  // measure 14
0011
0000
0000
0000
,  // measure 15
0010
0000
0001
0000
,  // measure 16
1000
0000
0001
0000
,  // measure 17
0010
0000
0100
1000
,  // measure 18
0001
0000
0100
0000
,  // measure 19
0010
0000
1000
0001
,  // measure 20
0100
0000
0010
0000
,  // measure 21
0010
0000
0010
1000
,  // measure 22
0001
0000
0100
0000
,  // measure 23
0010
0000
1000
0001
,  // measure 24
0110
0000
0000
0000
,  // measure 25
0010
0000
0100
0000
,  // measure 26
1001
0000
0000
0000
,  // measure 27
1000
0000
0001
0000
,  // measure 28
0110
0000
0000
0000
,  // measure 29
0001
0000
1000
0000
,  // measure 30
1001
0000
0000
0000
,  // measure 31
0010
0000
0100
0000
,  // measure 32
2000
0000
0000
0000
,  // measure 33
0000
0000
0000
0000
,  // measure 34
3002
0000
0000
0000
,  // measure 35
0000
0000
0000
0000
,  // measure 36
0203
0000
0000
0000
,  // measure 37
0000
0000
0000
0000
,  // measure 38
0320
0000
0000
0000
,  // measure 39
0000
0000
0000
0000
,  // measure 40
1030
0000
1000
0100
,  // measure 41
0001
0000
0001
0010
,  // measure 42
0100
0000
1000
0001
,  // measure 43
0010
0000
0001
0100
,  // measure 44
1000
0000
0010
0001
,  // measure 45
0100
0000
0001
1000
,  // measure 46
0010
0000
0100
0010
,  // measure 47
0001
0000
0010
0100
,  // measure 48
1001
1000
0000
0100
,  // measure 49
0000
0010
0000
0100
,  // measure 50
1000
0001
0000
0010
,  // measure 51
0000
0100
0000
0010
,  // measure 52
0001
0100
0000
0001
,  // measure 53
0000
1000
0000
0010
,  // measure 54
0100
0001
0000
0100
,  // measure 55
0000
0010
0000
1000
,  // measure 56
0100
0220
0000
0000
,  // measure 57
0330
0001
0000
0100
,  // measure 58
0000
2002
0000
0000
,  // measure 59
3003
1000
0000
0010
,  // measure 60
0000
0220
0000
0000
,  // measure 61
0330
0001
0000
0010
,  // measure 62
0000
2002
0000
0000
,  // measure 63
3003
1000
0000
0100
,  // measure 64
0000
0020
0000
0000
,  // measure 65
0000
0000
0000
0000
,  // measure 66
0000
0000
0000
0000
,  // measure 67
0000
0200
0000
0000
,  // measure 68
0330
1000
0000
1000
,  // measure 69
0000
0001
0000
0001
,  // measure 70
0000
1000
0000
1000
,  // measure 71
0000
0001
0000
0001
,  // measure 72
0000
1000
0000
0001
,  // measure 73
0000
1000
0000
0001
,  // measure 74
0000
2020
0000
0000
,  // measure 75
3030
0100
0000
0010
,  // measure 76
0001
2200
0000
0000
,  // measure 77
3300
0010
0000
0001
,  // measure 78
1000
0202
0000
0000
,  // measure 79
0303
0001
0000
1000
,  // measure 80
0100
0022
0000
0000
,  // measure 81
0033
0100
0000
1000
,  // measure 82
0001
0220
0000
0000
,  // measure 83
0330
0000
2002
0000
0000
0000
0000
3003
;

//---------------dance-single - ----------------
#NOTES:
     dance-single:
     :
     Easy:
     5:
     :
// measure 0
0000
0000
0000
0000
,  // measure 1
0000
0000
0000
0000
,  // measure 2
0000
0000
0000
0000
,  // measure 3
0000
0000
0000
0000
,  // measure 4
1100
0000
1000
0100
,  // measure 5
0101
0000
0001
0100
,  // measure 6
1010
0000
0010
1000
,  // measure 7
0011
0000
0010
0001
,  // measure 8
1100
0000
0101
0000
,  // measure 9
1000
0010
0100
0001
,  // measure 10
1001
0000
0110
0000
,  // measure 11
0001
1000
0001
0100
,  // measure 12
1010
0000
0011
0000
,  // measure 13
0001
0010
0100
1000
,  // measure 14
0110
0000
1001
0000
,  // measure 15
0001
0010
0010
0001
,  // measure 16
0100
0000
0010
0000
,  // measure 17
0010
1000
0001
1000
,  // measure 18
0100
0000
0001
0000
,  // measure 19
0100
0010
1000
0100
,  // measure 20
1000
0000
0010
0000
,  // measure 21
0100
0001
1000
0100
,  // measure 22
0010
0010
0100
0100
,  // measure 23
1000
0001
1000
0001
,  // measure 24
0220
0000
0000
0330
,  // measure 25
0010
0100
0010
0100
,  // measure 26
2002
0000
0000
3003
,  // measure 27
1000
0001
1000
0001
,  // measure 28
0220
0000
0000
0330
,  // measure 29
1000
0010
0100
0001
,  // measure 30
2002
0000
0000
3003
,  // measure 31
0001
0010
0100
1000
,  // measure 32
2000
0000
0000
0000
,  // measure 33
3020
0000
0000
0000
,  // measure 34
0230
0000
0000
0000
,  // measure 35
0302
0000
0000
0000
,  // measure 36
1003
0000
0010
1000
,  // measure 37
0100
0000
0010
0100
,  // measure 38
0001
0000
0100
0001
,  // measure 39
0010
0000
1000
0100
,  // measure 40
2000
0100
0001
3010
,  // measure 41
0002
0100
0010
1003
,  // measure 42
0020
1000
0100
0130
,  // measure 43
0002
0010
1000
0013
,  // measure 44
0012
1000
0100
1003
,  // measure 45
1020
0100
0001
0130
,  // measure 46
2100
0001
0001
3010
,  // measure 47
0201
0010
1000
0310
,  // measure 48
1001
0100
0010
0001
,  // measure 49
0010
1000
0100
1000
,  // measure 50
0010
0001
0000
0100
,  // measure 51
0000
1000
0100
0010
,  // measure 52
0001
0100
0000
0010
,  // measure 53
0000
0100
0001
1000
,  // measure 54
0010
1000
0100
0010
,  // measure 55
0100
0010
0001
1000
,  // measure 56
0100
0001
0000
0010
,  // measure 57
0000
0100
0001
1000
,  // measure 58
0010
0001
0000
0100
,  // measure 59
0000
0001
0100
0010
,  // measure 60
1000
0010
0000
1000
,  // measure 61
0000
0100
1000
0001
,  // measure 62
0010
1000
0000
0100
,  // measure 63
0000
0001
0100
1000
,  // measure 64
0100
2001
0001
0001
,  // measure 65
0001
0001
0001
0001
,  // measure 66
0001
0020
0000
0000
,  // measure 67
3030
0001
0100
0010
,  // measure 68
1000
0001
0001
0021
,  // measure 69
0000
0130
0100
2100
,  // measure 70
0000
3001
0001
1000
,  // measure 71
1000
0010
0010
0100
,  // measure 72
0100
0010
0100
0010
,  // measure 73
0100
0000
0000
0000
0010
0000
0000
0000
0100
0000
0000
0000
0001
0000
0000
1000
,  // measure 74
0000
0010
0001
1000
,  // measure 75
0001
0100
0010
1000
,  // measure 76
0010
1000
0100
0010
,  // measure 77
0001
0010
1000
0001
,  // measure 78
0100
0010
0100
0001
,  // measure 79
0100
1000
0100
0001
,  // measure 80
0010
0001
0100
0010
,  // measure 81
1000
1000
0100
0010
,  // measure 82
0001
0000
0220
0000
0000
0330
0001
0000
,  // measure 83
1000
0000
2002
0000
0000
0000
0000
3003
;

//---------------dance-single - ----------------
#NOTES:
     dance-single:
     :
     Medium:
     9:
     :
// measure 0
0000
0000
0000
0000
,  // measure 1
0000
0000
0000
0000
,  // measure 2
0000
0000
0000
0000
,  // measure 3
0000
0000
0000
0000
,  // measure 4
0100
0000
1000
0000
0001
0000
0100
0010
,  // measure 5
1000
0000
0100
0000
0001
0000
0100
0010
,  // measure 6
0100
0000
1000
0000
0001
0000
0100
0010
,  // measure 7
0001
0000
0100
0000
0010
0000
1000
0100
,  // measure 8
0010
0000
0000
1100
0000
0000
0001
0000
,  // measure 9
0010
0100
0010
0000
1000
0000
0001
0010
,  // measure 10
0100
0000
0000
0011
0000
0000
0010
0000
,  // measure 11
0100
1000
0001
0000
0010
0000
0100
0010
,  // measure 12
1000
0000
0000
1010
0000
0000
0001
0000
,  // measure 13
0010
0100
0001
0000
1000
0000
0100
0001
,  // measure 14
0010
0000
0000
0101
0000
0000
1000
0000
,  // measure 15
0001
0010
0100
0000
1000
0100
0010
0001
,  // measure 16
0100
0010
1000
0001
,  // measure 17
0010
1000
0100
0000
0001
0100
0010
0000
,  // measure 18
1000
0100
0001
0010
,  // measure 19
0100
0001
1000
0000
0010
1000
0100
0000
,  // measure 20
1000
0010
0001
0100
,  // measure 21
1000
0010
0100
0000
0010
0001
0100
0001
,  // measure 22
1000
0000
0000
0010
1000
0000
0000
0100
,  // measure 23
1000
0000
0010
0000
0001
0010
0100
1000
,  // measure 24
0010
0000
0000
0000
0100
0000
0000
0000
0010
0000
0000
1000
0001
0000
0100
0000
,  // measure 25
0010
0000
1000
0000
0100
0000
0001
0100
,  // measure 26
0010
0000
0000
0000
0100
0000
0000
0000
0010
0000
0000
1000
0100
0000
0010
0000
,  // measure 27
0100
1000
0001
0000
0100
0010
0001
0100
,  // measure 28
1000
0000
0000
0000
0010
0000
0000
0000
0100
0000
0000
0001
0100
0000
0010
0000
,  // measure 29
0100
0000
1000
0000
0100
0000
0001
0010
,  // measure 30
0001
0000
0000
0000
1000
0000
0000
0000
0010
0000
0000
0010
0100
0000
0001
0000
,  // measure 31
1000
0100
0010
1000
0100
1000
0000
0001
,  // measure 32
0002
0000
0000
0000
0000
0000
0000
1003
,  // measure 33
2000
0000
0000
0000
0000
0000
0000
3010
,  // measure 34
0020
0000
0000
0030
0020
0000
0000
0030
,  // measure 35
0100
0000
0000
0000
0100
0000
0000
0000
0100
0000
0000
0010
1000
0000
0001
0000
,  // measure 36
0010
0100
0010
0001
,  // measure 37
1000
0010
1000
0100
,  // measure 38
0001
0010
0001
0100
,  // measure 39
1000
0100
0010
1000
,  // measure 40
0001
0000
0000
0101
0000
0000
0100
0000
,  // measure 41
1000
0000
0000
1100
0000
0000
0100
0000
,  // measure 42
0010
0000
0000
0011
0000
0000
0001
0000
,  // measure 43
1000
0000
0000
1010
0000
0000
0010
0000
,  // measure 44
0100
0000
0000
0101
0000
0000
0001
0000
,  // measure 45
1000
0000
0000
1010
0000
0000
0010
0000
,  // measure 46
0100
0000
0000
1100
0000
0000
1000
0000
,  // measure 47
0001
0000
0000
0011
0000
0000
0010
0000
,  // measure 48
2001
3100
0001
0100
,  // measure 49
1000
0000
0001
1000
0010
0000
0100
1000
,  // measure 50
0001
0110
0000
0010
1000
0000
0001
0000
,  // measure 51
1000
0000
0100
0010
0001
0000
0001
0010
,  // measure 52
0100
0010
1000
0001
,  // measure 53
1000
0000
0100
0010
0001
0000
0100
1000
,  // measure 54
0010
1000
0001
0000
0000
0001
0100
0000
,  // measure 55
0000
0010
1000
0000
0001
0000
0001
0010
,  // measure 56
0100
0000
1000
0000
0010
0000
0000
0000
1000
0000
0000
0000
0001
0000
0000
0001
,  // measure 57
0100
0010
0100
0000
0100
0000
0001
0000
,  // measure 58
0100
0000
0100
0000
0001
0000
0000
0000
1000
0000
0000
0000
0010
0000
0000
1000
,  // measure 59
0100
1000
0001
0010
0100
0000
1000
0001
,  // measure 60
0100
0000
0001
0000
0010
0000
0000
0000
1000
0000
0000
0000
0100
0000
0000
1000
,  // measure 61
0001
0010
0100
0000
0001
0000
0010
0000
,  // measure 62
0001
0000
1000
0000
0100
0000
0000
0000
0010
0000
0000
0000
1000
0000
0000
0010
,  // measure 63
0100
0010
1000
0100
1000
0001
0010
0001
,  // measure 64
0000
0100
0010
1000
0000
0100
0000
0001
,  // measure 65
0000
0100
0000
0010
0000
0100
0000
0001
,  // measure 66
1000
0001
0100
0010
0000
1000
0000
0100
,  // measure 67
0000
0010
0001
1000
0100
0000
0100
0010
,  // measure 68
0001
0010
0200
0000
0000
0300
2000
0000
,  // measure 69
0000
3000
0002
0000
0000
0003
0020
0000
,  // measure 70
0000
0030
1200
0000
1000
0000
1000
0000
,  // measure 71
1300
0201
0001
0001
,  // measure 72
0301
0000
0010
0010
1000
1000
0001
0001
,  // measure 73
0010
0000
0010
0000
0001
0000
0010
0000
0100
0000
1000
0000
0010
0000
0100
0001
,  // measure 74
0000
0000
0000
0000
0010
0000
0100
0000
0001
0000
0000
1000
0000
0010
0000
0100
,  // measure 75
0100
0010
1000
0000
0100
0000
0001
0000
,  // measure 76
0010
0000
0100
0000
1000
0000
0100
0000
0010
0000
0000
0001
0000
0010
0000
0001
,  // measure 77
0100
0010
1000
0100
1000
0000
0001
0010
,  // measure 78
0010
0000
0001
0000
0100
0000
1000
0000
0001
0000
0000
0010
0000
1000
0000
0100
,  // measure 79
1000
0001
0010
0000
0100
0000
0001
0000
,  // measure 80
1000
0000
0100
0000
0010
0000
0001
0000
0100
0000
0000
0010
0000
1000
0000
0001
,  // measure 81
0100
0100
0001
0010
0100
0001
1000
0100
,  // measure 82
0000
1000
0001
0010
0000
1000
0010
0000
,  // measure 83
0110
0000
1000
0010
0100
0001
0000
2002
,  // measure 84
0000
0000
0000
0000
0000
0000
0000
3003
;

//---------------dance-single - ----------------
#NOTES:
     dance-single:
     :
     Hard:
     13:
     :
// measure 0
0000
0000
0000
0000
,  // measure 1
0000
0000
0000
0000
,  // measure 2
0000
0000
0000
0000
,  // measure 3
0000
0000
0000
0000
,  // measure 4
0001
0000
0000
0100
0000
0000
0001
0000
0000
1000
0100
0000
0010
0000
0100
0000
,  // measure 5
1000
0000
0000
0100
0000
0000
0010
0000
0000
0010
0100
0000
1000
0000
0001
0000
,  // measure 6
0010
0000
0000
0001
0000
0000
0100
0000
0000
1000
0100
0000
1000
0000
0001
0000
,  // measure 7
0010
0000
0000
0010
0000
0000
0100
0000
0000
0010
0001
0000
1000
0000
0001
0000
,  // measure 8
0010
0000
0100
0010
0000
0000
0010
0000
1000
0001
0000
0000
0100
0000
0010
0000
,  // measure 9
0001
0010
0100
1000
0001
0100
0001
0010
,  // measure 10
0100
0000
0010
0001
0000
0000
1000
0000
0100
1000
0000
0000
0100
0000
0001
0000
,  // measure 11
1000
0100
1000
0010
0001
0100
0001
1000
,  // measure 12
0010
0000
0100
0001
0000
0000
1000
0000
0010
1000
0000
0000
0100
0000
0001
0000
,  // measure 13
0010
0100
1000
0010
1000
0001
0100
0001
,  // measure 14
0010
0000
0100
0010
0000
0000
1000
0000
0010
0100
0000
0000
0100
0000
0001
0000
,  // measure 15
0010
0100
0010
0001
1000
0010
0100
0001
,  // measure 16
0010
0000
0001
1000
0000
0000
0000
0000
0100
0000
0010
0001
0000
0000
0000
0000
,  // measure 17
1000
0100
1000
0010
0100
0001
0010
0000
,  // measure 18
0100
0000
1000
0001
0000
0000
0000
0000
0100
0000
0001
0000
0010
0000
0000
0000
,  // measure 19
0001
0010
0100
1000
0100
0010
0001
0010
,  // measure 20
0100
0000
1000
0001
0000
0000
0000
0000
0010
0000
0001
0010
0000
0000
0000
0000
,  // measure 21
0100
0001
1000
0100
1000
0010
0100
0000
,  // measure 22
1000
0001
1000
0001
0010
0100
0010
0100
,  // measure 23
0001
0000
1000
0000
0100
0010
0001
0100
,  // measure 24
0011
0000
0000
0100
0000
1000
0000
0001
0000
0001
0000
0100
0010
0000
0100
0000
,  // measure 25
0101
0000
1100
0000
0110
0000
0010
1000
,  // measure 26
1010
0000
0000
0100
0000
0001
0000
0010
0000
0001
0000
1000
0100
0000
0001
0000
,  // measure 27
0010
0001
0100
0000
0010
1000
0001
1000
,  // measure 28
1010
0000
0000
0100
0000
1000
0000
0010
0000
0010
0000
0100
0001
0000
1000
0000
,  // measure 29
0011
0000
1010
0000
0110
0000
0010
0100
,  // measure 30
0011
0000
0000
0100
0000
1000
0000
0001
0000
0010
0000
0001
0100
0000
0001
0000
,  // measure 31
1000
0010
1000
0100
1000
0001
0000
0010
,  // measure 32
0200
0000
0000
0000
0000
0000
0000
1300
,  // measure 33
0002
0000
0000
0000
0000
0000
0000
0103
,  // measure 34
0020
0000
2030
0000
,  // measure 35
3100
0000
0000
0000
0001
0000
0000
0000
1000
0000
0000
0010
0100
0000
0010
0000
,  // measure 36
0001
0000
0100
0000
0000
0010
0000
0000
1000
0000
0000
0001
0000
0000
0010
0000
,  // measure 37
0100
0000
0010
0000
0000
0001
0000
0000
1000
0000
0000
0010
0000
0000
0100
0000
,  // measure 38
0001
0000
0100
0000
0000
1000
0000
0000
0010
0000
0000
1000
0000
0000
0100
0000
,  // measure 39
1000
0000
0001
0000
0000
0100
0000
0000
1000
0000
0000
0010
0000
0000
1000
0000
,  // measure 40
0001
0000
0000
0100
0000
0000
1000
0000
0000
0000
0010
0000
1000
0000
0001
0000
,  // measure 41
0100
0000
0000
0010
0000
0000
0001
0000
0000
0000
1000
0000
0100
0000
0001
0000
,  // measure 42
0010
0000
0000
0001
0000
0000
1000
0000
0000
0000
0100
0000
0010
0000
1000
0000
,  // measure 43
0100
0000
0000
0001
0000
0000
1000
0000
0000
0000
0001
0000
0100
0000
0010
0000
,  // measure 44
1000
0000
0000
0001
0000
0000
0100
0000
0000
0001
0010
0000
0001
0000
1000
0000
,  // measure 45
0010
0000
0000
0100
0000
0000
0001
0000
0000
1000
0100
0000
0010
0000
1000
0000
,  // measure 46
0001
0000
0000
0100
0000
0000
0010
0000
0000
0010
0100
0000
0001
0000
1000
0000
,  // measure 47
0100
0000
0000
0010
0000
0000
0100
0000
0000
0001
0010
0000
0100
0000
1000
0000
,  // measure 48
0110
0000
0100
0010
0001
0000
1000
0000
0100
0000
1000
0000
0010
0000
0100
0000
,  // measure 49
0001
0000
0100
0000
1000
0000
0001
0000
1000
0000
0010
1000
0001
0000
0100
0000
,  // measure 50
0001
0000
1001
0000
0000
0000
0100
0001
0010
0000
0001
0000
0010
0000
1000
0000
,  // measure 51
0010
0000
0001
1000
0100
0000
1000
0000
0001
0000
1000
0000
0010
0000
0001
0000
,  // measure 52
0010
1000
0001
0010
0100
1000
0100
0010
,  // measure 53
0001
1000
0010
0100
0010
1000
0001
0010
,  // measure 54
0100
0010
1000
0001
0010
0010
0001
1000
,  // measure 55
0010
0100
0010
0000
1000
0000
0001
0100
,  // measure 56
0001
0000
0010
0000
0101
0000
0000
0001
0000
1000
0000
0010
0000
0010
0000
1000
,  // measure 57
0100
0010
0101
0000
0011
0000
1001
0000
,  // measure 58
1000
0000
0001
0000
1100
0000
0000
0001
0000
0010
0000
0100
0000
0001
0000
1000
,  // measure 59
0001
0010
1000
0010
0001
0000
0010
0001
,  // measure 60
1000
0000
0001
0000
0101
0000
0000
0001
0000
0100
0000
0010
0000
0010
0000
0100
,  // measure 61
0001
0010
1100
0000
1010
0000
1001
0000
,  // measure 62
0010
0000
0100
0000
1100
0000
0000
0100
0000
0001
0000
0010
0000
0001
0000
1000
,  // measure 63
0001
0010
0001
0100
0010
1000
0100
0220
,  // measure 64
0000
0000
0330
1100
0000
0101
0000
0011
,  // measure 65
0000
1010
0000
1001
0000
0110
0000
0100
,  // measure 66
0001
1000
0001
0010
0000
0100
0000
0001
,  // measure 67
0000
1000
0100
0001
0100
1000
0010
0001
,  // measure 68
0010
1000
1100
0000
0000
0000
0011
0000
,  // measure 69
0000
0101
0000
1010
,  // measure 70
0000
1100
0011
1100
,  // measure 71
0011
0101
1010
0101
,  // measure 72
1010
0000
0001
0100
0010
1000
0100
0010
,  // measure 73
0100
0000
1000
0000
0001
0000
0100
0000
0001
0000
0010
0000
0100
1000
0001
0100
,  // measure 74
0000
0000
0000
0000
0110
0000
0000
0010
0000
1000
0000
0010
0000
0001
0000
0010
,  // measure 75
0100
1000
0011
0000
0110
0000
1100
0000
,  // measure 76
0100
0000
0001
0000
1001
0000
0000
0010
0000
1000
0000
0100
0000
1000
0000
0001
,  // measure 77
0100
1000
0010
1000
0001
0010
0100
0010
,  // measure 78
0001
0000
0100
0000
1001
0000
0000
0100
0000
0010
0000
0001
0000
1000
0000
0010
,  // measure 79
0100
0010
1100
0000
1001
0000
0011
0000
,  // measure 80
0100
0000
0010
0000
0110
0000
0000
1000
0000
0001
0000
0010
0000
0100
0000
0010
,  // measure 81
0100
1000
0001
0100
0001
0010
0001
0100
,  // measure 82
0000
0010
0100
1010
0000
0001
0011
1000
,  // measure 83
0110
0000
0101
0010
0100
1010
0000
2002
,  // measure 84
0000
0000
0000
0000
0000
0000
0000
3003
;

//---------------dance-single - ----------------
#NOTES:
     dance-single:
     :
     Challenge:
     16:
     :
// measure 0
0000
0000
0000
0000
,  // measure 1
0000
0000
0000
0000
,  // measure 2
0000
0000
0000
0000
,  // measure 3
0000
0000
0000
0000
,  // measure 4
0010
0000
0100
0010
0000
0000
0010
0000
1000
0100
0000
0000
1000
0000
0010
0000
,  // measure 5
0100
0000
0001
0100
0000
0000
0001
0000
1000
0010
0000
0000
0100
0000
0001
0000
,  // measure 6
0010
0000
0100
1000
0000
0000
0010
0000
0100
0001
0000
0000
1000
0000
0001
0000
,  // measure 7
0100
0000
1000
0010
0000
0000
0100
0000
0001
0010
0000
0000
0001
0000
1000
0000
,  // measure 8
0010
1000
1000
0010
0000
0000
0001
0010
0010
0001
0000
0000
0100
0000
0010
0000
,  // measure 9
1000
0000
0010
0000
0100
0000
0001
0000
1000
0001
0001
1000
0000
0000
0100
0010
,  // measure 10
0001
0100
0001
1000
0000
0000
1000
0100
1000
0001
0000
0000
0001
0000
0010
0000
,  // measure 11
1000
0000
0001
0000
0100
0000
0001
0000
0010
0001
0100
0001
1000
0001
0100
0001
,  // measure 12
0010
0100
0010
0100
0000
0000
1000
0001
1000
0001
0000
0000
0100
0000
1000
0000
,  // measure 13
0010
0000
0100
0000
0001
0000
0010
0000
1000
0100
0010
0100
0000
0000
0100
1000
,  // measure 14
0001
0100
0010
1000
0000
0000
1000
0100
0010
0001
0000
0000
0001
0000
0010
0000
,  // measure 15
1000
0010
0100
0010
0000
0100
0001
0000
1000
0001
1000
0100
0010
0100
0001
0000
,  // measure 16
0100
0000
0010
0100
0000
0000
1000
0000
0100
0000
1000
0010
0000
0000
0001
0000
,  // measure 17
0010
0001
0100
0010
1000
0000
1000
0001
0000
0001
0010
0000
0100
0000
0000
0000
,  // measure 18
0010
0000
0001
1000
0000
1000
0100
1000
0100
0000
1000
0000
0001
0000
0100
0000
,  // measure 19
0010
0000
0010
1000
0001
0000
0100
0000
0010
0001
1000
0000
0010
0000
0100
0000
,  // measure 20
0010
0000
1000
0100
0000
0000
0001
0100
0010
0000
0010
1000
0000
0000
1000
0100
,  // measure 21
0001
0010
0001
0000
0100
0000
0010
0000
0100
0000
0001
0010
0000
0000
0000
0000
,  // measure 22
0021
0001
0001
0031
1200
1000
1000
1300
,  // measure 23
0101
0000
1010
0000
0010
0100
0001
0100
,  // measure 24
0010
1000
0000
0100
0000
0001
0000
1000
0000
0001
0000
0010
0100
0000
0010
0000
,  // measure 25
1000
0100
0001
0100
0000
0100
0010
0001
0010
0000
1000
0000
0100
0000
1000
0000
,  // measure 26
0010
0100
0000
0001
0000
0010
0000
1000
0000
1000
0000
0001
0100
0000
0001
0000
,  // measure 27
0010
0100
1000
0100
0010
0000
0010
0001
0000
0001
0100
0000
0010
0000
1000
0000
,  // measure 28
0100
0010
0000
0100
0000
1000
0000
0001
0000
0001
0000
0100
0010
0000
1000
0000
,  // measure 29
1000
0100
0010
0001
0000
0100
0010
1000
0010
0000
0100
0000
0001
0000
1000
0000
,  // measure 30
0100
0010
0000
0001
0000
1000
0000
0010
0000
0100
0000
0010
0100
0000
0001
0000
,  // measure 31
1000
0010
1000
0100
1000
0000
0001
0010
0001
0100
0001
0000
1000
0010
0100
0001
,  // measure 32
0200
0000
0010
0000
0000
0001
0000
0000
1000
0000
0000
0001
0000
0000
0310
0000
,  // measure 33
0002
0000
0010
0000
0000
1000
0000
0000
0100
0000
0000
0010
0000
0000
0103
0000
,  // measure 34
0020
0000
1000
0000
0000
0001
0000
0000
0100
0000
0000
1000
0000
0000
0130
0000
,  // measure 35
2000
0000
0010
0000
0000
0001
0000
0000
0100
0000
0000
0001
0000
0000
3010
0000
,  // measure 36
0001
0000
0010
0000
0010
1000
0000
0010
1000
0000
0001
0100
0000
0001
0100
0000
,  // measure 37
0100
0000
0010
0000
1000
0010
0000
0010
1000
0000
0001
0100
0000
0100
0001
0000
,  // measure 38
1000
0000
0010
0000
0100
0010
0000
0010
0100
0000
0001
1000
0000
1000
0100
0000
,  // measure 39
0001
0000
0010
0000
0100
0010
0000
1000
0100
0000
1000
0010
0000
0001
0010
0000
,  // measure 40
0001
0000
0100
0001
0000
0000
0001
0000
0001
0100
0000
0000
0010
0000
1000
0000
,  // measure 41
0100
0000
0100
1000
0000
0000
0100
0000
0010
0001
0000
0000
1000
0000
0100
0000
,  // measure 42
1000
0000
0010
1000
0000
0000
1000
0000
0001
0010
0000
0000
0100
0000
0001
0000
,  // measure 43
0010
0000
1000
0010
0000
0000
0010
0000
0001
0100
0000
0000
0100
0000
0010
0000
,  // measure 44
0001
1000
0001
1000
0001
0000
0100
0010
0000
0010
0100
0000
0010
0000
1000
0000
,  // measure 45
0100
1000
0100
1000
0100
0000
0010
0001
0000
0001
0010
0000
1000
0000
0100
0000
,  // measure 46
0001
0010
0100
0010
0001
0000
1000
0100
0000
0100
1000
0000
0010
0000
0100
0000
,  // measure 47
0001
0100
0010
1000
0010
0000
1000
0010
0000
0001
0010
0000
0100
0000
1000
0000
,  // measure 48
0110
0000
0001
0010
0100
0000
0010
0001
0100
0010
1000
0000
1000
0000
0100
0000
,  // measure 49
0001
0000
0010
0000
0010
0000
0100
0000
0100
0000
1000
0001
0010
0000
0100
0000
,  // measure 50
0010
0000
1001
0000
0000
0000
1000
0001
0100
0000
0010
0000
1000
0000
0010
0100
,  // measure 51
0000
0000
0010
1000
0100
0000
0010
0001
0100
0000
0001
1000
0100
0000
0010
0100
,  // measure 52
0000
0000
0100
0001
0010
0001
1000
0010
0000
0010
0100
0000
0001
0000
1000
0001
,  // measure 53
0000
0000
0010
0000
0001
0000
1000
0010
0000
0001
0100
0000
0010
0000
1000
0100
,  // measure 54
0000
0000
0001
0000
0010
0000
0100
0000
1000
0000
0010
0000
0100
0000
0001
0100
,  // measure 55
0000
0010
1000
0010
0100
0000
0100
0001
0000
0001
1000
0010
0100
0000
0100
0000
,  // measure 56
0001
0000
0000
0000
1000
0010
0000
1000
0000
0001
0000
0010
0000
0010
0000
0100
,  // measure 57
1000
0000
0001
0000
0100
0001
0010
0001
0000
0010
0100
0100
0010
0000
0001
0000
,  // measure 58
0100
0000
0010
0000
1000
0100
0000
1000
0000
0100
0000
0010
0000
0001
0000
0100
,  // measure 59
0100
0000
0010
0000
1000
0100
0001
0100
1000
0000
0001
0010
0000
1000
0100
0000
,  // measure 60
0010
0000
0100
0000
0010
0001
0000
0100
0000
0010
0000
1000
0000
0010
0000
0100
,  // measure 61
0010
0000
0001
0000
1000
0100
1000
0010
0000
1000
0100
0001
0010
0000
1000
0000
,  // measure 62
0001
0000
0100
0000
0010
0100
0000
1000
0000
0001
0000
0010
0000
0010
0000
0100
,  // measure 63
0001
0000
0010
0000
0001
0010
1000
0100
0001
0000
1000
0010
0001
0100
1000
0000
,  // measure 64
0001
0010
0100
0000
0000
0000
0011
0000
0000
0000
1010
0000
0000
0000
1100
0000
,  // measure 65
0000
0101
0000
0110
0000
1001
0000
0010
,  // measure 66
0100
0001
1000
1010
0000
1100
0000
0101
,  // measure 67
0000
0000
0011
0000
0100
0010
0001
0010
0100
0000
0001
0000
0100
0000
0010
0000
,  // measure 68
1000
0000
0100
0000
0102
0000
0000
0100
0000
0000
0100
0003
1020
0000
0000
1000
,  // measure 69
0000
1000
0000
1030
2100
0000
0000
0100
0000
0000
0100
3000
0021
0000
0000
0001
,  // measure 70
0000
0001
0000
0031
0101
0000
0000
1000
1100
0000
0000
0001
0101
0000
0000
1000
,  // measure 71
1100
0000
0000
1000
1010
0000
0000
0001
0011
0000
0000
1000
1010
0000
0000
0001
,  // measure 72
0011
0000
0000
0100
0010
0000
1000
0000
0001
0000
0100
0000
0010
0000
0001
0000
,  // measure 73
0010
0000
1000
0000
0100
0000
1000
0000
0001
0000
0010
0000
0100
1000
0010
0100
,  // measure 74
0000
0000
0000
0000
0001
1000
0100
1000
0000
0100
0000
0010
0000
0010
0000
0001
,  // measure 75
0100
0000
0010
0000
0100
0001
0100
0001
1000
0001
1000
0001
0010
0000
0100
0000
,  // measure 76
0100
0000
0010
0000
0001
0100
0100
0010
0000
1000
0000
0001
0000
0010
0000
0100
,  // measure 77
1000
0000
0010
0000
0100
0001
1000
0100
1000
0010
0100
0001
0000
0010
0100
1000
,  // measure 78
0001
0000
0010
0000
1000
0100
1000
0100
0000
0001
0000
0010
0000
1000
0000
0010
,  // measure 79
0001
0000
0100
0000
0010
0100
0001
0100
0010
1000
0001
1000
0010
0000
1000
0000
,  // measure 80
0100
0000
0001
0000
0010
0010
0100
0100
0000
1000
0000
0010
0000
0001
0000
0010
,  // measure 81
1000
0000
0100
0000
1000
0001
0100
0001
1000
0000
0010
0100
0001
0100
0010
0000
,  // measure 82
0001
0010
0100
1000
1100
0000
1010
0000
0000
0000
0011
0000
0101
0000
1001
0000
,  // measure 83
0110
0000
0101
1010
1100
0011
0000
2002
,  // measure 84
0000
0000
0000
0000
0000
0000
0000
3003
;
