#TITLE:Aquaman;
#SUBTITLE:;
#ARTIST:Walk The Moon;
#TITLETRANSLIT:;
#SUBTITLETRANSLIT:;
#ARTISTTRANSLIT:;
#CREDIT:;
#BANNER:Aquaman.png;
#BACKGROUND:Aquaman-bg.png;
#JACKET:Aquaman-jacket.png;
#LYRICSPATH:;
#CDTITLE:;
#MUSIC:Aquaman.mp3;
#OFFSET:-2.399;
#SAMPLESTART:56.559;
#SAMPLELENGTH:22.000;
#SELECTABLE:YES;
#DISPLAYBPM:100.000;
#BPMS:0.000=100.000;
#STOPS:;
#BGCHANGES:;

//---------------dance-single - ----------------
#NOTES:
     dance-single:
     :
     Beginner:
     2:
     :
// measure 1
0000
0000
0000
0000
,  // measure 2
0000
0000
0000
0000
,  // measure 3
0000
0000
0000
0000
,  // measure 4
2000
0000
0000
0000
,  // measure 5
3002
0000
0000
0000
,  // measure 6
0203
0000
0000
0000
,  // measure 7
0320
0000
0000
0000
,  // measure 8
1030
0000
0100
0000
,  // measure 9
1000
0000
0001
0000
,  // measure 10
0100
0000
0000
0000
,  // measure 11
0010
0000
0000
0000
,  // measure 12
0001
0000
1000
0000
,  // measure 13
0100
0000
0010
0000
,  // measure 14
0100
0000
0000
0000
,  // measure 15
1000
0000
0000
0000
,  // measure 16
0001
0000
0010
0000
,  // measure 17
1000
0000
0010
0000
,  // measure 18
0001
0000
0000
0000
,  // measure 19
1000
0000
0000
0000
,  // measure 20
0001
0000
0100
0000
,  // measure 21
1000
0000
0100
0000
,  // measure 22
0001
0000
0000
0000
,  // measure 23
1000
0000
0000
0110
,  // measure 24
0000
0010
0001
0000
,  // measure 25
0022
0000
0000
0000
,  // measure 26
0033
0001
0100
0000
,  // measure 27
0202
0000
0000
0000
,  // measure 28
0303
0010
1000
0000
,  // measure 29
2020
0000
0000
0000
,  // measure 30
3030
1000
0100
1000
,  // measure 31
2200
0000
0000
3300
,  // measure 32
0002
0000
0000
0000
,  // measure 33
0203
0000
0000
0000
,  // measure 34
0320
0000
0000
0000
,  // measure 35
2030
0000
0000
0000
,  // measure 36
3020
0000
0000
0000
,  // measure 37
0230
0000
0000
0000
,  // measure 38
0302
0000
0000
0000
,  // measure 39
0023
0000
0000
0000
,  // measure 40
0230
0000
0000
0000
,  // measure 41
2300
0000
0000
0000
,  // measure 42
3001
0010
0001
0000
,  // measure 43
0011
0000
0000
0000
,  // measure 44
0100
0001
0100
0000
,  // measure 45
0101
0000
0000
0000
,  // measure 46
0010
1000
0010
0000
,  // measure 47
1010
0000
0000
0000
,  // measure 48
1000
0100
1000
0000
,  // measure 49
1100
0000
0000
0000
,  // measure 50
0100
0010
0001
0000
,  // measure 51
1000
0001
0010
0000
,  // measure 52
1000
0001
0100
0000
,  // measure 53
0010
0100
0001
0000
,  // measure 54
0100
0010
1000
0000
,  // measure 55
0001
1000
0010
0000
,  // measure 56
0001
1000
0100
0000
,  // measure 57
0010
0100
1000
0000
,  // measure 58
0020
0000
0000
0000
,  // measure 59
0230
0000
0000
0000
,  // measure 60
0302
0000
0000
0000
,  // measure 61
2003
0000
0000
0000
,  // measure 62
3000
0000
0000
0000
;

//---------------dance-single - ----------------
#NOTES:
     dance-single:
     :
     Easy:
     4:
     :
// measure 1
0000
0000
0000
0000
,  // measure 2
0000
0000
0000
0000
,  // measure 3
0000
0000
0000
0000
,  // measure 4
0100
0010
1000
0010
,  // measure 5
0100
0001
1000
0100
,  // measure 6
0010
0001
1000
0001
,  // measure 7
0110
0000
1001
0000
,  // measure 8
1000
0100
0010
0000
,  // measure 9
1000
0001
0100
0001
,  // measure 10
0010
0000
0100
0000
,  // measure 11
0220
0000
0000
0330
,  // measure 12
0001
0010
0100
0000
,  // measure 13
1000
0100
0001
0100
,  // measure 14
1000
0000
0001
0000
,  // measure 15
2002
0000
0000
3003
,  // measure 16
0001
1000
0100
0001
,  // measure 17
0100
1000
0001
0010
,  // measure 18
0001
0000
1000
0000
,  // measure 19
2002
0000
0000
3003
,  // measure 20
1000
0010
0100
0001
,  // measure 21
1000
0001
0100
0001
,  // measure 22
0010
0000
0100
0000
,  // measure 23
0220
0000
0330
0010
,  // measure 24
0100
0010
0001
0000
,  // measure 25
1000
0010
0100
0000
,  // measure 26
0010
1000
0001
0100
,  // measure 27
0001
0000
0100
0010
,  // measure 28
0001
1000
0100
1000
,  // measure 29
0010
0000
0001
0000
,  // measure 30
0100
0010
1000
0010
,  // measure 31
0100
0001
1000
0001
,  // measure 32
0010
0000
0010
0000
,  // measure 33
0100
0000
0100
1000
,  // measure 34
0001
0000
1000
0100
,  // measure 35
0001
0100
1000
0001
,  // measure 36
0010
0000
0100
0000
,  // measure 37
1000
0001
0100
0001
,  // measure 38
0010
0000
1000
0010
,  // measure 39
0100
0001
1000
0010
,  // measure 40
1000
0100
0001
0010
,  // measure 41
0100
0010
0001
1000
,  // measure 42
0100
0010
0011
0000
,  // measure 43
0010
0001
1000
0100
,  // measure 44
1000
0001
0101
0100
,  // measure 45
0010
0100
0001
1000
,  // measure 46
0010
1000
1100
0001
,  // measure 47
0010
0010
0001
0001
,  // measure 48
0100
0010
1010
0001
,  // measure 49
1000
0010
1000
0001
,  // measure 50
0010
0001
1100
0000
,  // measure 51
0001
0010
0100
0010
,  // measure 52
0001
1000
1001
0100
,  // measure 53
0010
0100
1000
0001
,  // measure 54
0100
0001
0011
0000
,  // measure 55
0100
0010
0001
0010
,  // measure 56
0100
1000
0110
0001
,  // measure 57
0100
0010
1000
0100
,  // measure 58
1000
0001
0100
0001
,  // measure 59
0010
0100
1000
0100
,  // measure 60
0001
0100
0010
1000
,  // measure 61
0100
0010
0001
1000
,  // measure 62
0001
0000
0000
0000
;

//---------------dance-single - ----------------
#NOTES:
     dance-single:
     :
     Medium:
     6:
     :
// measure 1
0000
0000
0000
0000
,  // measure 2
0000
0000
0000
0000
,  // measure 3
0000
0000
0000
0000
,  // measure 4
0000
1000
0000
0100
0000
1000
0001
0000
,  // measure 5
0000
0010
0000
0100
0000
0010
0001
0000
,  // measure 6
0000
0100
0000
0010
0000
1000
0010
0000
,  // measure 7
0000
2002
0000
0000
0000
0000
3003
0000
,  // measure 8
0100
0001
0100
0010
,  // measure 9
1000
0100
0001
0100
,  // measure 10
1000
0000
0100
2200
0000
0000
0000
3300
,  // measure 11
0000
0202
0000
0000
0000
0000
0303
0000
,  // measure 12
0010
0001
0100
0010
,  // measure 13
1000
0100
0010
0001
,  // measure 14
1000
0000
0010
2020
0000
0000
0000
3030
,  // measure 15
0000
0022
0000
0000
0000
0000
0033
0000
,  // measure 16
0001
0010
1000
0010
,  // measure 17
0001
1000
0010
1000
,  // measure 18
0001
0000
0010
0022
0000
0000
0000
0033
,  // measure 19
0000
2200
0000
0000
0000
0000
3300
0000
,  // measure 20
0010
1000
0100
1000
,  // measure 21
0001
1000
0010
0100
,  // measure 22
0001
0000
0100
0202
0000
0000
0000
0303
,  // measure 23
0000
2020
0000
0000
0030
0000
3100
0000
,  // measure 24
0001
0011
1001
1000
,  // measure 25
0010
0100
0000
0220
0000
0000
0330
0000
,  // measure 26
0010
1100
1001
0010
,  // measure 27
1000
0100
0000
1000
0000
0010
0100
0001
,  // measure 28
0000
0000
1010
0000
1001
0000
1000
0100
,  // measure 29
0010
0000
0001
2002
0000
0000
3003
0000
,  // measure 30
1000
0101
0110
0100
,  // measure 31
0001
1000
0000
0010
0000
0100
0001
2000
,  // measure 32
0010
0000
0010
0020
0000
0000
0000
0030
,  // measure 33
0100
0000
0100
0200
0000
3300
0001
0000
,  // measure 34
0010
0100
0001
1000
,  // measure 35
0001
0010
0100
0010
,  // measure 36
0001
0100
0010
1000
,  // measure 37
0001
0010
0001
1000
,  // measure 38
0100
1000
0001
1000
,  // measure 39
0001
1000
0010
0001
,  // measure 40
0010
1000
0001
0100
,  // measure 41
1000
0100
0001
0010
,  // measure 42
0100
0000
1010
0000
1100
0000
0000
0001
,  // measure 43
1000
0010
0000
0220
0000
0000
0330
0000
,  // measure 44
0100
0000
0101
0000
0110
0000
0001
0010
,  // measure 45
0100
0010
0000
0001
0000
1000
0100
1000
,  // measure 46
0000
0000
0011
0000
1001
0000
0010
0100
,  // measure 47
0001
0000
1000
2002
0000
0000
3003
0000
,  // measure 48
0100
0010
0000
0010
1000
0000
0001
0000
,  // measure 49
0100
0010
0000
1000
0000
0001
0100
0010
,  // measure 50
0100
1010
1001
0001
,  // measure 51
1000
0010
1000
0001
0000
0100
0001
0000
,  // measure 52
0000
0010
0011
0000
0110
0000
0001
0000
,  // measure 53
1000
0100
0000
0001
0000
0100
0010
1000
,  // measure 54
0000
0001
0101
0000
1100
0000
0010
0000
,  // measure 55
1000
0001
1000
0100
0000
0110
0000
0000
,  // measure 56
0010
0000
0001
0000
0100
0010
0001
0010
,  // measure 57
0100
1000
0001
1000
,  // measure 58
0100
0010
0000
0001
0000
1000
1010
0000
,  // measure 59
0000
0100
0000
0001
0000
1000
0011
0000
,  // measure 60
0001
0000
0010
0000
0100
0001
1000
0000
,  // measure 61
0100
0010
0000
0001
0000
0100
0010
1000
;

//---------------dance-single - ----------------
#NOTES:
     dance-single:
     :
     Hard:
     11:
     :
// measure 1
0000
0000
0000
0000
,  // measure 2
0000
0000
0000
0000
,  // measure 3
0000
0000
0000
0000
,  // measure 4
0000
0000
0001
0010
0100
0010
0001
1000
0100
0010
0001
0000
0011
0000
0000
0000
,  // measure 5
0000
0000
0100
0001
1000
0001
0100
0010
1000
0100
1000
0000
1100
0000
0000
0000
,  // measure 6
0000
0000
1000
0100
0010
0001
0100
0010
1000
0010
0100
0000
1001
0000
0000
0000
,  // measure 7
0110
0000
0010
1000
0000
1000
0100
0000
0010
0001
0000
0001
1000
0000
0000
0010
,  // measure 8
0010
0000
0100
0000
0000
0000
0010
0000
0000
0000
1000
0000
0001
0000
0000
0100
,  // measure 9
0100
0001
0010
0001
0000
0100
1000
0010
,  // measure 10
1000
0001
0100
1100
0000
0001
0010
0100
,  // measure 11
1000
2010
0000
0002
0000
0000
0000
3003
,  // measure 12
0100
0010
0000
0100
0000
0001
0100
0010
,  // measure 13
1000
0001
1000
0100
0000
0001
0100
0001
,  // measure 14
0010
1000
0010
0011
0000
1000
0100
0010
,  // measure 15
0001
0102
0000
0200
0000
0000
0000
0303
,  // measure 16
1000
0000
0001
0010
0001
0000
0100
0000
0000
0000
0100
0000
0010
1000
0000
1000
,  // measure 17
0001
0010
0100
0010
0000
0001
0100
0010
,  // measure 18
1000
0001
0100
0011
0000
0001
0100
0010
,  // measure 19
1000
0000
2010
0000
0000
0000
0200
0000
0000
0000
0000
0000
3300
0000
0001
0100
,  // measure 20
0001
1000
0100
0010
0000
0100
0110
0000
,  // measure 21
0001
0010
1000
0010
0000
1000
0100
0001
,  // measure 22
0100
1000
0010
0101
0000
1000
0001
0100
,  // measure 23
0010
0000
1020
0000
0000
0000
0100
0000
0000
0000
1030
0000
0100
0000
1000
0001
,  // measure 24
0000
0001
1000
0000
0011
0000
1000
0010
,  // measure 25
1000
0002
0000
2000
0000
3003
0110
0000
,  // measure 26
1000
0010
0001
0000
1100
0000
0010
1000
,  // measure 27
0100
0001
0000
0010
0000
0001
1000
0010
,  // measure 28
1000
0000
0001
0000
1010
1000
0010
1000
,  // measure 29
0001
0020
0000
0200
0000
0330
1001
0000
,  // measure 30
0001
0000
1000
0000
0010
0000
0100
0000
1000
0000
0100
0000
0010
0001
0010
0000
,  // measure 31
1000
0010
0000
0101
0000
0100
0010
1000
,  // measure 32
0010
0000
1000
0001
0000
0010
0100
1000
,  // measure 33
0100
0000
0001
1000
0000
1000
0100
1000
,  // measure 34
0001
0000
0000
0000
0010
0000
0000
0000
0100
0000
0100
1000
0000
1000
0001
0000
,  // measure 35
0010
0000
0010
0001
0000
0001
0100
0000
0000
0000
0001
0000
0100
0000
0010
0000
,  // measure 36
1000
0000
0000
0000
0010
1000
0000
1000
0100
0000
0010
0001
0000
0001
1000
0000
,  // measure 37
0010
0000
1000
0100
0000
1000
0010
0000
0000
0000
0010
0000
0100
0000
0001
0000
,  // measure 38
1000
0000
0000
0000
0001
0000
0000
0000
0100
0000
0001
0001
0000
1000
1000
0000
,  // measure 39
0100
0010
0100
0010
0000
0001
0010
0000
0000
0000
2020
0000
0000
0000
3030
0000
,  // measure 40
0001
0000
0000
0000
0100
0000
0001
0000
1000
0010
1000
0100
0000
0001
0100
0000
,  // measure 41
1001
0000
1000
0100
0000
0100
0001
0000
0001
0010
0000
0010
0100
0000
1000
0000
,  // measure 42
0110
0000
1000
0100
0001
0100
1000
0010
,  // measure 43
1000
0100
0010
0002
0000
1003
0001
0010
,  // measure 44
0001
0100
0010
0100
0001
1000
0010
1000
,  // measure 45
0100
0001
0000
0011
0000
1000
0001
0010
,  // measure 46
0001
0100
1000
0010
0001
0010
0100
1000
,  // measure 47
0001
1000
0010
0200
0000
1300
0100
0010
,  // measure 48
0001
0000
1000
0000
0001
0000
0000
0000
0100
0000
0001
0000
1000
0100
0010
0000
,  // measure 49
0100
0010
0000
1001
0000
0010
0001
0100
,  // measure 50
0001
0010
1000
0010
0001
0100
1000
0100
,  // measure 51
0010
1000
0001
1010
0000
0101
0001
0100
,  // measure 52
0010
0000
0100
0000
0001
0000
0100
0000
0010
0000
1000
0000
0000
0100
1000
0000
,  // measure 53
0010
0001
0000
1100
0000
0001
0010
0100
,  // measure 54
1000
0010
1000
0001
0100
0001
1000
0100
,  // measure 55
0001
0010
0001
2000
0000
3010
0100
0001
,  // measure 56
0100
0000
1000
0000
0100
0000
0000
0000
0001
0000
0010
0000
0100
0010
0001
0000
,  // measure 57
0010
1000
0000
0110
0000
0001
0100
0010
,  // measure 58
0000
0000
0001
1000
0010
0100
0010
0001
0010
0100
1000
0000
1010
0000
0000
0000
,  // measure 59
0000
0000
0100
0001
0100
0010
1000
0100
1000
0001
0100
0000
0101
0000
0000
0000
,  // measure 60
0000
0000
0100
0000
0010
0000
1000
0000
0010
0000
1000
0000
0001
0010
0100
0000
,  // measure 61
0001
1001
0000
0110
0000
1000
0010
0100
,  // measure 62
0001
0000
0000
0000
;
