#TITLE:A World Without Danger;
#SUBTITLE:(from CODE LYOKO);
#ARTIST:Noam Kaniel;
#TITLETRANSLIT:;
#SUBTITLETRANSLIT:;
#ARTISTTRANSLIT:;
#CREDIT:;
#BANNER:A World Without Danger.png;
#BACKGROUND:A World Without Danger-bg.png;
#JACKET:A World Without Danger-jacket.png;
#LYRICSPATH:;
#CDTITLE:;
#MUSIC:A World Without Danger.mp3;
#OFFSET:-0.100;
#SAMPLESTART:52.205;
#SAMPLELENGTH:16.160;
#SELECTABLE:YES;
#DISPLAYBPM:64.000:127.000;
#BPMS:0.000=63.505,16.000=127.010,160.000=63.505,178.000=127.010,242.000=63.505;
#STOPS:;
#BGCHANGES:;

//---------------dance-single - ----------------
#NOTES:
     dance-single:
     :
     Beginner:
     2:
     :
// measure 1
0000
0000
0000
0000
,  // measure 2
0000
0000
0000
0000
,  // measure 3
2000
0000
3200
0000
,  // measure 4
0320
0000
0032
0000
,  // measure 5
0103
0000
0000
0000
,  // measure 6
0001
0000
0000
0000
,  // measure 7
1000
0000
0000
0000
,  // measure 8
0010
0000
0000
0000
,  // measure 9
1000
0000
0000
0000
,  // measure 10
0100
0000
0000
0000
,  // measure 11
0010
0000
0000
0000
,  // measure 12
0001
0000
0000
0000
,  // measure 13
0001
0000
0100
0000
,  // measure 14
0010
0000
0000
0000
,  // measure 15
1000
0000
0010
0000
,  // measure 16
0100
0000
0000
0000
,  // measure 17
0100
0000
0001
0000
,  // measure 18
1000
0000
0000
0000
,  // measure 19
0010
0000
1000
0000
,  // measure 20
0001
0000
0000
0000
,  // measure 21
0200
0000
0000
0000
,  // measure 22
0302
0000
0000
0000
,  // measure 23
2003
0000
0000
0000
,  // measure 24
3020
0000
0000
0000
,  // measure 25
0130
0000
0001
0000
,  // measure 26
1000
0001
0010
0000
,  // measure 27
0100
0000
1000
0000
,  // measure 28
0001
1000
0100
0000
,  // measure 29
1000
0000
0001
0000
,  // measure 30
0100
0010
0100
0000
,  // measure 31
2002
0000
3003
0220
,  // measure 32
0000
0000
0000
0000
,  // measure 33
0330
2000
0000
3000
,  // measure 34
0010
0000
1000
0000
,  // measure 35
0100
0200
0000
0300
,  // measure 36
0010
0000
0001
0000
,  // measure 37
1000
2000
0000
3000
,  // measure 38
0010
0000
1000
0000
,  // measure 39
0001
0002
0000
0003
,  // measure 40
0100
0000
0010
0000
,  // measure 41
2000
0000
3002
0000
,  // measure 42
0023
0000
0230
0000
,  // measure 43
2300
0000
3020
0000
,  // measure 44
0230
0000
0302
0000
,  // measure 45
0000
0000
0103
0000
,  // measure 46
0010
0000
1000
0001
,  // measure 47
1000
0000
0001
0000
,  // measure 48
0010
0000
0100
1000
,  // measure 49
0100
0000
1000
0000
,  // measure 50
0010
0000
0100
0001
,  // measure 51
0100
0000
0220
0000
,  // measure 52
0330
0100
0001
0000
,  // measure 53
0100
0000
0001
0000
,  // measure 54
1000
0000
0010
0100
,  // measure 55
0001
0000
1000
0000
,  // measure 56
0100
0000
0010
0001
,  // measure 57
1000
0000
0010
0000
,  // measure 58
0100
0000
0010
1000
,  // measure 59
0001
0000
2002
0000
,  // measure 60
3003
0100
0010
0000
,  // measure 61
1000
0000
0002
0000
,  // measure 62
0023
0000
0032
0000
,  // measure 63
0203
0000
0320
0000
,  // measure 64
2030
0000
3020
0000
,  // measure 65
0230
0000
0310
0000
;

//---------------dance-single - ----------------
#NOTES:
     dance-single:
     :
     Easy:
     4:
     :
// measure 1
0000
0000
0000
0000
,  // measure 2
0000
0000
0000
0000
,  // measure 3
0001
0001
0100
0100
,  // measure 4
0010
0010
1000
1000
,  // measure 5
0001
0010
0001
0100
,  // measure 6
1000
0100
0010
0001
,  // measure 7
0010
0100
1000
0001
,  // measure 8
0100
0001
0010
0001
,  // measure 9
0100
1000
0100
0001
,  // measure 10
0100
1000
0010
0100
,  // measure 11
0010
0001
0010
1000
,  // measure 12
0100
0001
0100
1000
,  // measure 13
0110
0000
1000
0100
,  // measure 14
0001
1000
0000
0010
,  // measure 15
0100
0001
1000
0001
,  // measure 16
0100
0010
0000
0001
,  // measure 17
0000
0100
1000
0100
,  // measure 18
0010
0001
0000
0001
,  // measure 19
0100
0010
0100
0001
,  // measure 20
1000
0010
0000
0010
,  // measure 21
0100
0100
0001
1000
,  // measure 22
0010
0010
0000
0100
,  // measure 23
0001
0001
0010
0100
,  // measure 24
1000
1000
0000
0100
,  // measure 25
0010
1000
0010
0100
,  // measure 26
0001
1000
0001
0010
,  // measure 27
0100
0010
0001
0100
,  // measure 28
0010
1000
0001
0010
,  // measure 29
0100
1000
0100
0010
,  // measure 30
0001
0000
0100
0000
0010
0000
0100
2002
,  // measure 31
0000
0000
3003
1000
,  // measure 32
0100
0001
0100
0010
,  // measure 33
1000
2200
0000
3300
,  // measure 34
0100
0001
1000
0001
,  // measure 35
0100
0202
0000
0303
,  // measure 36
0010
0100
0010
1000
,  // measure 37
0100
0022
0000
0033
,  // measure 38
1000
0010
0100
0010
,  // measure 39
1000
2020
0000
3030
,  // measure 40
0100
0001
1000
0010
,  // measure 41
1000
0001
0010
0000
,  // measure 42
0010
0001
0100
0000
,  // measure 43
1000
0010
0100
0000
,  // measure 44
0100
0001
2000
0000
,  // measure 45
0002
0000
3003
0100
0010
0000
0001
0000
,  // measure 46
1000
0001
0010
0100
,  // measure 47
0010
1000
0001
1000
,  // measure 48
0010
0100
0001
1000
,  // measure 49
0010
1000
0001
0100
,  // measure 50
0001
1000
0010
0100
,  // measure 51
0001
0000
1000
0220
0000
0000
0000
0000
,  // measure 52
0330
0010
1000
0010
,  // measure 53
0100
0001
0010
0100
,  // measure 54
1000
0100
1000
0001
,  // measure 55
0010
1000
0100
0010
,  // measure 56
0001
0010
0100
0010
,  // measure 57
1000
0100
0010
0100
,  // measure 58
1000
0001
0010
0001
,  // measure 59
0100
0000
0010
2002
0000
0000
0000
0000
,  // measure 60
3003
0100
0010
0001
,  // measure 61
0010
0100
1000
0010
,  // measure 62
0100
0001
0010
1000
,  // measure 63
0001
1000
0100
0100
,  // measure 64
0001
0001
1000
1000
,  // measure 65
0010
0010
0110
0000
;

//---------------dance-single - ----------------
#NOTES:
     dance-single:
     :
     Medium:
     7:
     :
// measure 1
0000
0000
0000
0000
,  // measure 2
0000
0000
0000
0000
,  // measure 3
0100
0000
0000
0010
0000
0000
0100
0000
0001
0000
0000
1000
0000
0000
0001
0000
,  // measure 4
0010
0000
0000
0100
0000
0000
1000
0000
0200
0000
0000
0000
0000
0000
0000
0000
,  // measure 5
0310
0000
0001
0000
1000
0100
0000
0010
,  // measure 6
0100
0000
0001
0000
1000
0010
0100
0001
,  // measure 7
0100
0000
0001
0000
0010
0001
0000
0010
,  // measure 8
0100
0000
1000
0000
0001
0100
0010
1000
,  // measure 9
0010
0000
0100
0000
0010
0001
0000
0001
,  // measure 10
0100
0000
0010
0000
1000
0100
0010
0001
,  // measure 11
0100
0000
0010
0000
0100
0001
0000
1000
,  // measure 12
0100
0000
0010
0000
0010
0001
0100
0001
,  // measure 13
1000
0000
0010
0000
0100
0000
0010
1000
,  // measure 14
0000
0001
0100
0010
,  // measure 15
1000
0000
0100
1000
0000
0001
0000
0010
,  // measure 16
0000
0001
0000
0100
0000
0010
0000
1000
,  // measure 17
0100
0000
0000
0001
1000
0000
0100
0001
,  // measure 18
0000
0000
0010
0000
1000
0000
0100
1000
,  // measure 19
0010
0000
0000
0100
0000
0001
0000
2000
,  // measure 20
0000
0001
0100
0010
,  // measure 21
3100
0000
0000
0010
0001
0000
0100
0001
,  // measure 22
0000
0000
0010
0000
1000
0000
0001
0100
,  // measure 23
0010
0000
0000
1000
0000
0001
0000
2002
,  // measure 24
0000
0000
0000
3003
0000
0010
0000
1000
,  // measure 25
0000
0100
1000
0001
0000
0100
0010
0001
,  // measure 26
0000
0100
0000
0010
0000
1000
0000
0100
,  // measure 27
0000
1000
0010
0001
0000
0001
0100
1000
,  // measure 28
0000
0100
0000
0001
0000
0100
0000
0010
,  // measure 29
0000
1000
0010
0100
0000
0001
0100
0010
,  // measure 30
0000
0100
0000
0001
0000
0000
1000
2020
,  // measure 31
0000
0000
0000
0000
3030
0000
0100
0010
,  // measure 32
0000
0010
0000
1000
0000
0001
0010
0000
,  // measure 33
0100
0000
0022
0000
0000
0000
0033
2000
,  // measure 34
0000
0000
0000
3100
0000
0010
0000
0001
,  // measure 35
0000
0000
2200
0000
0000
0000
3300
0002
,  // measure 36
0000
0000
0000
1003
0000
0010
0000
0100
,  // measure 37
0000
0000
2020
0000
0000
0000
3030
0002
,  // measure 38
0000
0000
0000
0013
0000
1000
0000
0100
,  // measure 39
0000
0000
0202
0000
0000
0000
0303
2000
,  // measure 40
0000
0000
0000
3001
0000
0010
0000
0100
,  // measure 41
1000
0000
0001
0000
0022
0000
0000
0033
,  // measure 42
0001
0000
1000
0000
2200
0000
0000
3300
,  // measure 43
1000
0000
0001
0000
0202
0000
0000
0303
,  // measure 44
0001
1000
2020
0000
,  // measure 45
0000
0000
0000
3030
0100
0000
0010
0000
,  // measure 46
1000
0100
0000
1000
0001
0000
0100
0010
,  // measure 47
0000
0001
0000
0100
0000
0010
1000
0000
,  // measure 48
1000
0100
0000
0100
0001
0000
0001
0010
,  // measure 49
0000
0001
0000
1000
0100
0000
0010
0000
,  // measure 50
0001
0100
0000
0001
0010
0000
1000
0010
,  // measure 51
0000
0001
0000
1000
0000
0100
0010
0000
,  // measure 52
0010
0001
0000
0001
0100
0000
0100
0010
,  // measure 53
0000
0100
0010
1000
0000
0010
1000
0001
,  // measure 54
0000
0100
0001
0010
0000
1000
0010
0100
,  // measure 55
0000
0100
0001
1000
0000
0001
0010
0100
,  // measure 56
0000
0001
0100
0010
0000
1000
0000
0100
,  // measure 57
0000
1000
0100
0001
0000
0001
0100
0010
,  // measure 58
0000
0010
1000
0100
0000
0100
1000
0010
,  // measure 59
0000
0000
0100
0202
0000
0000
0000
0000
,  // measure 60
0303
0000
1000
0001
0000
0010
0000
0100
,  // measure 61
0000
1000
0001
0000
0100
0010
0001
0000
,  // measure 62
1001
0000
1000
0001
0010
0001
1000
0000
,  // measure 63
0110
0000
0000
0000
0010
0000
1000
0000
0001
0000
0000
0100
0000
0000
0010
0000
,  // measure 64
1000
0000
0000
0100
0000
0000
0010
0000
0001
0000
0000
1000
0000
0000
0001
0000
,  // measure 65
0100
0000
0000
0010
0000
0000
0000
0000
0110
0000
0000
0000
0000
0000
0000
0000
;

//---------------dance-single - ----------------
#NOTES:
     dance-single:
     :
     Hard:
     10:
     :
// measure 1
0000
0000
0000
0000
,  // measure 2
0000
0000
0000
0000
,  // measure 3
0001
0000
0000
1000
0000
0000
0010
0000
0000
0100
0000
0000
0010
0000
1000
0000
0100
0000
0000
0010
0000
0000
0001
0000
0000
0010
0000
0000
1000
0000
0100
0000
,  // measure 4
1000
0000
0000
0010
0000
0000
0100
0000
0000
0001
0000
0000
1000
0000
0100
0000
0022
0000
0000
0000
0000
0000
0000
0000
0000
0000
0000
0000
0000
0000
0033
0000
,  // measure 5
1000
0100
0010
0000
1000
0001
0000
0100
,  // measure 6
0010
1000
0001
0000
1000
0001
0010
0100
,  // measure 7
1000
0100
0010
0000
0001
0100
0000
1000
,  // measure 8
0100
1000
0001
0000
0010
0001
0100
0010
,  // measure 9
1000
0001
0010
0000
1000
0001
0000
0001
,  // measure 10
0100
0001
1000
0000
0001
0010
0100
0010
,  // measure 11
0001
0100
0010
0000
1000
0100
0000
0001
,  // measure 12
0100
0010
0100
0000
0010
0001
0100
0010
,  // measure 13
1000
0010
0100
0000
0001
0010
0100
0010
,  // measure 14
0000
0001
0010
0001
1000
0100
0100
1000
,  // measure 15
0001
0000
0100
0010
0000
0100
0000
0101
,  // measure 16
0000
1100
0000
0101
0000
1100
0000
0100
,  // measure 17
0010
0001
0010
0100
0010
0001
1000
0010
,  // measure 18
0000
0100
0001
1000
0001
0100
0010
0100
,  // measure 19
0001
0000
0001
1000
0000
0101
0000
2020
,  // measure 20
0000
0000
0000
0000
0000
0000
0000
3030
,  // measure 21
0001
0010
0001
0100
0001
1000
0100
0010
,  // measure 22
0001
0100
0010
0000
0000
1000
0100
0010
,  // measure 23
0001
0010
0100
1000
0000
0001
0000
0220
,  // measure 24
0000
0000
0000
0000
0330
1000
0010
0100
,  // measure 25
0000
0001
0100
0010
0000
1000
0100
0010
,  // measure 26
0000
0100
0010
0001
0000
0100
0010
1000
,  // measure 27
0000
0001
0010
0100
0000
0100
0010
0011
,  // measure 28
0000
0110
0000
1100
0000
0001
0100
0010
,  // measure 29
0000
0100
0001
1000
0000
0100
0001
0010
,  // measure 30
0000
0010
0100
2000
0000
0000
0001
0002
,  // measure 31
0000
0000
0000
0000
0000
3003
0100
0010
,  // measure 32
0000
1000
0000
0001
0000
1000
0100
0000
,  // measure 33
0001
0000
0000
0000
1010
0000
0000
0001
1000
0000
0010
0000
0000
0000
0110
0000
,  // measure 34
0000
0000
0100
0001
0000
0010
0000
0100
,  // measure 35
0000
0000
0000
0000
1100
0000
0000
1000
0010
0000
0100
0000
0000
0000
1001
0000
,  // measure 36
0000
0000
0001
0100
0000
0010
0000
1000
,  // measure 37
0000
0000
0000
0000
0011
0000
0000
1000
0100
0000
0010
0000
0000
0000
1001
0000
,  // measure 38
0000
0000
0100
1000
0000
0010
0000
0100
,  // measure 39
0000
0000
0000
0000
0101
0000
0000
0100
0001
0000
1000
0000
0000
0000
0110
0000
,  // measure 40
0000
0000
0001
0100
0000
0010
0000
2002
,  // measure 41
0000
0000
3003
0000
0010
0100
0010
2000
0000
0000
0000
0000
0000
0000
0000
3001
,  // measure 42
0010
0000
0010
0001
0000
1000
0000
0200
0000
0000
0000
0000
0000
0000
0000
0000
,  // measure 43
0000
0000
0000
0301
0010
0100
0010
0002
0000
0000
0000
0000
0000
0000
0000
1003
,  // measure 44
0100
0000
0100
0010
0000
0001
0000
0020
0000
0000
0000
0000
0000
0001
0100
2000
,  // measure 45
0000
0000
0000
0000
3030
0100
1000
0010
0000
0000
0100
0000
0001
0000
0010
0000
,  // measure 46
0000
0001
1000
0100
0000
0100
0010
0100
,  // measure 47
0000
0001
0100
0010
0000
1000
0010
0100
,  // measure 48
0000
1000
0001
1010
0000
1001
0000
0101
,  // measure 49
0000
0001
0010
0001
0000
1000
0010
1000
,  // measure 50
0000
0100
0010
0100
0000
0001
1000
0200
,  // measure 51
0000
0000
0010
0020
0000
0000
0000
0000
,  // measure 52
0000
0330
1000
0010
0000
0100
0000
0001
,  // measure 53
0000
0010
0100
1000
0000
0100
0010
0001
,  // measure 54
0000
0100
0010
0100
0000
0001
1000
0001
,  // measure 55
0000
0010
1000
0100
0000
0010
0001
0100
,  // measure 56
0000
0010
0100
1000
0010
1000
0001
0100
,  // measure 57
0010
0100
0001
1000
0000
0010
0001
0100
,  // measure 58
0000
0001
1000
0100
0000
1000
0010
0002
,  // measure 59
0000
0000
0100
0020
0000
0000
0000
0000
,  // measure 60
0000
0033
0001
0010
0000
0100
0000
1000
,  // measure 61
0000
0000
0100
0000
0010
0000
0000
0000
1001
0000
0010
0000
0100
0001
0000
0100
,  // measure 62
0000
0000
0010
0100
0000
0010
0000
1000
0000
0000
0010
0000
0100
0010
0000
0001
,  // measure 63
0000
0000
0000
0000
1000
0000
0001
0000
0000
0000
0010
0000
0000
0000
0000
0000
1000
0000
0000
0010
0000
0000
0100
0000
0000
0001
0000
0000
0100
0000
0001
0000
,  // measure 64
0010
0000
0000
0100
0000
0000
1000
0000
0000
0100
0000
0000
0001
0000
0010
0000
0001
0000
0000
0100
0000
0000
0010
0000
0000
1000
0000
0000
0001
0000
0100
0000
,  // measure 65
0001
0000
0000
0010
0000
0000
0100
0000
0000
1000
0000
0000
0000
0000
0000
0000
0110
0000
0000
0000
0000
0000
0000
0000
0000
0000
0000
0000
0000
0000
0000
0000
;

//---------------dance-single - ----------------
#NOTES:
     dance-single:
     :
     Challenge:
     14:
     :
// measure 1
0000
0000
0000
0000
,  // measure 2
0000
0000
0000
0000
,  // measure 3
0001
0100
0000
0001
0100
0000
0001
0100
0000
0001
0100
0000
0010
0000
1000
0000
0010
0100
0000
0010
0100
0000
0010
0100
0000
0010
0100
0000
1000
0000
0001
0000
,  // measure 4
1000
0010
0000
1000
0010
0000
1000
0010
0000
1000
0010
0000
0100
0000
0001
0000
1000
0001
0000
1000
0001
0000
1000
0001
0000
1000
0001
0000
0010
0000
0100
0000
,  // measure 5
1000
0010
0000
0100
0010
0000
1000
0010
0000
0100
0010
0000
1000
0000
0001
0000
,  // measure 6
0100
0001
0000
0100
0010
0000
0100
0001
0000
0100
0010
0000
1000
0000
0001
0000
,  // measure 7
1000
0010
0000
0001
0010
0000
1000
0010
0000
0001
0010
0000
0100
0000
0010
0000
,  // measure 8
1000
0100
0000
0001
0100
0000
1000
0100
0000
0001
0100
0000
0010
0000
0100
0000
,  // measure 9
0001
1000
0000
0001
0010
0000
0001
1000
0000
0001
0100
0000
0010
0000
0100
0000
,  // measure 10
1000
0100
0000
1000
0001
0000
1000
0010
0000
1000
0001
0000
0100
0000
0010
0000
,  // measure 11
0100
0001
0000
1000
0010
0000
1000
0100
0000
0010
0001
0000
1000
0000
0001
0000
,  // measure 12
0010
0100
0000
1000
0001
0000
0100
0010
0000
0001
1000
0000
0010
0000
0100
0000
,  // measure 13
1001
0000
0010
0100
1000
0001
0100
0001
,  // measure 14
0010
0001
0100
1000
0100
0010
0001
0100
,  // measure 15
0010
1000
0010
0100
0001
0010
0001
0100
,  // measure 16
1000
0100
0001
0010
1000
0010
0001
0100
,  // measure 17
0001
1000
0001
0100
0010
1000
0100
0001
,  // measure 18
0100
1000
0001
0001
1000
0010
0100
0100
,  // measure 19
0010
1000
0001
1000
0010
1000
0100
0010
,  // measure 20
0001
0010
0100
1000
0001
0100
0010
0100
,  // measure 21
1000
0100
1000
0100
1000
0000
0001
0010
0001
0010
0001
0000
0100
0000
0010
0000
,  // measure 22
1000
0010
0100
0010
1000
0000
0001
0100
0010
0100
0001
0000
1000
0000
0001
0000
,  // measure 23
0100
0010
1000
0010
0100
0000
0001
1000
0010
1000
0001
0000
0100
0000
0010
0000
,  // measure 24
0220
0000
0000
0000
0000
0000
0000
0000
0330
0000
0010
1000
0010
0000
0100
0000
,  // measure 25
0000
0000
1000
0001
1000
0000
0010
0000
0000
0000
1000
0100
1000
0000
0001
0000
,  // measure 26
0000
0000
0010
0001
0010
0000
1000
0000
0000
0000
0100
0001
0100
0000
0010
0000
,  // measure 27
0000
0000
0010
1000
0010
0000
0100
0000
0000
0000
0001
0100
0001
0000
1010
0000
,  // measure 28
0000
0000
1001
0000
0000
0000
0101
0000
0000
0000
0001
1000
0100
0000
0010
0000
,  // measure 29
0000
0000
1000
0100
0010
0000
0001
0000
0000
0000
0100
0010
1000
0000
0001
0000
,  // measure 30
0000
0000
0010
0100
1000
0000
0100
0000
0000
0000
0010
0001
1000
0000
0022
0000
,  // measure 31
0000
0000
0000
0000
0000
0033
1000
0100
,  // measure 32
0001
0100
0010
0000
0000
0000
1010
0000
0000
0000
1000
0000
0001
0010
0100
0000
,  // measure 33
0001
0000
0000
0000
0001
0100
0000
0100
0010
0000
1000
0000
0010
0000
0100
0000
,  // measure 34
0000
0000
0010
0100
0001
1000
0001
0010
,  // measure 35
0000
0000
0000
0000
0010
0001
0000
0001
0100
0000
0010
0000
1000
0000
0001
0000
,  // measure 36
0000
0000
1000
0010
1000
0100
0010
0001
,  // measure 37
0000
0000
0000
0000
1000
0100
0000
0100
0010
0000
0001
0000
1000
0000
0001
0000
,  // measure 38
0000
0000
0010
0001
0010
0100
1000
0100
,  // measure 39
0000
0000
0000
0000
1000
0010
0000
0010
0100
0000
0001
0000
1000
0000
0100
0000
,  // measure 40
0000
0000
1000
0010
0010
0100
0100
0002
,  // measure 41
0000
0000
0000
0000
0013
0100
0010
2000
0000
0000
0000
0000
0000
0000
0000
3001
,  // measure 42
0010
0100
0010
0001
0001
1000
1000
0200
0000
0000
0000
0000
0000
0000
0000
0000
,  // measure 43
0000
0000
0000
0301
0010
1000
0100
0020
0000
0000
0000
0000
0000
0000
0000
1030
,  // measure 44
0001
0000
1000
0000
0100
0000
0010
0000
0100
0000
0010
0000
0001
0000
0020
0000
0000
0000
0000
0000
0000
0000
0000
0000
0000
0000
0100
0100
0100
0000
0002
0000
,  // measure 45
0000
0000
0000
0000
0000
0000
0000
0000
0033
0000
0100
1000
0100
0000
1000
0000
0000
0000
0000
0000
0001
0000
0100
0000
0001
0000
0000
0000
0010
0000
0000
0000
,  // measure 46
0000
0000
0001
1000
0001
0000
0100
0000
0000
0000
0100
0010
0100
0000
0001
0000
,  // measure 47
0000
0000
0001
1000
0100
0000
0010
0000
0000
0000
1000
0001
0010
0000
0100
0000
,  // measure 48
0000
0000
0010
0100
0010
0000
1100
0000
0000
0000
0110
0000
0000
0000
0011
0000
,  // measure 49
0000
0000
0010
0001
0010
0000
0001
0000
0000
0000
1000
0010
1000
0000
1000
0000
,  // measure 50
0000
0000
0100
0010
0100
0000
0001
0000
0000
0000
0001
1000
0010
0000
0100
0000
,  // measure 51
0000
0000
0100
0001
0010
0000
2200
0000
0000
0000
0000
0000
0000
0000
0000
0000
,  // measure 52
0000
0000
3300
0000
1000
0000
0010
0000
1000
0100
1000
0000
0000
0000
0101
0000
,  // measure 53
0000
0000
0100
0001
0010
0000
0001
0000
0000
0000
0010
0001
0100
0000
1000
0000
,  // measure 54
0000
0000
0010
1000
0100
0000
0010
0000
0000
0000
1000
0001
0010
0000
0100
0000
,  // measure 55
0000
0000
0100
0010
0001
0000
0010
0000
0000
0000
0100
0001
1000
0000
0010
0000
,  // measure 56
0000
0000
0000
0000
0100
0000
1000
0000
0001
0000
0000
0000
0010
1000
0000
0000
0000
0000
0000
0000
0001
1000
0000
0000
0000
0000
0000
0000
0010
0100
0000
0000
,  // measure 57
0000
0000
0010
1000
0001
0000
0001
0000
0000
0000
0100
0001
1000
0000
1000
0000
,  // measure 58
0000
0000
1000
0100
0010
0000
0010
0000
0000
0000
0001
0010
0100
0000
0100
0000
,  // measure 59
0000
0000
1000
0010
0100
0000
0220
0000
0000
0000
0000
0000
0000
0000
0000
0000
,  // measure 60
0000
0000
0330
0000
1000
0000
0100
0000
0010
0100
0010
0000
0000
0000
1001
0000
,  // measure 61
0000
0000
0000
0000
0001
0000
0010
0000
0100
0000
0000
0000
0010
0000
0000
0000
0001
0010
0000
0001
0010
0000
0001
0010
0000
0001
0010
0000
0100
0000
1000
0000
,  // measure 62
0001
1000
0000
0001
1000
0000
0001
1000
0000
0001
1000
0000
0010
0000
0100
0000
0100
0010
0000
0100
0010
0000
0100
0010
0000
0100
0010
0000
0001
0000
0010
0000
,  // measure 63
0100
1000
0000
0100
1000
0000
0100
1000
0000
0100
1000
0000
0001
0000
0010
0000
0001
0000
0000
0100
0000
0000
0010
0000
0000
1000
0000
0000
0010
0000
1000
0000
,  // measure 64
0100
0000
0000
0010
0000
0000
0001
0000
0000
0010
0000
0000
1000
0000
0100
0000
1000
0000
0000
0010
0000
0000
0100
0000
0000
0001
0000
0000
1000
0000
0010
0000
,  // measure 65
1000
0000
0000
0100
0000
0000
0010
0000
0000
0001
0000
0000
0000
0000
0100
0000
0110
0000
0000
0000
0000
0000
0000
0000
0000
0000
0000
0000
0000
0000
0000
0000
;
