#TITLE:1, 2, 3, 4, 007;
#SUBTITLE:(Sparky's Gimmick Steps);
#ARTIST:NI-NI;
#TITLETRANSLIT:;
#SUBTITLETRANSLIT:;
#ARTISTTRANSLIT:;
#CREDIT:;
#BANNER:1, 2, 3, 4, 007.png;
#BACKGROUND:1, 2, 3, 4, 007-bg.png;
#JACKET:1, 2, 3, 4, 007-jacket.png;
#LYRICSPATH:;
#CDTITLE:;
#MUSIC:1, 2, 3, 4, 007.ogg;
#OFFSET:0.000;
#SAMPLESTART:44.563;
#SAMPLELENGTH:13.680;
#SELECTABLE:YES;
#DISPLAYBPM:140.000;
#BPMS:0.000=139.998;
#STOPS:;
#BGCHANGES:;

//---------------dance-single - ----------------
#NOTES:
     dance-single:
     :
     Beginner:
     1:
     :
// measure 1
0000
0000
0000
0000
,  // measure 2
1000
0000
0000
0000
,  // measure 3
0000
0000
0000
0000
,  // measure 4
0001
0000
0000
0000
,  // measure 5
0000
0000
0000
0000
,  // measure 6
0200
0000
0000
0300
,  // measure 7
1000
0000
0000
0000
,  // measure 8
0010
0000
0000
0000
,  // measure 9
0001
0000
0000
0000
,  // measure 10
0100
0000
0000
0000
,  // measure 11
1000
0000
0000
0000
,  // measure 12
0010
0000
0000
0000
,  // measure 13
0100
0000
0000
0000
,  // measure 14
0001
0000
0000
0000
,  // measure 15
0100
0000
0000
0000
,  // measure 16
0010
0000
0000
0000
,  // measure 17
0001
0000
0000
0000
,  // measure 18
0010
0000
0000
0000
,  // measure 19
2000
0000
0000
0000
,  // measure 20
0000
0000
0000
0000
,  // measure 21
0000
0000
0000
3000
,  // measure 22
0020
0000
0000
0030
,  // measure 23
0002
0000
0000
0000
,  // measure 24
0000
0000
0000
0000
,  // measure 25
0000
0000
0000
0003
,  // measure 26
2000
0000
0000
3000
,  // measure 27
0010
0000
0000
0000
,  // measure 28
0000
0000
0000
0000
,  // measure 29
0100
0000
0000
0000
,  // measure 30
0000
0000
0000
0000
,  // measure 31
0001
0000
0000
0000
,  // measure 32
0000
0000
0000
0000
,  // measure 33
0010
0000
0000
0000
,  // measure 34
0000
0000
0000
0000
,  // measure 35
0001
0000
0000
0000
,  // measure 36
0000
0000
0000
0000
,  // measure 37
0010
0000
0000
0000
,  // measure 38
0000
0000
0000
0000
,  // measure 39
0100
0000
0000
0000
,  // measure 40
0000
0000
0000
0000
,  // measure 41
1000
0000
0000
0000
,  // measure 42
0000
0000
0000
0000
,  // measure 43
0010
0000
0000
0000
,  // measure 44
1000
0000
0000
0000
,  // measure 45
0001
0000
0000
0000
,  // measure 46
1000
0000
0000
0000
,  // measure 47
0100
0000
0000
0000
,  // measure 48
0001
0000
0000
0000
,  // measure 49
1000
0000
0000
0000
,  // measure 50
0020
0000
0000
0030
;

//---------------dance-single - ----------------
#NOTES:
     dance-single:
     :
     Easy:
     2:
     :
// measure 1
0000
0000
0000
0000
,  // measure 2
1000
0000
0000
0000
,  // measure 3
0100
0000
0000
0000
,  // measure 4
0001
0000
0000
0000
,  // measure 5
0010
0000
0000
0000
,  // measure 6
0220
0000
0000
0330
,  // measure 7
1000
0000
0100
0000
,  // measure 8
0010
0000
0100
0000
,  // measure 9
0001
0000
1000
0000
,  // measure 10
0100
0000
0010
0000
,  // measure 11
1000
0000
0001
0000
,  // measure 12
0010
0000
0001
0000
,  // measure 13
0100
0000
0100
0000
,  // measure 14
0001
0000
0010
0000
,  // measure 15
0100
0000
1000
0000
,  // measure 16
0010
0000
1000
0000
,  // measure 17
0001
0000
0100
0000
,  // measure 18
0010
0000
0100
0000
,  // measure 19
2000
0000
0000
0000
,  // measure 20
0100
0000
0010
0000
,  // measure 21
0002
0000
0000
3003
,  // measure 22
0220
0000
0000
0330
,  // measure 23
0002
0000
0000
0000
,  // measure 24
0100
0000
0010
0000
,  // measure 25
0200
0000
0000
0303
,  // measure 26
2002
0000
0000
3003
,  // measure 27
0010
0000
0000
0000
,  // measure 28
0001
0000
0000
0000
,  // measure 29
0100
0000
0000
0000
,  // measure 30
0010
0000
0000
0000
,  // measure 31
0001
0000
0000
0000
,  // measure 32
0010
0000
0000
0000
,  // measure 33
0010
0000
0000
0000
,  // measure 34
0100
0000
0000
0000
,  // measure 35
0001
0000
0000
0000
,  // measure 36
1000
0000
0000
0000
,  // measure 37
0010
0000
0000
0000
,  // measure 38
1000
0000
0000
0000
,  // measure 39
0100
0000
0000
0000
,  // measure 40
0100
0000
0000
0000
,  // measure 41
1000
0000
0000
0000
,  // measure 42
0100
0000
0000
0000
,  // measure 43
0010
0000
0001
0000
,  // measure 44
1000
0000
0100
0000
,  // measure 45
0001
0000
0100
0000
,  // measure 46
1000
0000
0001
0000
,  // measure 47
0100
0000
0010
0000
,  // measure 48
0001
0000
0100
0000
,  // measure 49
1000
0000
0001
0000
,  // measure 50
0020
0000
0000
0030
,  // measure 51
0100
0000
0000
0000
;

//---------------dance-single - ----------------
#NOTES:
     dance-single:
     :
     Medium:
     3:
     :
// measure 1
0000
0000
0000
0000
,  // measure 2
1000
0000
0010
0000
,  // measure 3
0100
0000
0001
0000
,  // measure 4
0001
0000
1000
0000
,  // measure 5
0010
0000
0100
0000
,  // measure 6
0220
0000
0000
0330
,  // measure 7
1000
0000
0100
0001
,  // measure 8
0010
0000
0100
0000
,  // measure 9
0001
0000
1000
0000
,  // measure 10
0100
0000
0010
0000
,  // measure 11
1000
0000
0001
0000
,  // measure 12
0010
0000
0001
1000
,  // measure 13
0000
0001
0100
0000
,  // measure 14
0001
0000
0010
0000
,  // measure 15
0100
0000
1000
0000
,  // measure 16
0010
0000
1000
0001
,  // measure 17
0000
1000
0100
0000
,  // measure 18
0010
0000
0100
0000
,  // measure 19
2000
0000
0001
0000
,  // measure 20
0100
0000
0010
0000
,  // measure 21
0002
0000
0000
3003
,  // measure 22
0220
0000
0000
0330
,  // measure 23
0002
0000
1000
0000
,  // measure 24
0100
0000
0010
0000
,  // measure 25
0200
0000
0000
0303
,  // measure 26
2002
0000
0000
3003
,  // measure 27
0010
1000
0100
1000
,  // measure 28
0001
0000
1000
0000
,  // measure 29
0100
0000
0000
0000
,  // measure 30
0010
0000
0000
0000
,  // measure 31
0001
1000
0010
1000
,  // measure 32
0000
0001
0010
0000
,  // measure 33
0010
0000
0000
0000
,  // measure 34
0100
0000
0000
0000
,  // measure 35
0001
0100
0010
0100
,  // measure 36
1000
0000
0001
0000
,  // measure 37
0010
0000
0000
0000
,  // measure 38
1000
0000
0000
0000
,  // measure 39
0100
0010
0001
1000
,  // measure 40
0000
1000
0010
0000
,  // measure 41
1000
0000
0000
0000
,  // measure 42
0100
0000
0000
0000
,  // measure 43
0010
0000
0001
0010
,  // measure 44
1000
0000
0100
0000
,  // measure 45
0001
0000
0100
0000
,  // measure 46
1000
0000
0001
0000
,  // measure 47
0100
0000
0010
1000
,  // measure 48
0001
0000
0100
0000
,  // measure 49
1000
0000
0001
0000
,  // measure 50
0020
0000
0000
0030
,  // measure 51
0100
0000
0000
0000
;

//---------------dance-single - ----------------
#NOTES:
     dance-single:
     :
     Hard:
     4:
     :
// measure 1
0000
0000
0000
0000
,  // measure 2
1000
0000
0010
0000
,  // measure 3
0100
0000
0001
0000
,  // measure 4
0001
0000
1000
0000
,  // measure 5
0010
0000
0100
0000
,  // measure 6
0220
0000
0000
0330
,  // measure 7
1000
0000
0100
0001
,  // measure 8
0010
0000
0100
0000
,  // measure 9
0001
0000
1000
0000
,  // measure 10
0100
0000
0010
0000
,  // measure 11
1000
0000
0001
0000
,  // measure 12
0010
1000
0001
1000
,  // measure 13
0000
0001
0100
0000
,  // measure 14
0002
0000
0023
0000
,  // measure 15
0130
0000
1000
0000
,  // measure 16
0010
0001
1000
0001
,  // measure 17
0000
1000
0100
0000
,  // measure 18
0020
0000
0230
0000
,  // measure 19
2300
0001
0001
0000
,  // measure 20
0100
0000
0010
0100
,  // measure 21
0002
0000
0000
3003
,  // measure 22
0220
0000
0000
0330
,  // measure 23
0002
0100
1000
0000
,  // measure 24
0100
0000
0010
1000
,  // measure 25
0200
0000
0000
0303
,  // measure 26
2002
0000
0000
3003
,  // measure 27
0010
1000
0100
1000
,  // measure 28
0001
0010
1000
0000
,  // measure 29
0100
0000
0100
0000
,  // measure 30
0010
0000
0010
0000
,  // measure 31
0001
1000
0010
1000
,  // measure 32
0000
0001
0011
0000
,  // measure 33
0010
0000
0010
0000
,  // measure 34
0100
0000
0100
0000
,  // measure 35
0001
0100
0010
0100
,  // measure 36
1000
0100
0001
0000
,  // measure 37
0010
0000
0001
0000
,  // measure 38
1000
0000
0001
0000
,  // measure 39
0100
0010
0001
1000
,  // measure 40
0000
1000
0011
0000
,  // measure 41
1000
0000
0001
0000
,  // measure 42
0100
0000
0001
0000
,  // measure 43
0010
0000
0001
0010
,  // measure 44
1000
0000
0100
0000
,  // measure 45
0001
0000
0100
0000
,  // measure 46
1000
0000
0001
0000
,  // measure 47
0100
0000
0010
1000
,  // measure 48
0001
0000
0100
0000
,  // measure 49
1000
0000
0001
0000
,  // measure 50
0020
0000
0000
0030
,  // measure 51
1100
0000
0000
0000
;

//---------------dance-single - ----------------
#NOTES:
     dance-single:
     :
     Challenge:
     7:
     :
// measure 1
0000
0000
0000
0000
,  // measure 2
1000
0100
0010
0001
,  // measure 3
0100
0000
1000
0000
0001
1000
0000
0000
,  // measure 4
0001
0000
0100
0001
0000
1000
0001
0000
,  // measure 5
0010
0000
0010
0100
0000
0001
1000
0000
,  // measure 6
0220
0000
0000
0330
,  // measure 7
1000
0100
1000
0000
0100
0010
0001
0000
,  // measure 8
0010
1000
0010
0000
0100
0010
1000
0000
,  // measure 9
0001
0000
0010
0000
0100
0000
0010
0000
1000
0000
0000
0110
0000
0000
0001
0000
,  // measure 10
0100
0000
1000
0000
0001
0000
1000
0000
0010
0000
0000
1100
0000
0000
0001
0000
,  // measure 11
1000
0000
0100
0000
1000
0001
0000
0010
,  // measure 12
0000
1000
0000
0001
0000
0010
1000
0000
,  // measure 13
0100
0000
0001
0010
0100
1000
0000
0002
,  // measure 14
0000
2003
0000
3020
0000
0000
0000
0000
,  // measure 15
0130
0000
0001
0000
1000
0100
0000
0010
,  // measure 16
0000
0001
0000
1000
0000
0010
0001
0100
,  // measure 17
0001
0000
1000
0001
0100
0001
0000
0010
,  // measure 18
0000
0001
1000
0010
0100
0000
0001
0000
,  // measure 19
2100
0000
0001
0000
0001
0000
0010
0100
,  // measure 20
0000
0001
0000
0100
0000
0010
0100
0000
,  // measure 21
0002
0003
0200
3300
,  // measure 22
0120
1000
0001
0130
,  // measure 23
0012
0000
0100
0000
1000
0000
1000
0100
,  // measure 24
0000
1000
0000
0000
0010
0010
1000
0000
,  // measure 25
0200
0300
0020
0033
,  // measure 26
1002
0010
0100
1003
,  // measure 27
0010
1000
0100
1000
,  // measure 28
0001
0000
0010
0000
1000
1000
0000
0000
,  // measure 29
0100
0000
0010
0100
0000
0100
0001
0000
,  // measure 30
0010
0000
1000
0010
0000
0010
0100
0000
,  // measure 31
0001
0000
1000
0000
0010
0100
1000
0000
,  // measure 32
0010
0100
0001
0000
0022
0000
0033
0000
,  // measure 33
0010
0000
0100
0010
0000
0010
0001
0000
,  // measure 34
0100
0000
1000
0100
0000
0100
0010
0000
,  // measure 35
0001
0100
0010
0100
,  // measure 36
1000
0000
0100
0000
0001
0001
0000
0000
,  // measure 37
0010
0000
0100
0001
0000
0001
0010
0000
,  // measure 38
1000
0000
0100
0001
0000
0001
1000
0000
,  // measure 39
0100
0000
0010
0000
0001
0010
1000
0000
,  // measure 40
0100
0001
1000
0000
0022
0000
0033
0000
,  // measure 41
1000
0000
0100
0001
0000
0001
0010
0000
,  // measure 42
0100
0000
0010
0001
0000
0001
1000
0000
,  // measure 43
0010
0100
0010
0000
0001
1000
0010
0000
,  // measure 44
1000
0001
0010
0000
0100
0010
1000
0000
,  // measure 45
0001
0000
0010
0000
0001
0000
1000
0000
0100
0000
0000
0011
0000
0000
0100
0000
,  // measure 46
1000
0000
0010
0000
0100
0000
0010
0000
0001
0000
0000
1010
0000
0000
0001
0000
,  // measure 47
0100
0010
0100
0000
0010
0001
1000
0000
,  // measure 48
0001
1000
0010
0000
0100
0010
0001
0000
,  // measure 49
1000
0000
0001
0000
0100
0000
0010
0000
0001
0000
0000
0101
0000
0000
0100
0000
,  // measure 50
0022
0000
0000
0033
,  // measure 51
1100
0000
0000
0000
;
