#TITLE:.59;
#SUBTITLE:(Sparky's Gimmick Steps);
#ARTIST:dj TAKA;
#TITLETRANSLIT:;
#SUBTITLETRANSLIT:;
#ARTISTTRANSLIT:;
#CREDIT:;
#BANNER:.59.png;
#BACKGROUND:.59-bg.png;
#JACKET:.59-jacket.png;
#LYRICSPATH:;
#CDTITLE:;
#MUSIC:.59.ogg;
#OFFSET:0.000;
#SAMPLESTART:65.78;
#SAMPLELENGTH:23.14;
#DISPLAYBPM:59:270;
#BPMS:0=67.5,6=135,10=67.5,16=135,20=270,24=135,92=67.5,98=135,102=67.5,108=135,126=270,130=135,142=270,150=135,166=270,167=135,198=67.5,204=63.38,205=60.8,205.5=59.08;
#STOPS:20=0.22,21=0.22,22=0.22,23=0.22,166.0625=0.22;
#BGCHANGES:;

//---------------dance-single - ----------------
#NOTES:
     dance-single:
     :
     Beginner:
     3:
     :
0000
0000
1000
0000
,
0001
0000
0220
0000
,
0000
0000
0000
0330
,
0010
1000
0001
0100
,
2002
0000
0000
3003
,
0100
1000
0001
0010
,
1000
0000
0100
0000
,
0010
0000
0001
0000
,
0200
0000
0000
0300
,
0002
0000
0000
0003
,
0010
0000
0001
0000
,
1000
0000
0100
0000
,
2000
0000
0000
3000
,
0020
0000
0000
0030
,
0100
0000
0001
0000
,
1000
0000
0010
0000
,
0002
0000
0000
0003
,
0020
0000
0000
0030
,
0001
0000
0010
0000
,
0100
0000
1000
0000
,
2000
0000
0000
3000
,
0200
0000
0000
0300
,
0020
0000
0000
0000
,
0230
0000
0000
0000
,
2000
0300
3020
0000
,
0000
0000
0230
0000
,
0000
0000
0002
0300
,
2003
0000
0000
0000
,
3100
0000
0000
1000
,
0001
0000
0000
0100
,
1000
0000
0000
0010
,
1000
0001
0020
0000
,
0000
0000
0130
0000
,
0000
0000
0010
0000
,
0000
0100
0002
0000
,
0000
0000
2000
0000
,
0000
0000
0000
0000
,
0000
3003
0100
0000
,
0001
0000
1000
0000
,
0010
0000
0200
0000
,
0000
0300
0020
0000
,
0000
0030
1001
0100
,
1000
0000
0010
0000
,
0100
0000
2000
0000
,
0000
3000
0002
0000
,
0000
0003
0100
0000
,
0001
0000
0010
0000
,
0001
0000
0200
0000
,
0000
0000
0020
0000
,
0000
0330
0100
0001
,
1000
0001
0100
0010
,
0100
0001
0000
0000
;

//---------------dance-single - ----------------
#NOTES:
     dance-single:
     :
     Easy:
     5:
     :
0000
0000
2000
0000
,
3002
0000
1003
0100
,
0010
0001
0220
0330
,
1000
0100
0001
0100
,
0001
1000
0010
0100
,
0100
1000
0010
0001
,
0100
0010
1000
0010
,
0100
0001
1000
0100
,
0002
1000
0100
1000
,
0023
0001
1000
0001
,
0130
1000
0001
0010
,
0100
0001
0010
0001
,
0200
0010
1000
0001
,
0302
0010
1000
0100
,
0013
1000
0100
1000
,
0001
0010
0100
1000
,
0020
0001
1000
0100
,
2030
0100
0010
0100
,
3001
1000
0001
0100
,
1000
0010
0100
0001
,
2010
0010
0001
0100
,
3200
0010
0001
1000
,
0020
0000
0000
0330
,
2000
0000
0000
0000
,
0020
3030
0001
0100
,
1000
0100
0002
0000
,
0000
0000
0200
0303
,
1000
0100
0001
0100
,
0002
0013
1000
0200
,
0302
1003
0001
2000
,
3200
0310
0100
0020
,
0032
2003
3010
0100
,
0010
0100
0002
0013
,
1000
0100
0020
0130
,
0010
2000
3001
1000
,
0001
1000
0010
0100
,
0010
0100
0220
0000
,
0000
0330
1000
0001
,
0100
0100
0001
1000
,
0001
0001
0010
0100
,
0001
1000
0100
1000
,
0001
0100
0110
1001
,
0010
1000
0100
0100
,
0010
0010
0100
0001
,
1000
0100
1000
0010
,
0100
0001
0010
1000
,
0010
0100
0001
0100
,
0010
0001
0100
0010
,
1000
0100
0001
0100
,
0001
1000
1010
0101
,
0011
1100
0020
2030
,
3002
0200
0000
0303
;

//---------------dance-single - ----------------
#NOTES:
     dance-single:
     :
     Medium:
     8:
     :
0000
0000
0000
0000
0000
0000
0000
0000
0000
0200
0000
0000
0000
0000
0000
0000
,
0300
0020
0000
0000
0000
0000
0000
0000
1030
0000
0001
0000
1000
0000
0000
0000
,
0100
0010
0100
0000
2002
0000
3003
0000
,
0001
0000
0000
0101
0000
0000
0000
0000
1000
0000
0000
1100
0000
0000
0000
0000
,
1000
0100
0010
0000
0001
0010
0100
0000
,
1100
0101
0011
1010
,
1000
0010
0000
0000
0110
0000
0000
0000
0001
0000
0000
0000
1000
0000
0000
0000
,
0010
1000
0001
0000
0100
0010
1000
0000
,
0010
0100
0001
1000
,
1000
0100
0010
0100
1000
0010
0100
0000
,
0001
0010
0000
0000
0110
0000
0000
0000
1000
0000
0000
0000
0001
0000
0000
0000
,
0010
0100
1000
0000
0100
0010
0001
0000
,
1000
0100
0001
0010
,
0010
0001
0100
0010
1000
0100
1000
0000
,
0010
0100
0000
0000
0100
0010
0000
0000
1001
0000
0000
0000
0100
0000
0000
0000
,
0001
1000
0001
0100
,
1000
0010
1000
0001
0100
0010
0100
0000
,
0010
0001
1000
0001
0100
0010
1000
0000
,
0010
0000
0000
0000
1000
0100
0000
0100
0000
0000
0000
0000
1001
0000
0000
0000
,
0010
1000
0010
0100
,
0001
0100
0010
0100
,
0001
0010
1000
0000
0001
1000
0100
0010
,
0002
0000
0000
0000
0000
0000
0000
0003
,
0010
0000
0000
0000
0100
0000
0000
0000
0010
0000
0000
0000
0001
0000
0000
0001
,
1100
0000
0010
0000
0100
0001
1000
0000
,
1000
0001
0100
0010
0100
0000
0001
0000
,
1000
0000
0000
0000
0010
0000
0000
1000
0101
0000
0000
0000
0001
0000
0000
0000
,
1000
0010
0100
0000
0010
0001
1000
0001
,
0100
0000
0001
0000
1000
0010
0100
0000
,
0001
0000
1000
0000
0001
0010
0100
0000
,
0010
0000
0001
0000
1000
0001
0100
0000
,
0020
0230
0320
0230
,
0320
0230
0301
0010
,
1000
0100
0010
0000
1000
0000
0001
0000
,
0100
0010
0001
0000
1100
0000
0101
0000
,
1100
0101
2000
3002
,
2003
0000
3002
0000
1003
0001
1000
0001
,
0220
0000
0000
0000
0330
0000
0000
0000
0001
0010
0000
0000
1100
0000
0000
0000
,
0010
0000
0001
0000
0100
0001
1000
0000
,
0001
0010
0100
0000
0100
0000
0001
0000
,
1000
0000
0001
0000
0010
0001
0100
0000
,
0100
0010
1000
0000
0022
0033
1010
0000
,
0100
0000
0010
0000
0001
1000
0100
0000
,
0010
1000
0001
0000
0010
0000
0100
0000
,
0001
0000
1000
0000
0001
0100
0010
0000
,
1000
0000
0001
0000
0100
0000
0000
0000
0010
1000
0000
0000
0101
0000
0000
0000
,
0010
0000
0100
0000
0001
0100
1000
0000
,
1000
0010
0001
0000
0010
0001
1000
0100
,
1000
0001
0100
0000
0010
0100
0010
1000
,
0001
1000
0100
0000
0010
0001
1000
0001
,
0100
1000
0001
1000
0100
0010
0001
0010
,
0100
1000
0002
0020
0000
0000
0033
0000
;

//---------------dance-single - ----------------
#NOTES:
     dance-single:
     :
     Hard:
     14:
     :
0000
0000
0000
0000
0000
0000
0000
0000
1000
0010
0200
0000
0000
0000
0000
0000
,
0301
0010
0200
0000
0000
0000
0000
0000
1300
0000
0100
0000
1000
0000
0010
0000
,
0100
0001
0100
0010
0220
0000
0000
0330
,
1010
0000
0000
0000
0000
0000
2200
0000
0000
0000
0000
0000
3300
0000
0000
0000
0011
0000
0000
0000
0000
0000
0202
0000
0000
0000
0000
0000
0303
0000
0000
1000
,
0010
1000
0001
0100
0010
1000
0001
0010
,
1100
0101
0011
1010
,
0100
0001
0000
0000
0110
0000
0001
1000
0000
0001
0100
0000
0010
0000
0001
0000
,
1000
0000
0001
0000
0100
0000
0010
1000
0000
1000
0001
0000
0100
0000
0010
0000
,
0100
0001
1000
0001
0100
0010
1000
0010
,
0001
0100
0010
0001
1000
0001
0100
0010
,
0001
0010
0000
0000
1100
0000
0100
0010
0000
0001
0010
0000
0100
0000
0010
0000
,
1000
0000
0001
0000
0100
0000
1000
0001
0000
0001
0100
0000
0010
0000
1000
0000
,
0100
1000
0100
0001
0010
0001
0010
1000
,
0010
0100
1000
0001
0100
0010
0100
0001
,
0100
0010
0000
0000
1000
0100
0000
0202
0000
0000
0303
0000
0010
0100
0000
0001
,
0000
0100
0000
0000
0010
0000
0010
1000
0000
0100
0000
1000
0000
0010
0000
1000
,
0001
0100
0001
0010
0001
1000
0001
1000
0100
1000
0010
0100
0010
1000
0001
0100
,
0001
1000
0001
0010
0100
1000
0001
0100
0001
1000
0010
0100
0010
0000
1000
0000
,
0100
0000
0001
0000
1000
0100
0000
2002
0000
0000
3003
0100
0000
0010
0000
0001
,
0010
0000
0100
0000
0010
0001
0000
0010
0000
1000
0010
0000
0000
0100
0000
1000
,
0001
0010
0100
0001
1000
0100
0010
1000
,
0001
0010
1000
0100
0001
0010
0100
1000
,
0220
0000
0000
0000
0000
0000
0000
0000
0330
0000
0001
0010
0100
0000
0100
0010
,
0002
0000
0000
0000
1000
0000
0010
0000
0100
0000
0000
0000
0013
0000
0100
0010
,
0102
0000
0000
0000
1000
0000
0000
0000
0103
0010
0100
0000
0010
0000
1000
0000
,
0001
1000
0001
0000
0100
0000
0001
0000
2000
0000
0000
0000
0100
0000
0001
0000
,
0010
0000
0000
0000
3100
0000
0001
1000
2100
0000
0000
0000
0001
0000
0000
0000
,
3100
0010
0001
0000
1000
0000
0001
0000
0100
0010
1000
0000
0001
0100
0001
0010
,
0100
0000
0010
0000
1000
0000
0001
0010
0001
0000
1000
0000
0101
0000
0000
0000
,
0010
0000
1000
0000
0001
0000
0100
0010
0100
0000
0001
0000
1100
0000
0000
0000
,
1000
0000
0010
0000
0001
0000
0010
0100
1000
0000
0100
0000
0110
0000
0000
0000
,
0011
0000
1010
0000
0202
0303
2200
3300
,
0202
0000
0303
0000
2200
0000
3300
0000
0001
0000
0100
0000
0001
0000
1000
0010
,
0100
0000
0001
0000
1010
0000
0000
0000
0100
0000
0001
0000
1000
0000
0010
0100
,
0001
1000
0101
0000
0110
0000
1001
0000
,
0110
1001
0011
1010
,
1100
0000
0101
0000
0001
0010
0001
1000
,
0100
0010
0001
0100
0010
1000
0100
0010
0001
1000
0000
0000
0011
0000
0001
0100
,
0000
0001
1000
0000
0100
0000
1000
0000
0010
0000
0100
0000
0001
0000
0100
0010
,
0000
0001
1000
0000
0100
0000
1000
0000
0010
0000
0100
0000
0001
0000
1000
0000
,
0100
0010
0100
0001
0100
0010
0100
1000
,
0100
0000
0000
0000
0000
0000
0000
0000
1000
0000
0000
0000
0000
0000
0000
0000
0001
0000
0000
0000
0000
0000
0000
0000
0010
0000
0000
0000
0000
0000
0000
0000
0100
0020
0000
0000
0000
0000
0000
0000
0000
0000
0000
0000
0030
0000
0000
0000
1001
0000
0000
0000
0000
0000
0000
0000
1000
0000
0000
0000
0100
0000
0000
0000
,
0000
0001
0010
0000
0100
0000
0010
0000
1000
0000
0001
0000
0100
0000
1000
0100
,
0000
0010
0001
0000
0100
0000
0010
0000
1000
0000
0100
0000
1000
0000
0001
0000
,
0100
0000
0010
0000
1000
0000
0010
0000
0100
0000
0001
0000
0010
0000
1000
0100
,
0010
0000
0010
0100
1000
0000
0100
0000
0010
0001
0000
0000
0011
0000
0100
1000
,
0000
0010
1000
0000
0100
0000
0010
0000
0100
0000
1000
0000
0001
0000
0010
0001
,
0000
1000
0010
0000
1000
0000
0100
0000
0001
0100
0010
0100
0001
0010
0001
0100
,
0001
1000
0010
0100
0010
0001
0010
1000
0100
0010
0100
0001
0100
1000
0100
1000
,
0001
0000
0100
0000
0010
0000
1000
0000
0100
0000
0010
0000
0001
0000
0100
0000
0010
0000
1000
0000
0010
0000
0100
0001
0000
0001
1000
0000
0100
0000
1000
0000
,
0001
0000
0010
0000
0001
0000
0100
0010
0000
1000
0100
0000
0001
0000
1000
0000
0100
0000
0001
0000
1000
0000
0001
0000
0010
0000
0100
0000
0010
0000
1000
0000
,
0001
0010
0100
0001
0100
0010
2000
0020
0000
0000
0000
0000
3030
0000
0000
0000
;
