#VERSION:0.83;
#TITLE:Uh La La La;
#SUBTITLE:Almighty Edit;
#ARTIST:ALEXIA;
#TITLETRANSLIT:;
#SUBTITLETRANSLIT:;
#ARTISTTRANSLIT:;
#GENRE:Eurodance;
#CREDIT:;
#MUSIC:Uh La La La (Almighty Edit).ogg;
#BANNER:Uh La La La (Almighty Edit).png;
#BACKGROUND:Uh La La La (Almighty Edit)-bg.png;
#CDTITLE:;
#SAMPLESTART:40.616;
#SAMPLELENGTH:14.769;
#SELECTABLE:YES;
#OFFSET:0.000;
#BPMS:0.000=130.000;
#STOPS:;
#SPEEDS:0.000=1.000=0.000=0;
#SCROLLS:0.000=1.000;
#TICKCOUNTS:0.000=4;
#TIMESIGNATURES:0.000=4=4;
#LABELS:0.000=Song Start;
#COMBOS:0.000=1;
#ORIGIN:Dancing Stage INTERNET R@NKING Version;
#PREVIEWVID:;
#JACKET:;
#CDIMAGE:;
#DISCIMAGE:;
#BGCHANGES:;
#FGCHANGES:;

//--------------- dance-single - Funtastrophe ----------------
#NOTEDATA:;
#STEPSTYPE:dance-single;
#DESCRIPTION:Funtastrophe;
#DIFFICULTY:Hard;
#METER:9;
#RADARVALUES:0,0,0,0,0;
#CREDIT:Funtastrophe;
#NOTES:
0000
0000
0000
0000
,
0000
0000
0000
0000
,
0000
0000
0000
0000
,
0000
0000
0000
0000
,
0000
0000
0000
0000
,
2000
0000
0000
0000
3100
0000
0000
0100
0000
0000
0000
0000
0000
0000
0000
0000
,
0010
0001
0010
0000
0100
1000
0001
0000
,
0002
0000
0000
0000
0103
0000
0000
0010
0000
0010
0000
0000
0000
0000
0000
0000
,
1000
0000
0000
0000
0000
0000
0001
1000
0001
1000
0000
0000
,
1000
0000
0000
0100
1000
0000
0000
0000
0001
0000
0100
0000
0001
0000
0010
0000
,
0100
0000
0000
1000
0001
0000
0000
0000
0010
0000
0000
0001
1000
0000
0000
0000
,
0001
0000
0000
0100
0001
0000
0000
0000
1000
0000
0100
0000
1000
0000
0001
0000
,
0100
0000
0000
0001
1000
0000
0000
0000
0010
0000
0000
1000
0001
0000
0010
0000
,
0001
0000
0000
0100
0001
0000
0000
0000
1000
0000
0100
0000
1000
0000
0010
0000
,
0100
0000
0000
0001
1000
0000
0000
0000
0010
0000
0000
1000
0001
0000
0000
0000
,
1000
0000
0000
0100
1000
0000
0000
0000
0001
0000
0100
0000
0010
0000
1000
0000
,
0100
0000
0000
1000
0001
0000
0000
0000
0010
0000
0000
0001
1000
0000
0000
0000
,
0001
0100
0010
0100
0001
0010
0100
0010
,
0001
1000
0010
0002
0000
0013
1000
0000
,
0001
1000
0100
1000
0010
0100
0010
1000
,
0001
0001
1000
1000
,
0001
0000
0000
1000
0000
0000
0001
0000
1000
0000
0000
0000
1001
0000
0000
0000
,
0002
0000
0000
0000
0013
0000
0000
0110
0000
0000
0000
0000
0100
0000
0000
0000
,
1000
0010
0100
0010
0001
0010
0100
0010
,
2000
0000
0000
0000
3100
0000
0000
0010
0000
0010
0000
0000
0000
0000
0000
0000
,
0001
0000
0000
0010
0001
0000
0000
0000
1000
0000
0000
0010
1000
0000
0000
0000
,
0002
0000
0000
0000
0103
0000
0000
0110
0000
0000
0000
0000
0010
0000
1000
0000
,
0001
0010
0100
0010
1000
0010
0100
0010
,
0002
0000
0000
0000
0103
0000
0000
0100
0000
0100
0000
0000
0010
0000
0000
0000
,
1000
0000
0000
0100
1000
0000
0000
0000
0001
0000
0000
0100
0001
0000
0000
0000
,
1000
0000
0000
1000
0000
0000
1000
0000
0100
0000
0010
0000
0001
0000
1000
0000
,
0001
0000
0000
0001
0000
0000
0001
0000
0100
0000
0010
0000
1000
0000
0001
0000
,
1000
0000
0000
1000
0000
0000
1000
0000
0010
0000
0100
0000
0001
0000
1000
0000
,
0001
0000
0000
0001
0000
0000
0001
0000
0010
0000
0100
0000
1000
0000
0001
0000
,
1000
0000
0000
0100
0000
0000
0010
0000
0001
0000
0100
0000
0001
0000
1000
0000
,
0001
0000
0000
0100
0000
0000
0010
0000
1000
0000
0100
0000
1000
0000
0001
0000
,
1000
0000
0000
0010
0000
0000
0100
0000
0001
0000
1000
0000
0100
0000
1000
0000
,
0001
0000
0000
0010
0000
0000
0100
0000
1000
0000
0000
0100
0000
0000
0010
0000
,
0011
0000
0000
0000
,
0002
0103
2000
3100
,
1010
0000
0000
0000
,
2000
0000
3010
0000
0002
0000
0013
0001
,
2000
3100
0002
0103
,
2000
3010
0002
0103
,
2000
3100
0002
0013
,
0001
1000
0001
1000
0000
0000
0001
1000
0001
1000
0000
0000
,
0002
0000
0000
0000
0103
0000
0000
0010
0000
0000
0000
0000
1010
0000
0000
0000
,
0001
0010
0100
0001
0100
0010
0001
0000
,
1000
0000
0010
0000
0200
0000
0000
0001
0000
0301
0000
0000
1100
0000
0000
0000
,
0100
0000
0000
1000
0001
0000
0000
0000
0010
0000
0000
0001
1000
0000
0000
0000
,
0002
0000
0000
0000
0013
0000
0000
0100
0000
0000
0000
0000
1100
0000
0000
0000
,
1000
0010
0100
1000
0100
0010
1000
0000
,
0001
0000
1000
0000
0200
0000
0000
0010
0000
0310
0000
0000
0011
0000
0000
0000
,
1000
0000
0000
0000
0000
0000
0001
1000
0001
1000
0000
0000
;

//--------------- dance-single - Funtastrophe ----------------
#NOTEDATA:;
#STEPSTYPE:dance-single;
#DESCRIPTION:Funtastrophe;
#DIFFICULTY:Challenge;
#METER:14;
#RADARVALUES:0.571074,0.628431,0.09017,0.440829,0.701319,399,390,9,44,11,0,1,0,0,0.571074,0.628431,0.09017,0.440829,0.701319,399,390,9,44,11,0,1,0,0;
#BPMS:0.000=130.000
,32.000=65.000
,33.000=130.000
,149.000=65.000
,159.000=130.000
,191.000=65.000
,192.000=130.000
;
#STOPS:79.000=0.231
,79.500=0.231
,80.000=0.231
,80.500=0.231
,149.000=1.846
,151.000=1.846
;
#SPEEDS:0.000=1.000=0.000=0;
#SCROLLS:0.000=1.000;
#TICKCOUNTS:0.000=4;
#TIMESIGNATURES:0.000=4=4;
#LABELS:0.000=Song Start;
#COMBOS:0.000=1;
#DISPLAYBPM:130.000;
#CHARTNAME:;
#CHARTSTYLE:;
#CREDIT:Funtastrophe;
#NOTES:
0000
0000
0000
0000
,
0000
0000
0000
0000
,
0000
0000
0000
0000
,
0000
0000
0000
0000
,
0000
0000
0000
0000
,
0002
0000
0000
0000
1003
0100
0000
0100
0010
0000
0001
0000
1001
0000
1000
0000
,
0010
0000
0100
0000
1000
0000
0001
0010
0000
0010
0100
0000
0101
0000
1000
0000
,
0100
0000
2000
0000
3001
0100
0000
0100
0000
0010
0000
0010
1000
0000
0100
0000
,
1000
0000
0000
0000
0000
0000
0000
0000
0000
0000
0000
0000
0001
0000
0000
0000
0001
0000
0000
0000
0001
0000
0000
0000
0001
0000
0000
0000
0000
0000
0000
0000
0000
0000
0000
0000
0001
0000
0000
0000
0000
0000
0000
0000
0000
0001
0000
0000
,
0100
0000
0001
0000
0010
0000
0100
0000
0001
0000
1000
0010
0001
0000
1000
0000
,
0010
0000
0100
0000
0001
0000
0010
0100
0010
0000
0001
0000
1000
0000
0000
1000
,
0100
0000
1000
0000
0010
0000
0100
0000
1000
0000
0001
0010
0100
0001
0010
0000
,
0100
0000
1000
0000
0001
0000
0100
0010
0100
0000
0001
0000
1000
0000
0000
1000
,
0100
0000
1000
0000
0010
0000
0100
0000
1000
0000
0001
0010
1000
0000
0001
0000
,
0010
0000
0100
0000
1000
0000
0010
0100
0010
0000
1000
0000
0001
0000
0000
0001
,
0100
0000
0001
0000
0010
0000
0100
0000
0001
0000
1000
0010
0100
1000
0010
0000
,
0100
0000
0001
0000
1000
0000
0100
0010
0100
0000
1000
0000
0001
0000
1000
0000
,
0100
0010
0000
0010
0001
0000
0100
0000
1000
0000
0100
0000
0010
0000
0001
0000
,
0010
0000
1000
0001
1000
0000
0000
1000
0100
0000
1000
0000
1000
0000
0001
0000
,
0010
0100
0000
0100
0001
0000
1000
0000
0010
0000
0001
0000
1M00
0000
1100
0000
,
0M01
0000
0101
0000
10M0
0000
0000
1000
0000
0000
1000
0000
1000
0000
0100
0010
,
0001
0010
0100
0000
2000
0000
0000
0000
3100
0010
0000
0011
0000
0001
0100
0001
,
0010
0000
0100
0000
1000
0000
0010
0000
0100
0000
1000
0100
0000
0100
0010
1000
,
0100
0010
0100
0000
1000
0000
0002
0000
1003
0100
0000
0100
0000
0010
0000
0001
,
1000
0000
0010
0000
0100
0000
0000
0001
0100
0000
0010
0000
1000
0100
0000
0100
,
1000
0000
0010
0000
2000
0000
0000
0000
3001
0100
0000
0110
0000
0000
0000
0010
,
1000
0000
1000
0000
0001
0000
0010
0000
0100
0000
0001
0100
0010
0100
1000
0100
,
0010
0000
0001
0000
0001
0000
0200
0000
0310
1000
0000
1000
0000
0100
0000
0010
,
0001
0000
1000
0000
0001
0000
0000
0001
0100
0000
0001
0000
4000
0000
0000
0000
,
3000
0000
0000
0000
0002
0003
0000
0002
1003
0000
0002
0003
0100
0000
0010
0000
,
1000
0000
0100
0000
2000
3000
0000
2000
3001
0000
2000
3000
0100
0000
0010
0000
,
0001
0000
0100
0000
0002
0003
0000
0002
1003
0000
0002
0003
0100
0000
0010
0000
,
1000
0000
0100
0000
2000
3000
0000
2000
3001
0000
2000
3000
0010
0100
0000
0010
,
0100
0000
0010
0000
2000
3000
0000
2000
3001
0000
2000
3000
0001
0000
0010
0000
,
0100
0000
1000
0000
0002
0003
0000
0002
1003
0000
0002
0003
1000
0000
0010
0000
,
0100
0000
0001
0000
2000
3000
0000
2000
3001
0000
2000
3000
0010
0000
0001
0000
,
0010
0000
1000
0000
0002
0003
0000
0002
1003
0000
0002
0003
0020
0030
0000
0020
,
0130
0000
0020
0030
1MM1
0000
0000
0000
0000
0000
0000
0000
1M1M
0000
0000
0000
,
0000
0000
0000
0000
0000
0000
0100
0000
0201
0000
0300
0000
0001
0100
0000
0100
0000
0000
0000
0000
0000
0000
0000
0000
0000
0000
0002
0000
2003
0000
3200
0320
,
0000
0000
0000
0032
0000
0000
0000
0000
0000
0000
0000
0000
0003
0000
0000
0000
0000
0000
0000
0000
0000
0000
0000
0000
0000
0000
0000
0000
0000
0000
2000
0000
0000
0000
0000
0000
3100
0000
0000
0010
0000
0000
0000
0000
0000
0010
0000
0000
0000
0000
0000
0001
0000
0000
0000
0000
0000
0000
0000
0000
0000
0000
0000
0000
0000
0000
0000
0000
0000
0000
0000
0000
1MM0
0000
0000
0000
0000
0000
0000
0000
1000
0000
0000
0000
0000
0000
0000
0000
1000
0000
0000
0000
0000
0000
0000
0000
,
1000
0000
0000
0000
0000
0000
0000
0000
0000
0000
0000
0000
0001
0000
0000
0000
0001
0000
0000
0000
0001
0000
0000
0000
0001
0000
0000
0000
0000
0000
0000
0000
0000
0000
0000
0000
2000
0000
0000
0000
0000
0000
3100
0000
0000
0010
0000
0000
,
0100
1000
0000
0001
0000
0001
0100
0010
1000
0000
0001
0000
1000
0000
0100
0010
,
0100
0000
0010
0001
0010
0100
1000
0001
0100
0010
0100
0001
1000
0000
0020
0000
,
0130
0001
0000
0001
0000
0010
0000
0010
0001
0000
1000
0000
0001
0000
0100
0010
,
1000
0000
0001
0000
1000
0100
0010
0001
0100
0001
1000
0000
0002
0000
0103
0010
,
0100
0001
0000
1000
0000
1000
0100
0010
0001
0000
1000
0000
0001
0000
0100
0010
,
0100
0000
0010
1000
0010
0100
0001
1000
0100
0010
0100
1000
0001
0000
0020
0000
,
0130
1000
0000
1000
0000
0010
0000
0010
1000
0000
0001
0000
1MM0
0000
0000
0000
,
0001
0001
0001
0001
0000
0000
0000
0000
0000
0000
0000
0000
;
