#VERSION:0.83;
#TITLE:TRIP MACHINE;
#SUBTITLE:xac nanoglide mix;
#ARTIST:DE-SIRE;
#TITLETRANSLIT:;
#SUBTITLETRANSLIT:;
#ARTISTTRANSLIT:;
#GENRE:Neurofunk;
#CREDIT:;
#MUSIC:TRIP MACHINE (xac nanoglide mix).ogg;
#BANNER:TRIP MACHINE (xac nanoglide mix).png;
#BACKGROUND:TRIP MACHINE (xac nanoglide mix)-bg.png;
#CDTITLE:;
#SAMPLESTART:12.710;
#SAMPLELENGTH:15.000;
#SELECTABLE:YES;
#OFFSET:-1.412;
#BPMS:0.000=170.000;
#STOPS:;
#SPEEDS:0.000=1.000=0.000=0;
#SCROLLS:0.000=1.000;
#TICKCOUNTS:0.000=4;
#TIMESIGNATURES:0.000=4=4;
#LABELS:0.000=Song Start;
#COMBOS:0.000=1;
#DISPLAYBPM:170.000;
#ORIGIN:;
#PREVIEWVID:;
#JACKET:TRIP MACHINE (xac nanoglide mix)-jacket.png;
#CDIMAGE:;
#DISCIMAGE:;
#BGCHANGES:;
#FGCHANGES:;

//--------------- dance-single - Funtastrophe ----------------
#NOTEDATA:;
#STEPSTYPE:dance-single;
#DIFFICULTY:Hard;
#METER:9;
#RADARVALUES:0.751974,0.929015,0.484235,1.013308,0.354209,587,533,54,113,0,0,0,0,6,0.751974,0.929015,0.484235,1.013308,0.354209,587,533,54,113,0,0,0,0,6;
#CREDIT:Funtastrophe;
#OFFSET:-1.412;
#BPMS:0.000=170.000
,24.000=42.500
,28.000=170.000
,92.000=680.000
,92.500=170.000
,92.750=680.000
,93.250=170.000
,93.500=680.000
,94.000=170.000
,94.250=680.000
,94.750=170.000
,95.000=680.000
,95.500=170.000
,160.000=42.500
,172.000=170.000
,211.000=85.000
,212.000=170.000
,276.000=680.000
,276.500=170.000
,276.750=680.000
,277.250=170.000
,277.500=680.000
,278.000=170.000
,278.250=680.000
,278.750=170.000
,279.000=680.000
,279.500=170.000
;
#STOPS:92.000=0.132
,92.750=0.132
,93.500=0.132
,94.250=0.132
,95.000=0.132
,276.000=0.132
,276.750=0.132
,277.500=0.132
,278.250=0.132
,279.000=0.132
;
#WARPS:24.021=3.000,
160.021=5.000,
211.021=0.500
;
#SPEEDS:0.000=1.000=0.000=0;
#SCROLLS:0.000=1.000;
#TICKCOUNTS:0.000=4;
#TIMESIGNATURES:0.000=4=4;
#LABELS:0.000=Song Start;
#COMBOS:0.000=1;
#DISPLAYBPM:170.000;
#CHARTNAME:;
#CHARTSTYLE:;
#NOTES:
0000
0000
0000
0000
,
0000
0000
0000
0000
,
0000
0000
0000
0000
,
0000
0000
0000
0000
,
0001
0100
0010
1000
0000
1000
0001
0000
,
1000
0100
0010
0001
0000
0001
1000
0000
,
2002
0000
0000
0000
0000
0000
0000
3003
,
1000
0000
0001
0000
0010
0000
0000
0001
0000
0000
1000
0000
0010
0000
0000
0000
,
0102
0003
0102
0000
0003
0200
0301
0200
,
0310
0200
1300
0200
0310
2000
3001
0000
,
1000
0100
0200
0000
1300
0200
0310
0200
,
0301
0200
0310
0200
2300
3002
0203
0320
,
1030
0000
2010
0000
3000
0020
0130
0020
,
0031
0020
0130
0020
2030
3002
0023
0230
,
1300
0001
0002
0000
0003
0020
0130
0020
,
1030
0020
0130
0020
0032
0203
0320
2030
,
3001
0000
0002
0000
0003
2000
3100
2000
,
3010
2000
3001
2000
3020
0032
0023
2030
,
3001
0010
0020
0000
0030
0002
0013
0002
,
0103
0002
1003
0002
0023
2030
3020
0032
,
1003
0000
2000
0000
3000
0200
1300
0200
,
0310
0200
0301
0200
2300
3002
0203
0320
,
1030
0001
0002
0000
0003
2000
3100
2000
,
3100
0000
0000
0100
0000
0000
0001
0000
0000
0001
0000
0000
0100
0000
1000
0000
,
0001
0100
0010
0000
1000
0001
0010
0100
,
0000
0000
0100
0000
0010
0000
0001
0000
0100
0000
0000
0100
0010
0000
1000
0000
,
1000
0100
0010
0100
0000
1000
0001
0100
,
0000
0000
0001
0000
1000
0000
0100
0000
0010
0000
0000
0010
0001
0000
1000
0000
,
1000
0100
0010
0100
0000
1000
0001
0100
,
0000
0000
0001
0000
0010
0000
0100
0000
1000
0000
0000
1000
0010
0000
0100
0000
,
0001
1000
0010
0100
0000
0001
0010
0100
,
1000
0000
0000
1000
0000
0000
1000
0000
0010
0000
0100
0000
0010
0000
0100
0000
,
0001
0000
0002
0100
0003
0000
0001
0100
,
0000
0100
0001
0010
0100
0100
1000
1000
,
0001
0000
2000
0100
3000
2000
0000
3100
,
0010
0001
0010
1000
0001
1000
0010
0001
,
1000
0000
0000
1000
0000
0000
1000
0000
0010
0000
0000
0010
0000
0000
0010
0000
,
0100
1000
0100
0001
0010
0010
0100
0100
,
1000
0000
0002
0100
0003
0002
0000
0103
,
0010
0000
0000
0010
0000
0000
1000
0000
0000
0000
1000
0000
0100
0000
0010
0000
,
0002
0000
0000
0000
,
0000
0000
0000
0000
,
0000
0000
0000
0003
0001
0000
0001
0000
0001
0000
0001
0000
0001
0000
0001
0000
,
0001
0100
0010
1000
0100
0010
0010
0001
,
1000
0100
1000
0001
0100
0001
1000
0010
,
0100
0001
0010
0100
1000
0010
0100
0001
,
1000
0100
1000
0001
1000
0010
0100
0001
,
0010
0100
0010
0001
0100
0010
1000
0001
,
2000
3000
1100
0000
0002
0003
0101
0000
,
1010
0000
0000
1010
0000
0000
1010
0000
,
2000
0000
3002
0000
,
0023
2030
3200
0302
,
1003
0000
0010
0100
0010
0100
0001
0000
,
1000
0100
1000
0001
0010
0010
0100
0100
,
0000
1000
0001
0100
0000
0001
1000
0100
,
0000
0010
0001
0100
0010
0010
1000
1000
,
0001
1000
0010
0100
0000
0001
0010
0100
,
1000
0000
0001
0000
0100
0000
0000
0100
0000
0000
0100
0000
0010
0000
0100
0000
,
0001
0100
0010
1000
0100
0010
0010
0001
,
0000
0001
0010
0100
0001
0001
0100
0100
,
0000
1000
0001
0100
0000
0001
1000
0010
,
0100
0000
0100
0001
0010
0010
0100
0100
,
0001
0100
1000
0001
0000
1000
0010
0100
,
0000
0001
1000
0100
0010
0010
1000
1000
,
0010
0001
1000
0010
0000
1000
0001
0010
,
0100
0000
1000
0000
0001
0000
0000
0001
0000
0000
0001
0000
0100
0000
0010
0000
,
1000
0000
0000
1000
0000
0000
1000
0000
0010
0000
0000
0010
0000
0000
0010
0000
,
0100
1000
0100
0001
0010
0010
0100
0100
,
1000
0001
0010
0001
1000
0010
1000
0001
,
0101
0000
0000
0101
0000
0000
1001
0000
0000
1001
0000
0000
1010
0000
0000
0000
,
2200
0000
0000
0000
,
0000
0000
0000
0000
,
0000
0000
0000
0000
,
0000
0000
0000
0000
,
3300
0000
0000
0000
;

//--------------- dance-single - Funtastrophe ----------------
#NOTEDATA:;
#STEPSTYPE:dance-single;
#DIFFICULTY:Challenge;
#METER:11;
#RADARVALUES:0.751974,0.929015,0.484235,1.013308,0.354209,587,533,54,113,0,0,0,0,6,0.751974,0.929015,0.484235,1.013308,0.354209,587,533,54,113,0,0,0,0,6;
#CREDIT:Funtastrophe;
#OFFSET:-1.412;
#BPMS:0.000=170.000
,24.000=42.500
,28.000=170.000
,92.000=680.000
,92.500=170.000
,92.750=680.000
,93.250=170.000
,93.500=680.000
,94.000=170.000
,94.250=680.000
,94.750=170.000
,95.000=680.000
,95.500=170.000
,160.000=42.500
,172.000=170.000
,211.000=85.000
,212.000=170.000
,276.000=680.000
,276.500=170.000
,276.750=680.000
,277.250=170.000
,277.500=680.000
,278.000=170.000
,278.250=680.000
,278.750=170.000
,279.000=680.000
,279.500=170.000
;
#STOPS:92.000=0.132
,92.750=0.132
,93.500=0.132
,94.250=0.132
,95.000=0.132
,276.000=0.132
,276.750=0.132
,277.500=0.132
,278.250=0.132
,279.000=0.132
;
#WARPS:24.021=3.000,
160.021=5.000,
211.021=0.500
;
#SPEEDS:0.000=1.000=0.000=0;
#SCROLLS:0.000=1.000;
#TICKCOUNTS:0.000=4;
#TIMESIGNATURES:0.000=4=4;
#LABELS:0.000=Song Start;
#COMBOS:0.000=1;
#DISPLAYBPM:170.000;
#CHARTNAME:;
#CHARTSTYLE:;
#NOTES:
0000
0000
0000
0000
,
0000
0000
0000
0000
,
0000
0000
0000
0000
,
0000
0000
0000
0000
,
0001
0100
0010
1000
1000
0100
0010
0001
,
0001
0200
0020
0000
0000
0000
0000
0330
,
2002
0000
0000
0000
0000
0000
0000
3003
,
1000
0000
0001
0000
0010
0000
0000
0001
0000
0001
1000
0000
0010
0000
1000
0000
,
0102
0000
0003
0000
0102
0000
0103
0001
1000
0000
0200
0000
1300
0000
0200
0000
,
0310
0200
0301
0200
0310
0002
1003
0000
,
1100
0000
0002
0000
2003
0000
3001
0100
0001
0000
0200
0000
0301
0000
0200
0000
,
0310
0200
1300
0200
0320
0032
0023
2030
,
3002
0000
0003
0000
0102
0000
1003
0100
1000
0000
0020
0000
1030
0000
0020
0000
,
0130
0020
0031
0020
0230
0302
2003
3200
,
0310
0000
0001
0000
0012
0000
0013
0001
0010
0000
0200
0000
0310
0000
0200
0000
,
0301
0200
0310
0200
2300
3020
0230
0302
,
2003
0000
3000
0000
2100
0000
3100
0010
0001
0010
0200
0000
1300
0000
0200
0000
,
0310
0200
0301
0200
0320
0032
0203
0320
,
0032
0000
0013
0000
2010
0000
3010
0100
0001
0100
0020
0000
1030
0000
0020
0000
,
0130
0020
0031
0020
2030
3200
0320
0032
,
2003
0000
3000
0000
0102
0000
0103
0010
1000
0010
0200
0000
0301
0000
0200
0000
,
0310
0200
1300
0200
0320
0032
0023
2030
,
3200
0000
1300
0000
2100
0000
3100
0010
0001
0010
0200
0000
1300
0000
0100
0000
,
0110
0000
0000
0110
0000
0000
0011
0000
0000
0011
0000
0000
1001
0000
0100
0000
,
1001
0001
0010
1100
1000
0001
0100
1010
,
0010
0000
0100
0000
0001
0000
1100
0000
0010
0000
0001
0100
0010
0000
1000
0000
,
1001
1000
0010
0101
0001
1000
0100
0011
,
0010
0000
0100
0000
1000
0000
0101
0000
0010
0000
1000
0100
0010
0000
0001
0000
,
1001
0000
1000
0000
0010
0000
0100
0001
0100
0010
0100
0000
0001
0000
1000
0000
,
0100
0000
1000
0000
0010
0000
0100
0001
0100
0010
0100
0001
0010
0000
0001
0000
,
1001
0000
0001
0000
0010
0000
0100
1000
0100
0010
0100
0000
1000
0000
0001
0000
,
0100
0010
0000
0100
0010
0000
0100
0010
1000
0000
1010
0000
0001
0000
0011
0000
,
2001
3000
2001
0100
3000
0001
0010
0100
,
0100
1000
0010
0100
1000
1000
0100
0100
,
0001
1000
0002
0100
0003
1000
0010
0100
,
0001
0000
0100
0010
1000
0000
0100
0010
0001
0010
0100
0010
0001
0000
1000
0000
,
0002
0000
0003
0002
0000
0003
0002
0000
0013
0000
0100
1000
0010
0000
1000
0000
,
0001
0000
0100
0000
0001
0000
1000
0000
0010
0000
0010
0000
0100
0001
0100
0001
,
1000
0000
1000
0000
0010
0000
0100
0001
0100
0001
0100
0000
0010
0000
0010
0000
,
1010
0000
0000
1001
0000
0000
0101
0000
0100
0000
0020
0000
1030
0001
1000
0000
,
2002
0000
0000
0000
,
0000
0000
0000
0000
0000
0003
0001
0001
,
0001
0001
0001
0001
0001
0001
0001
3001
,
0001
0000
0100
0000
0010
0000
1000
0100
1000
0100
0010
0000
0001
0100
0001
0100
,
0001
0000
0100
0000
1010
0000
1000
0010
1000
0010
0100
0000
0011
0000
0001
0010
,
0100
0000
1000
0000
0101
0000
0001
0100
0001
0100
0001
0000
1010
0000
1000
0001
,
0100
0000
0001
0000
1010
0000
1000
0010
1000
0010
0100
0000
0011
0000
0001
0010
,
0100
0000
1000
0000
0011
0000
0001
0010
0001
0010
0100
0000
1010
0000
0001
0000
,
0200
0000
0310
0200
0000
0301
0020
0000
0030
0200
0000
0300
,
2020
3030
0001
2020
3030
0001
2020
3030
,
0002
0203
2300
3020
,
0032
2003
3020
0230
,
0301
0000
0001
0000
0010
0000
0100
1000
0010
0100
0001
0000
0202
0000
0000
0303
,
0001
1000
0001
0010
1000
1000
0001
0001
,
0100
1000
0001
0100
0001
0010
0011
0001
,
1000
0001
1010
1000
0010
0010
0100
0100
,
0001
1000
0010
1000
0001
0010
0011
0001
,
2000
0000
0100
0000
3200
0000
0000
0010
0301
0010
0100
1000
0001
0000
0100
0000
,
0102
0000
1003
0100
0010
0001
0011
1000
,
0010
1000
1010
0010
0001
0001
1000
1000
,
0100
0002
1003
0002
0103
0002
0013
0002
,
0103
0000
0100
0000
0010
0000
1000
0100
1000
0100
0010
0000
0001
0000
0100
0000
,
0100
0001
1000
0100
1000
0001
0010
0100
,
0100
1000
1000
0001
0100
0100
1000
1000
,
0001
0010
1000
0100
1000
0001
0010
0100
,
2000
0000
0100
0000
3002
0000
0103
0020
0000
0130
0001
0100
0010
0000
1000
0000
,
0001
0000
1000
0000
0001
0000
0001
0000
0020
0000
0130
2000
0000
3100
0020
0000
,
0031
0000
0100
0000
0101
0000
0001
1000
0100
1000
0001
0000
0010
0100
0010
0100
,
2000
0100
3001
0002
0100
1003
0010
0100
,
0101
0000
0000
1001
0000
0000
1010
0000
0000
1100
0000
0000
0001
0000
0010
0000
,
0022
0000
0000
0000
,
0000
0000
0000
0000
,
0000
0000
0000
0000
,
0000
0000
0000
0000
,
0033
0000
0000
0000
;
