#VERSION:0.83;
#TITLE:DO ME;
#SUBTITLE:H.I.G.E.O. MIX;
#ARTIST:MUSTACHE MEN;
#TITLETRANSLIT:;
#SUBTITLETRANSLIT:;
#ARTISTTRANSLIT:;
#GENRE:Electro House;
#CREDIT:;
#MUSIC:DO ME (H.I.G.E.O. Mix).ogg;
#BANNER:DO ME (H.I.G.E.O. Mix).png;
#BACKGROUND:DO ME (H.I.G.E.O. Mix)-bg.png;
#CDTITLE:;
#SAMPLESTART:38.769;
#SAMPLELENGTH:15.000;
#SELECTABLE:YES;
#OFFSET:-1.842;
#BPMS:0.000=130.000;
#STOPS:;
#SPEEDS:0.000=1.000=0.000=0;
#SCROLLS:0.000=1.000;
#TICKCOUNTS:0.000=4;
#TIMESIGNATURES:0.000=4=4;
#LABELS:0.000=Song Start;
#COMBOS:0.000=1;
#DISPLAYBPM:130.000;
#ORIGIN:DanceDanceRevolution 4thMIX PLUS;
#PREVIEWVID:;
#JACKET:DO ME-jacket.png;
#CDIMAGE:;
#DISCIMAGE:;
#BGCHANGES:;
#FGCHANGES:;

//--------------- dance-single - Funtastrophe ----------------
#NOTEDATA:;
#STEPSTYPE:dance-single;
#DESCRIPTION:Funtastrophe;
#DIFFICULTY:Hard;
#METER:10;
#RADARVALUES:0.462714,0.462635,0.397966,0.055273,0.281893,293,257,36,5,0,0,0,0,0,0.462714,0.462635,0.397966,0.055273,0.281893,293,257,36,5,0,0,0,0,0;
#DISPLAYBPM:130.000;
#CHARTSTYLE:;
#CREDIT:Funtastrophe;
#NOTES:
0000
0000
0000
0000
,
0000
0000
0000
0000
,
0000
0000
0000
0000
,
0000
0000
0000
0000
,
1000
0000
0100
0000
1000
0000
0100
0000
0010
0000
0000
0010
0000
0000
0010
0000
,
0000
0000
0001
0000
0100
0000
0001
0000
0010
0000
0000
0010
0000
0000
0010
0000
,
0100
0000
1000
0000
0100
0000
1000
0000
0010
0000
0000
0010
0000
0000
0010
0000
,
0100
0000
0010
0000
0100
0000
0010
0000
0100
0000
0001
0000
0000
0001
0000
0000
,
0001
0000
0100
0000
0010
0000
1000
0000
0100
0000
0000
0011
0000
0000
0001
0000
,
0100
0000
0000
1010
0000
0000
1000
0000
0100
0000
0000
0010
0000
0000
0100
0000
,
1000
0000
0010
0000
0100
0000
0001
0000
0010
0000
0000
1100
0000
0000
1000
0000
,
0010
0000
0000
0101
0000
0000
0001
0000
0010
0000
0000
0100
0000
0000
0010
0000
,
0001
0000
0000
0100
0000
0000
0010
0000
1000
0000
0000
0010
0000
0000
0100
0000
,
0001
0000
0000
1000
0000
0000
0100
0000
1000
0000
0000
0010
0000
0000
1000
0000
,
1000
0000
0000
0100
0000
0000
0010
0000
0001
0000
0000
0010
0000
0000
0100
0000
,
1000
0000
0000
0001
0000
0000
0100
0000
0001
0000
0000
0010
0000
0000
0001
0000
,
1000
1010
0000
1010
0000
1010
0000
1010
,
0000
1010
0000
1010
0000
1000
0001
0010
,
0000
0011
0000
0011
0000
0011
0000
0011
,
0001
0010
0001
0010
0001
1000
0001
0100
,
0001
0000
0010
0000
0100
0000
1000
0000
0010
0000
0000
0101
0000
0000
0001
0000
,
0010
0000
0000
1100
0000
0000
1000
0000
0010
0000
0000
0001
0000
0000
0010
0000
,
1000
0000
0100
0000
0010
0000
0001
0000
0100
0000
0000
1010
0000
0000
1000
0000
,
0100
0000
0000
0011
0000
0000
0001
0000
0100
0000
0000
1000
0000
0000
0100
0000
,
0001
0000
0000
0010
0000
0000
1000
0000
0001
0000
0000
1000
0000
0000
0010
0000
,
0001
0000
0000
0100
0000
0000
0010
0000
1000
0000
0000
0010
0000
0000
0100
0000
,
0001
0000
0000
0010
0000
0000
1000
0000
0001
0000
0000
1000
0000
0000
0010
0000
,
0001
0100
0001
0100
0001
0010
0100
1000
,
1100
0000
1000
0000
1000
0000
1000
0001
,
0000
0001
0000
0000
0101
0000
0000
0000
0101
0000
0000
0000
0101
0000
1000
0000
,
0000
1000
0000
0000
1010
0000
0000
0000
1010
0000
0000
0000
1010
0000
0001
0000
,
0000
0001
0000
0000
0001
0000
1000
0000
0002
0000
0000
0000
0000
0000
0000
0000
,
1003
0000
0010
0000
1000
0000
0010
0000
0100
0000
0000
0100
0000
0000
0100
0000
,
0000
0000
0001
0000
0010
0000
0001
0000
0100
0000
0000
0100
0000
0000
0100
0000
,
0001
0000
0010
0000
0001
0000
0010
0000
0100
0000
0000
0100
0000
0000
0100
0000
,
1000
0000
0010
0000
1000
0000
0010
0000
1000
0000
0001
0000
0000
0001
0000
0000
,
0001
0000
0010
0000
0100
0000
1000
0000
0010
0000
0000
0101
0000
0000
0001
0000
,
0010
0000
0000
1100
0000
0000
1000
0000
0010
0000
0000
0001
0000
0000
1000
0000
,
0100
0000
0001
0000
1000
0000
0001
0000
0010
0000
0000
1100
0000
0000
1000
0000
,
0010
0000
0000
0101
0000
0000
0001
0000
0010
0000
0000
1000
0000
0000
0010
0000
,
0001
0000
0010
0000
0100
0000
1000
0000
0010
0000
0000
0101
0000
0000
0001
0000
,
0010
0000
0000
1100
0000
0000
1000
0000
0010
0000
0000
0001
0000
0000
1000
0000
,
0100
0000
0001
0000
1000
0000
0001
0000
0010
0000
0000
1100
0000
0000
1000
0000
,
0010
0000
0000
0101
0000
0000
0001
0000
0010
0000
0000
1100
0000
0000
1000
0000
,
2002
0000
0000
3003
,
0001
0000
0000
0100
0000
0000
1000
0000
0100
0000
0000
0001
0000
0000
1000
0000
,
0022
0000
0033
0000
;

//--------------- dance-single - Funtastrophe ----------------
#NOTEDATA:;
#STEPSTYPE:dance-single;
#DESCRIPTION:Funtastrophe;
#DIFFICULTY:Challenge;
#METER:13;
#RADARVALUES:0.585894,0.616847,0.132655,0.298474,0.679859,371,359,12,27,0,0,0,0,0,0.585894,0.616847,0.132655,0.298474,0.679859,371,359,12,27,0,0,0,0,0;
#DISPLAYBPM:130.000;
#CHARTSTYLE:;
#CREDIT:Funtastrophe;
#NOTES:
0000
0000
0000
0000
,
0000
0000
0000
0000
,
0000
0000
0000
0000
,
0000
0000
0000
0000
,
1001
0000
0001
0000
0100
0000
0010
0000
2000
0000
0000
0100
0000
0000
3001
0000
,
0000
0000
0001
0000
0100
0000
0001
0000
2000
0000
0000
0010
0000
0000
3001
0000
,
0001
0000
1000
0000
0100
0000
1000
0000
0002
0000
0000
0010
0000
0000
1003
0000
,
0100
0000
0010
0100
0010
0100
0010
0100
0010
0100
0001
0000
0000
0110
0000
0000
,
1100
0000
0010
0000
0100
0000
0001
0000
1000
0000
0001
0100
0000
0100
1000
0000
,
0001
0000
1000
0100
0000
0100
0001
0000
1000
0000
0001
0100
0000
0100
1000
0000
,
0001
0000
0010
0000
0100
0000
1000
0000
0001
0000
1000
0100
0000
0100
0001
0000
,
1000
0000
0001
0100
0000
0100
1000
0000
0001
0000
1000
0100
0000
0100
0001
0000
,
1000
0000
1000
0010
0000
0010
0100
0000
1000
0000
1000
0100
0000
0100
0001
0000
,
0010
0000
0100
1000
0000
0100
1000
0000
0010
0000
0100
0001
0000
0100
0001
0000
,
1000
0000
1000
0100
0000
0100
0010
0000
1000
0000
1000
0010
0000
0010
0001
0000
,
0100
0001
0100
0001
1000
0000
0100
1000
0000
0001
0010
0100
1000
0000
1000
0000
,
0002
0000
0010
0003
2000
0000
0010
3000
0002
0000
0010
0003
2000
0000
0010
3000
,
0002
0000
0010
0003
2000
0000
0010
3000
0001
0100
0010
0000
0100
0000
0001
0000
,
2000
0000
0100
3000
0002
0000
0100
0003
2000
0000
0100
3000
0002
0000
0100
0003
,
2000
0000
0100
3000
0002
0000
0100
0003
1000
0001
0010
0000
0100
0000
1000
0000
,
0001
0000
0100
0000
0010
0000
1000
0000
0001
0000
0010
0100
0000
0010
0001
0000
,
1000
0000
0010
0100
0000
0010
1000
0000
0001
0000
0010
1000
0000
0010
0001
0000
,
1000
0000
0010
0000
0100
0000
0001
0000
1000
0000
0010
0100
0000
0010
1000
0000
,
0001
0000
0010
0100
0000
0010
0001
0000
1000
0000
0010
0001
0000
0010
1000
0000
,
0001
0000
0001
0010
0000
0010
0100
0000
0001
0000
0001
0100
0000
0100
0010
0000
,
0001
0000
1000
0100
0000
1000
0100
0000
0010
0000
0001
0100
0000
0001
0100
0000
,
0001
0000
0001
0100
0000
0100
0010
0000
0001
0000
0001
0010
0000
0010
0100
0000
,
0001
0100
0001
0100
0001
0000
1000
0010
0000
0001
0010
1000
0001
0000
0001
0000
,
1100
0000
0000
0000
0000
0000
0000
0011
,
0010
0001
0000
0000
0000
0000
0000
0000
0000
0000
0000
0000
0000
0000
0101
0000
,
0100
0001
0000
0000
0000
0000
0000
0000
0000
0000
0000
0000
0000
0000
1100
0000
,
0100
1000
0000
0000
1000
0000
1000
0000
2000
0000
0000
0000
0000
0000
0000
0000
,
3001
0000
1000
0100
1000
0000
0001
0000
2000
0000
0000
0010
0000
0000
3001
0000
,
0000
0000
0001
0100
0001
0000
1000
0000
0002
0000
0000
0010
0000
0000
1003
0000
,
1000
0010
0000
0010
0100
0000
0100
0000
0002
0000
0000
0100
0000
0000
1003
0000
,
0001
0010
0000
0010
0100
0001
0100
0001
0100
0000
0101
0000
0000
0110
0000
0000
,
1100
0000
1000
0000
0100
0000
0010
0000
0001
0000
0001
0010
0000
0010
2000
0000
,
3001
0000
0001
0100
0000
0100
2000
0000
3100
0000
0100
0010
0000
0010
0001
0000
,
1000
0000
0010
0000
0100
0000
0001
0000
1000
0000
1000
0010
0000
0010
0002
0000
,
1003
0000
1000
0100
0000
0100
0002
0000
1003
0000
1000
0010
0000
0010
0100
0000
,
0001
0000
0010
0000
0100
0000
1000
0000
0001
0000
1000
0100
0000
0100
0001
0000
,
1000
0000
0001
0100
0000
0100
1000
0000
0001
0000
0010
1000
0000
0010
0001
0000
,
1000
0000
0010
0000
0100
0000
0001
0000
1000
0000
0001
0100
0000
0100
1000
0000
,
0001
0000
1000
0100
0000
0100
0001
0000
1000
0000
0010
0001
0000
0010
1000
0000
,
2002
0000
0000
0000
0000
0000
0000
3003
,
1000
0000
0100
0001
0000
0100
1000
0000
0001
0000
0100
1000
0000
0100
0001
0000
,
0220
0000
0330
0000
;
