#VERSION:0.83;
#TITLE:CRAZY♥LOVE;
#SUBTITLE:;
#ARTIST:jun;
#TITLETRANSLIT:CRAZY<3LOVE;
#SUBTITLETRANSLIT:;
#ARTISTTRANSLIT:;
#GENRE:Eurobeat;
#CREDIT:;
#MUSIC:CRAZY LOVE.ogg;
#BANNER:CRAZY LOVE.png;
#BACKGROUND:CRAZY LOVE-bg.png;
#CDTITLE:;
#SAMPLESTART:39.320;
#SAMPLELENGTH:15.000;
#SELECTABLE:YES;
#OFFSET:-1.362;
#BPMS:0.000=177.000;
#STOPS:;
#SPEEDS:0.000=1.000=0.000=0;
#SCROLLS:0.000=1.000;
#TICKCOUNTS:0.000=4;
#TIMESIGNATURES:0.000=4=4;
#LABELS:0.000=Song Start;
#COMBOS:0.000=1;
#DISPLAYBPM:88.000:177.000;
#ORIGIN:DDR 2010 / Hottest Party 4;
#PREVIEWVID:;
#JACKET:CRAZY LOVE-jacket.png;
#CDIMAGE:;
#DISCIMAGE:;
#BGCHANGES:;
#FGCHANGES:;

//--------------- dance-single - Funtastrophe ----------------
#NOTEDATA:;
#STEPSTYPE:dance-single;
#DESCRIPTION:Funtastrophe;
#DIFFICULTY:Challenge;
#METER:14;
#RADARVALUES:0.686315,0.742103,0.089464,0.670979,0.219186,537,527,10,75,0,0,0,0,0,0.686315,0.742103,0.089464,0.670979,0.219186,537,527,10,75,0,0,0,0,0;
#DISPLAYBPM:88.000:177.000;
#CHARTSTYLE:;
#CREDIT:Funtastrophe;
#NOTES:
0000
0000
0000
0000
,
0000
0000
0000
0000
,
0000
0000
0000
0000
,
0000
0000
0000
0000
,
1000
0100
0010
0002
0000
0013
0100
0010
,
0001
0100
0010
2000
0000
3010
0100
0001
,
1000
0100
0010
0002
0000
0013
0100
0010
,
1000
0000
1000
0000
0010
0000
0010
0000
0100
0000
0000
0000
1000
0000
1000
0001
,
1000
0010
0100
0001
0001
0100
0010
0100
,
0001
0010
0100
1000
1000
0100
0010
0100
,
1000
0010
0100
0001
0001
0100
0010
0100
,
1000
0000
0001
0000
0010
0000
0100
0000
0002
0000
0000
0000
1003
0000
1000
0001
,
1000
0000
0100
0000
1000
0000
0010
0000
0000
0000
0010
0000
0100
0000
0001
1000
,
0001
0000
1000
0000
0100
0000
0010
0000
0000
0000
0010
0000
0001
0000
1000
0001
,
1000
0000
0010
0000
1000
0000
0001
0000
0100
0000
0001
0000
0010
0000
0100
1000
,
0100
0000
0010
0000
0001
0000
0100
0000
0010
0000
1000
0000
0001
0000
1000
0001
,
1000
0000
0100
0000
0010
0000
1000
0000
0010
0000
0100
0000
1000
0000
0001
1000
,
0001
0000
0100
0000
0010
0000
0001
0000
0010
0000
0100
0000
0001
0000
1000
0001
,
1000
0000
0100
0000
0010
0000
0001
0000
0100
0000
0010
0000
0100
0000
0001
1000
,
0002
0000
0000
0000
0013
0000
0020
0000
0000
0000
0130
0000
1000
0100
1000
0100
,
2000
0000
0000
0000
3100
0000
0001
0000
0000
0000
0100
0000
1000
0000
0001
0100
,
0002
0000
0000
0000
0103
0000
1000
0000
0000
0000
0100
0000
0001
0000
1000
0100
,
0020
0000
0000
0030
0010
0000
0002
0000
0000
0003
0001
0000
0100
0000
0010
1000
,
0020
0000
0000
0030
0010
0000
0200
0000
0000
0000
0301
0000
1000
0000
0010
0100
,
0002
0000
0000
0000
0103
0000
2000
0000
0000
0000
3100
0000
0001
0000
1000
0100
,
0002
0000
0000
0003
0001
0000
0200
0000
0000
0300
0100
0000
1000
0000
0001
0100
,
0001
0000
0001
0000
0010
0000
0001
0000
0000
0000
0001
0000
0100
0000
0001
0100
,
0010
0000
1000
0000
0100
0000
0000
0000
1100
0000
0010
0001
0010
0100
1000
0000
,
0002
0000
0013
1100
0000
1000
0001
0100
,
0001
0001
0010
1100
0000
1000
0001
0100
,
0001
0010
0100
0002
0000
0203
0000
0320
,
0000
0000
0031
0000
1000
0000
0020
0000
0000
0000
1030
0000
0001
0000
1000
0001
,
2000
0000
3010
0101
0000
0001
1000
0100
,
1000
1000
0010
0101
0000
0001
1000
0100
,
1000
0010
0100
2000
0000
3200
0000
0320
,
0000
0000
1030
0000
0001
0000
0010
0000
0001
0000
1000
0000
1001
0000
0001
1000
,
0002
0000
0000
0000
0013
0000
2000
0000
0000
0000
3010
0000
0001
0000
1000
0001
,
1000
0010
0100
2000
0000
3100
0010
0001
,
0010
0010
1000
0020
0000
2030
0000
3002
,
0000
0000
0013
0000
0100
0000
1000
0000
0001
0000
0100
0000
0010
0000
0100
0001
,
2000
0000
0000
0000
3100
0000
0002
0000
0000
0000
0103
0000
1000
0000
0001
1000
,
0001
0000
0001
0000
0100
0000
2000
0000
0000
0000
3100
0000
0001
0000
1000
0001
,
1000
0000
0010
0000
0100
0000
0001
0000
0010
0000
0001
0100
0001
0100
0001
0100
,
0010
0000
0010
0000
1000
0000
1000
0000
0001
0000
0000
0000
1001
0000
0001
1000
,
0001
0100
0010
0002
0000
0013
0100
0010
,
1000
0100
0010
2000
0000
3010
0100
1000
,
0001
0100
0010
0002
0000
0013
1000
0100
,
0001
0000
0001
0000
0100
0000
0100
0000
1000
0000
0000
0000
1001
0000
1000
0001
,
1000
0100
0010
2000
0000
3010
0100
0010
,
0001
0100
0010
0002
0000
0013
0100
0010
,
1000
0100
0010
2000
0000
3010
0100
0010
,
0100
0000
1000
0000
0010
0000
0100
0000
0001
0000
0100
0000
0010
0000
0100
0001
,
2000
0000
0000
0000
3100
0000
0020
0000
0000
0000
0130
0000
1000
0000
0001
1000
,
0002
0000
0000
0000
0103
0000
0020
0000
0000
0000
0130
0000
0001
0000
1000
0001
,
2000
0000
3100
0002
0000
0103
0010
0001
,
0200
0000
0000
0000
1300
0000
0200
0000
0000
0000
0301
0000
1000
0000
0001
1000
,
0002
0000
0000
0000
0103
0000
0020
0000
0000
0000
0130
0000
0001
0000
1000
0001
,
2000
0000
0000
0000
3100
0000
0020
0000
0000
0000
0130
0000
1000
0000
0001
1000
,
0002
0000
0103
2000
0000
3100
0010
1000
,
0100
0000
0010
0000
1000
0000
0020
0000
0000
0000
0000
0000
0031
0000
1000
0001
,
2000
0000
3010
1000
0000
0000
0000
0000
,
0001
0001
0010
0001
0000
0010
0001
0100
,
0001
0000
0001
0000
0010
0000
0002
0000
0000
0000
2003
0000
0000
3000
2000
0000
,
0000
3010
0100
0001
0000
0100
0010
1000
,
0002
0000
0013
0001
0000
0000
0000
0000
,
1000
1000
0010
1000
0000
0010
1000
0100
,
1000
0000
1000
0000
0010
0000
2000
0000
0000
0000
3002
0000
0000
0003
0002
0000
,
0000
0013
0100
1000
0001
0000
1001
0000
,
2000
0000
0000
0000
3010
0000
0002
0000
0000
0000
0013
0000
1000
0000
0001
1000
,
0001
0010
0100
0002
0000
0103
0010
1000
,
0010
0010
0001
0020
0000
0032
0000
2003
,
0000
0000
3010
0000
0100
0000
0001
0000
0000
0000
0001
0000
0010
0000
0100
1000
,
0001
0000
0100
0000
0001
0000
1000
0000
0001
0000
0100
0000
0001
0000
1000
0001
,
1000
0000
0100
0000
1000
0000
0001
0000
1000
0000
0100
0000
1000
0000
0001
1000
,
0002
0000
0103
0010
0100
2000
0000
0000
,
3200
0000
0301
1000
0001
0020
0000
0000
,
0130
1000
0001
0100
0000
0100
1000
0100
,
0000
0100
0010
0100
0001
0000
2020
0000
,
0000
0000
0000
0000
,
3030
0000
0000
0000
;
