#VERSION:0.83;
#TITLE:Arrabbiata;
#SUBTITLE:;
#ARTIST:Reven-G改;
#TITLETRANSLIT:;
#SUBTITLETRANSLIT:;
#ARTISTTRANSLIT:Reven-G Kai;
#GENRE:CYBER ARABIAN;
#CREDIT:;
#MUSIC:Arrabbiata.ogg;
#BANNER:Arrabbiata.png;
#BACKGROUND:Arrabbiata-bg.png;
#CDTITLE:;
#SAMPLESTART:1.080;
#SAMPLELENGTH:15.000;
#SELECTABLE:YES;
#OFFSET:-1.068;
#BPMS:0.000=225.000;
#STOPS:;
#SPEEDS:0.000=1.000=0.000=0;
#SCROLLS:0.000=1.000;
#TICKCOUNTS:0.000=4;
#TIMESIGNATURES:0.000=3=4,
54.000=4=4,
58.000=3=4,
73.000=4=4,
77.000=3=4,
83.000=4=4,
87.000=3=4,
93.000=4=4,
97.000=3=4,
112.000=4=4,
116.000=3=4,
128.000=4=4,
132.000=3=4,
171.000=4=4,
211.000=5=4,
216.000=3=4,
270.000=4=4,
274.000=3=4,
289.000=4=4,
293.000=3=4,
299.000=4=4,
303.000=3=4,
309.000=4=4,
313.000=3=4,
328.000=4=4,
332.000=3=4
;
#LABELS:0.000=Song Start;
#COMBOS:0.000=1;
#DISPLAYBPM:225.000;
#ORIGIN:DanceDanceRevolution SuperNOVA2;
#PREVIEWVID:;
#JACKET:Arrabbiata-jacket.png;
#CDIMAGE:;
#DISCIMAGE:;
#BGCHANGES:;
#FGCHANGES:;

//--------------- dance-single - Funtastrophe ----------------
#NOTEDATA:;
#STEPSTYPE:dance-single;
#DESCRIPTION:Funtastrophe;
#DIFFICULTY:Challenge;
#METER:14;
#RADARVALUES:0.605789,0.755838,0.009908,1.258285,0,428,427,1,127,0,0,7,0,0,0.605789,0.755838,0.009908,1.258285,0,428,427,1,127,0,0,7,0,0;
#DISPLAYBPM:225.000;
#CHARTNAME:;
#CHARTSTYLE:;
#CREDIT:Funtastrophe;
#NOTES:
0000
0000
0000
0000
,
0000
0000
0000
0000
,
0000
0000
0000
0000
,
0000
0000
0000
0000
,
0000
0000
0000
0000
,
0000
0000
0000
0000
,
1000
0001
0010
0100
0010
0001
1000
0001
,
0100
0010
0100
0001
1000
0001
0010
0100
,
0010
0001
1000
0001
0100
0010
0100
0001
,
1000
0100
0010
0001
0010
0100
1000
0010
,
0100
0001
0100
0010
1000
0000
0000
0000
,
1000
0100
0001
1000
0010
0100
1000
0001
,
2000
0000
3000
1000
0020
0000
0000
0030
,
2000
3020
0032
0023
,
2030
0000
3002
0000
2003
0000
3000
1000
,
0200
0000
0000
0300
0010
0001
1000
0001
,
0200
0320
2030
3002
,
0003
0001
0020
0000
0000
0030
0200
0000
,
0302
2003
3020
0032
,
2003
0000
3200
0000
0300
0100
2000
0000
,
3000
0002
0203
2300
,
3200
0302
2003
3002
,
0003
0001
2000
0000
0000
3000
0200
0000
,
0302
2003
3002
0203
,
2300
0000
3002
0000
0003
0001
2000
0000
,
3000
0000
0010
0100
0001
0100
2000
0000
,
3200
0000
0302
0000
2003
0000
3000
1000
,
0002
0003
0200
0320
,
0032
2003
3200
0302
,
2003
0000
3000
1000
0002
0000
0003
0000
,
2000
3200
0302
0203
,
2300
0000
3002
0000
0003
0100
0020
0000
,
2030
0000
3000
0100
0020
0000
0031
0000
,
1000
0100
0010
0001
0010
0100
1000
0100
,
1000
0100
4000
0000
3001
0100
0010
1000
,
0010
0100
0001
0100
0004
0000
0103
0001
,
1000
0100
0010
0001
0200
0000
0300
0000
,
0001
1000
0004
0000
1003
0001
0010
0100
,
0010
0001
1000
0001
1000
0001
4000
0000
,
3001
1000
0010
0100
1000
0100
0010
1000
,
0001
1000
0004
0000
1003
0100
0010
0001
,
0010
0100
1000
0001
4000
0000
3001
1000
,
0001
0100
0010
1000
0400
0000
1300
0000
,
0001
0000
0010
0001
0100
0001
1000
0000
,
0001
0000
0010
0001
0100
0001
1000
0000
,
0001
0000
0010
0001
0100
0001
1000
0001
,
0100
0001
0010
0001
0100
0001
0001
0000
,
1000
0000
0010
1000
0100
1000
0001
0000
,
1000
0000
0010
1000
0100
1000
0001
0000
,
1000
0000
0010
1000
0100
1000
0010
1000
,
0100
1000
0001
1000
0100
1000
0001
0000
,
0100
0000
1000
0100
0010
0100
0001
0000
,
0100
0000
1000
0100
0010
0100
0001
0100
,
0001
0100
0001
0100
0001
0100
0001
0100
,
0102
0000
0000
2003
,
0000
0000
0200
0000
,
3000
0000
1300
0100
0010
0001
0100
0000
,
0001
0100
0010
1000
0100
0000
1000
0100
,
0010
0001
0100
0000
0001
0100
0010
1000
,
0100
0000
1000
0001
0010
0001
0100
0000
,
0001
1000
0010
1000
0100
0000
1000
0001
,
0100
0001
0010
0000
0001
1000
0100
1000
,
0010
0000
1000
0100
0010
0100
0001
0000
,
1000
0010
0100
0010
0001
0000
1000
0010
,
0100
0010
0001
0000
1000
0100
0010
0100
,
0001
0000
1000
0100
0001
1000
0010
0100
,
2000
0000
3000
1000
0020
0000
0000
0030
,
2000
3020
0032
0023
,
2030
0000
3002
0000
2003
0000
3000
1000
,
0200
0000
0000
0300
0010
0001
1000
0001
,
0200
0320
2030
3002
,
0003
0001
0020
0000
0000
0030
0200
0000
,
0302
2003
3020
0032
,
2003
0000
3200
0000
0300
0100
2000
0000
,
3000
0002
0203
2300
,
3200
0302
2003
3002
,
0003
0001
2000
0000
0000
3000
0200
0000
,
0302
2003
3002
0203
,
2300
0000
3002
0000
0003
0001
2000
0000
,
3000
0000
0010
0100
0001
0100
2000
0000
,
3200
0000
0302
0000
2003
0000
3000
1000
,
0002
0003
0200
0320
,
0032
2003
3200
0302
,
2003
0000
3000
1000
0002
0000
0003
0000
,
2000
3200
0302
0203
,
2300
0000
3002
0000
0003
0100
0020
0000
,
2030
0000
3000
0100
0020
0000
0030
0000
,
0001
0100
0010
1000
0010
0100
0001
0010
,
1000
0010
0002
0000
0000
0000
0000
0000
,
0000
0000
0000
0003
;
